osu file format v14

[General]
AudioFilename: koi yomi zakura.mp3
AudioLeadIn: 0
PreviewTime: 204284
Countdown: 0
SampleSet: None
StackLeniency: 0.7
Mode: 0
LetterboxInBreaks: 0
WidescreenStoryboard: 0

[Editor]
Bookmarks: 24374,35802,94374,104374,138302,164374,190088
DistanceSpacing: 1
BeatDivisor: 8
GridSize: 16
TimelineZoom: 2

[Metadata]
Title:Koi Yomi Zakura (Full size)
TitleUnicode:恋詠桜(Full size)
Artist:loos
ArtistUnicode:loos
Creator:papapa213
Version:Ametrin's Easy
Source:
Tags:omoi yoshino オモイヨシノ 柊莉杏 Hiiragi Rian spice+rock imouto ouo koko lyric ametrin yf_bmp gust ultimate madoka
BeatmapID:1358961
BeatmapSetID:602230

[Difficulty]
HPDrainRate:2
CircleSize:3
OverallDifficulty:2
ApproachRate:3
SliderMultiplier:0.8
SliderTickRate:1

[Events]
//Background and Video events
0,0,"48542248_p0.jpg",0,0
//Break Periods
2,24574,34362
2,93302,94362
2,127231,137219
2,164374,174362
2,187588,188648
//Storyboard Layer 0 (Background)
//Storyboard Layer 1 (Fail)
//Storyboard Layer 2 (Pass)
//Storyboard Layer 3 (Foreground)
//Storyboard Sound Samples

[TimingPoints]
1517,357.142857142857,4,3,10,40,1,0
12231,-100,4,3,10,60,0,0
12945,-100,4,3,10,70,0,0
24374,-100,4,2,10,50,0,0
36516,-100,4,3,10,60,0,0
46874,-100,4,3,10,70,0,0
58659,-100,4,2,11,70,0,1
78659,-100,4,3,10,70,0,1
81516,-100,4,3,10,70,0,0
95802,-100,4,3,10,60,0,0
115445,-100,4,3,10,70,0,0
138659,-100,4,2,10,60,0,0
144374,-100,4,3,0,40,0,0
145802,-100,4,3,0,45,0,0
150088,-100,4,3,10,70,0,1
164374,-158.730158730159,4,3,10,70,0,0
190088,-100,4,3,10,70,0,0
204374,-100,4,2,11,70,0,1
224374,-100,4,3,10,70,0,1
229374,-100,4,3,10,50,0,0
230802,-100,4,3,10,40,0,0

[Colours]
Combo1 : 233,50,82
Combo2 : 238,87,174
Combo3 : 236,223,66
Combo4 : 33,156,222

[HitObjects]
155,204,1517,6,0,L|175:45,1,160,4|0,0:0|0:0,0:0:0:0:
335,45,2945,2,0,L|358:228,1,160,4|0,0:0|0:0,0:0:0:0:
312,271,4016,1,0,0:0:0:0:
256,329,4374,2,0,B|177:308|177:350|96:328,2,160,4|0|2,0:0|0:0|0:1,0:0:0:0:
256,329,7231,5,4,1:1:0:0:
318,181,7945,1,0,1:0:0:0:
418,305,8659,2,0,P|434:380|440:407,2,80,0|8|0,1:0|1:3|1:0,0:0:0:0:
258,323,10088,1,0,1:0:0:0:
196,175,10802,1,0,1:0:0:0:
75,280,11516,2,0,P|66:357|63:384,2,80,0|0|8,1:0|0:0|1:0,0:0:0:0:
25,127,12945,6,0,B|70:123|111:105,1,80,4|8,0:1|1:0,0:0:0:0:
170,66,13659,1,0,1:0:0:0:
256,201,14374,2,0,L|256:308,2,80,0|8|0,1:0|1:0|1:0,0:0:0:0:
340,65,15802,2,0,B|367:91|421:113,1,80,0|8,1:0|1:0,0:0:0:0:
485,125,16516,1,2,1:2:0:0:
335,181,17231,2,0,P|255:173|175:182,1,160,0|0,1:0|1:0,0:0:0:0:
61,292,18659,6,0,P|77:224|74:159,1,120,4|4,1:3|1:3,0:0:0:0:
13,0,20088,2,0,P|87:11|140:10,1,120,4|4,1:3|1:3,0:0:0:0:
255,168,21516,6,0,L|255:288,2,120,4|4|4,1:1|1:2|1:1,0:0:0:0:
286,95,22945,2,0,B|327:40|396:72|396:72|395:149|335:159,1,240,4|8,1:2|0:1,0:0:0:0:
255,168,24374,5,4,1:1:0:0:
500,329,35802,6,0,P|421:337|328:328,1,160,4|0,1:0|0:0,0:0:0:0:
334,170,37231,2,0,P|340:116|334:70,2,80,0|8|0,0:2|0:1|0:0,0:0:0:0:
254,179,38302,1,0,0:0:0:0:
174,170,38659,6,0,P|168:116|174:70,2,80,0|8|0,0:0|0:1|0:0,0:0:0:0:
183,314,40088,2,0,P|134:321|79:322,2,80,2|8|2,0:2|0:1|0:2,0:0:0:0:
254,350,41159,1,8,2:3:0:0:
327,314,41516,6,0,P|411:327|488:317,1,160,2|0,0:2|0:0,0:0:0:0:
411,175,42945,2,0,L|416:91,2,80,0|8|0,0:0|0:1|0:0,0:0:0:0:
295,285,44374,6,0,P|260:290|213:285,1,80,4|4,0:3|1:1,0:0:0:0:
155,232,45088,2,0,L|150:148,1,80,4|12,0:3|0:2,0:0:0:0:
190,83,45802,2,0,B|236:79|265:108|265:108|338:80|338:80|369:107|412:102,1,240,4|8,0:3|1:3,0:0:0:0:
419,262,47588,6,0,B|455:276|497:282,1,80,8|0,2:2|0:0,0:0:0:0:
461,167,48481,2,0,P|399:157|343:192,1,120,2|8,0:1|0:2,0:0:0:0:
327,259,49374,2,0,L|336:357,1,80,2|0,0:2|0:0,0:0:0:0:
174,336,50445,6,0,L|182:256,1,80,8|0,2:2|0:0,0:0:0:0:
142,143,51338,2,0,P|90:116|32:126,1,120,2|10,0:0|0:2,0:0:0:0:
11,204,52231,2,0,B|29:256|29:299,1,80,0|8,0:2|2:0,0:0:0:0:
153,381,53302,6,0,B|153:355|171:303,1,80,8|0,2:0|0:0,0:0:0:0:
197,186,54195,2,0,B|239:188|239:188|275:204|275:204|320:207,1,120,2|8,0:1|2:0,0:0:0:0:
383,168,55088,2,0,B|401:116|401:90,1,80,8|8,2:0|2:0,0:0:0:0:
360,21,55802,6,0,B|317:16|286:43|286:43|213:15|213:15|184:44|133:40,1,240,12|8,2:0|2:0,0:0:0:0:
57,31,57231,1,12,3:2:0:0:
57,31,58659,6,0,P|72:120|82:217,1,160,12|0,3:1|3:3,0:0:0:0:
73,269,59731,2,0,P|153:290|213:241,1,160,8|8,3:2|3:2,0:0:0:0:
255,180,60802,2,0,L|256:127,2,40,8|0|8,3:3|0:0|3:2,0:0:0:0:
300,245,61516,6,0,P|363:290|438:268,1,160,2|2,3:3|3:3,0:0:0:0:
508,231,62588,1,8,3:2:0:0:
440,188,62945,2,0,P|422:142|417:82,2,80,2|10|10,3:2|3:2|3:2,0:0:0:0:
505,42,64374,6,0,P|446:1|339:30,1,160,4|0,3:3|3:3,0:0:0:0:
305,68,65445,2,0,L|327:242,1,160,8|8,3:2|3:2,0:0:0:0:
255,266,66516,2,0,L|256:335,2,40,8|0|8,3:3|0:0|3:2,0:0:0:0:
186,226,67231,6,0,L|207:68,1,160,2|0,3:3|3:0,0:0:0:0:
141,22,68302,1,8,3:2:0:0:
86,80,68659,2,0,P|34:85|-10:73,2,80,2|8|0,3:2|3:2|3:2,0:0:0:0:
207,184,70088,6,0,P|128:197|88:285,1,160,12|0,3:1|3:3,0:0:0:0:
48,330,71159,2,0,B|89:348|122:344|129:318|158:316|206:334,1,160,10|8,3:2|3:2,0:0:0:0:
256,273,72231,2,0,L|256:210,2,40,0|0|8,3:3|0:0|3:2,0:0:0:0:
308,332,72945,6,0,B|354:316|383:318|390:344|423:348|464:330,1,160,8|0,3:3|3:0,0:0:0:0:
511,265,74016,1,8,3:2:0:0:
497,185,74374,2,0,P|469:152|425:118,2,80,2|8|8,3:2|3:2|3:2,0:0:0:0:
338,204,75802,6,0,B|398:207|407:284|407:284|342:323|295:272,1,240,12|8,3:1|3:2,0:0:0:0:
216,274,77231,2,0,B|182:324|111:294|111:294|110:218|177:203,1,240,12|8,3:1|3:2,0:0:0:0:
216,134,78659,2,0,B|188:79|256:34|256:34|320:78|297:137,1,240,4|0,1:2|0:0,0:0:0:0:
255,204,80088,5,4,1:2:0:0:
296,272,80445,2,0,P|333:278|393:274,2,80,0|2|2,1:0|1:0|0:1,0:0:0:0:
216,272,81516,6,0,P|179:278|119:274,1,80,4|8,1:1|0:1,0:0:0:0:
66,237,82231,2,0,L|49:132,1,80,2|8,0:2|0:1,0:0:0:0:
78,82,82945,2,0,P|138:29|230:60,1,160,0|0,0:0|0:0,0:0:0:0:
307,170,84374,6,0,P|344:174|403:166,1,80,6|8,0:2|0:1,0:0:0:0:
454,129,85088,2,0,L|502:222,1,80,2|8,0:2|0:1,0:0:0:0:
469,277,85802,2,0,P|395:308|330:247,1,160,0|4,0:0|0:0,0:0:0:0:
255,125,87231,5,4,3:1:0:0:
254,204,87588,2,0,L|254:316,2,80,0|2|8,0:1|0:2|0:1,0:0:0:0:
184,164,88659,2,0,P|110:142|54:194,1,160,4|0,2:0|0:0,0:0:0:0:
59,349,90088,6,0,P|99:366|154:369,1,80,4|8,0:1|0:1,0:0:0:0:
203,329,90802,2,0,L|219:232,1,80,2|8,0:3|0:1,0:0:0:0:
295,252,91516,2,0,L|308:330,2,80,4|2|4,0:1|0:0|0:1,0:0:0:0:
256,181,92588,1,0,0:0:0:0:
256,101,92945,5,4,2:1:0:0:
495,49,95802,6,0,P|470:123|454:216,1,160,4|0,0:1|0:0,0:0:0:0:
371,339,97231,2,0,P|356:260|331:184,1,160,0|0,0:0|0:0,0:0:0:0:
256,156,98302,1,0,0:1:0:0:
183,190,98659,2,0,P|157:265|143:344,1,160,2|0,0:2|0:0,0:0:0:0:
59,209,100088,2,0,P|44:130|19:54,1,160,0|0,0:0|0:0,0:0:0:0:
78,1,101159,1,0,0:2:0:0:
137,54,101516,6,0,P|186:62|231:55,1,80,4|12,0:3|1:0,0:0:0:0:
296,58,102231,2,0,P|335:60|374:53,1,80,4|8,0:3|2:0,0:0:0:0:
442,10,102945,1,0,0:0:0:0:
508,323,104374,6,0,P|456:250|470:178,1,160,4|0,1:2|0:0,0:0:0:0:
336,277,105802,2,0,P|349:318|351:359,2,80,0|8|0,0:2|0:1|0:0,0:0:0:0:
255,271,106874,1,0,0:0:0:0:
175,277,107231,6,0,P|162:318|160:359,2,80,0|8|0,0:0|0:1|0:2,0:0:0:0:
178,152,108659,2,0,P|146:135|82:130,2,80,2|8|2,0:2|0:1|0:2,0:0:0:0:
256,140,109731,1,8,2:3:0:0:
334,152,110088,6,0,P|366:135|497:141,1,160,2|0,0:2|0:0,0:0:0:0:
430,286,111516,2,0,L|430:388,2,80,2|8|0,0:2|0:1|0:0,0:0:0:0:
334,152,112945,6,0,P|276:138|241:144,1,80,4|4,0:3|1:1,0:0:0:0:
185,177,113659,2,0,L|179:283,1,80,4|12,0:3|0:2,0:0:0:0:
235,315,114374,2,0,B|278:320|309:293|309:293|382:321|382:321|411:292|457:296,1,240,4|8,0:3|1:3,0:0:0:0:
420,140,116159,6,0,B|456:126|498:120,1,80,8|0,2:2|0:0,0:0:0:0:
462,235,117052,2,0,P|400:245|344:210,1,120,2|8,0:1|0:2,0:0:0:0:
328,143,117945,2,0,L|337:45,1,80,2|0,0:2|0:0,0:0:0:0:
175,66,119016,6,0,L|183:146,1,80,8|0,2:2|0:0,0:0:0:0:
143,259,119909,2,0,P|91:286|33:276,1,120,2|10,0:0|0:2,0:0:0:0:
12,198,120802,2,0,B|30:146|30:103,1,80,0|8,0:2|2:0,0:0:0:0:
154,21,121873,6,0,B|154:47|172:99,1,80,8|0,2:0|0:0,0:0:0:0:
198,216,122766,2,0,B|240:214|240:214|276:198|276:198|321:195,1,120,2|8,0:1|2:0,0:0:0:0:
389,223,123659,2,0,B|407:275|407:301,1,80,8|8,2:0|2:0,0:0:0:0:
360,365,124373,6,0,B|317:370|286:343|286:343|213:371|213:371|184:342|133:346,1,240,8|8,2:0|2:0,0:0:0:0:
59,365,125802,1,4,0:2:0:0:
256,55,138659,5,2,0:0:0:0:
194,203,139373,1,2,0:0:0:0:
94,79,140087,2,0,P|85:2|82:-25,2,80,2|2|2,0:0|0:0|0:0,0:0:0:0:
254,61,141516,5,2,0:0:0:0:
316,209,142230,1,2,0:0:0:0:
416,85,142945,2,0,P|425:8|428:-19,2,80,2|0|2,0:0|0:0|0:0,0:0:0:0:
479,231,144374,6,0,P|422:242|394:244,2,80,0|0|0,0:0|0:0|0:0,0:0:0:0:
356,333,145802,2,0,P|298:333|274:338,2,80,0|0|0,0:0|0:0|0:0,0:0:0:0:
256,192,147231,12,0,148659,0:0:0:0:
18,83,150088,5,6,0:0:0:0:
97,91,150445,2,0,P|145:70|183:50,1,80,8|2,0:1|0:0,0:0:0:0:
174,217,151516,2,0,P|161:264|160:322,2,80,0|8|0,0:0|0:1|0:0,0:0:0:0:
254,217,152588,1,0,0:0:0:0:
334,217,152945,6,0,P|347:264|348:322,2,80,6|8|0,0:0|0:1|0:0,0:0:0:0:
342,57,154374,2,0,P|378:75|414:90,1,80,0|8,0:0|0:1,0:0:0:0:
494,83,155088,1,0,0:0:0:0:
463,156,155445,1,0,0:0:0:0:
412,218,155802,6,0,P|366:213|314:215,1,80,6|8,0:0|0:1,0:0:0:0:
256,187,156516,1,2,0:0:0:0:
150,307,157231,2,0,P|135:347|135:407,2,80,0|8|0,0:0|0:1|0:0,0:0:0:0:
71,291,158302,1,0,0:0:0:0:
99,216,158659,6,0,P|138:211|178:211,1,80,6|8,0:3|0:1,0:0:0:0:
256,187,159373,1,0,0:0:0:0:
362,307,160088,2,0,P|377:347|377:407,2,80,0|8|0,0:0|0:1|0:0,0:0:0:0:
287,165,161516,6,0,P|338:170|389:189,2,80,0|0|4,0:0|0:0|0:0,0:0:0:0:
130,131,162945,6,0,P|153:96|199:66,2,80,0|0|8,0:0|0:0|0:2,0:0:0:0:
297,155,175802,5,0,0:0:0:0:
96,91,177231,1,0,0:0:0:0:
221,263,178659,1,0,0:0:0:0:
221,50,180088,1,0,0:0:0:0:
96,222,181516,5,0,0:0:0:0:
297,155,182945,1,0,0:0:0:0:
192,341,184373,1,0,0:0:0:0:
168,129,185802,1,0,0:0:0:0:
298,282,187231,5,2,2:2:0:0:
72,28,190088,6,0,P|105:106|115:202,1,160,4|4,0:3|0:3,0:0:0:0:
101,339,191516,2,0,P|149:314|197:306,1,80,4|0,0:0|0:0,0:0:0:0:
226,247,192231,2,0,P|274:272|322:280,1,80,4|0,0:0|0:0,0:0:0:0:
376,296,192945,2,0,P|385:334|385:374,2,80,4|4|4,2:3|0:0|0:0,0:0:0:0:
355,218,194016,1,0,0:0:0:0:
340,139,194374,2,0,P|357:57|434:40,1,160,4|4,0:0|0:0,0:0:0:0:
262,41,195802,6,0,P|155:32|88:20,1,160,4|4,0:0|0:0,0:0:0:0:
23,161,197231,2,0,P|75:151|113:148,1,80,4|0,0:0|0:0,0:0:0:0:
169,190,197945,2,0,P|179:242|182:280,1,80,4|0,0:0|0:0,0:0:0:0:
256,192,198659,12,4,200088,0:3:0:0:
460,347,204374,6,0,P|445:258|435:161,1,160,12|0,3:1|3:3,0:0:0:0:
444,109,205446,2,0,P|364:88|304:137,1,160,8|8,3:2|3:2,0:0:0:0:
262,198,206517,2,0,L|261:251,2,40,8|0|8,3:3|0:0|3:2,0:0:0:0:
217,133,207231,6,0,P|154:88|79:110,1,160,12|2,3:1|3:0,0:0:0:0:
9,147,208303,1,8,3:2:0:0:
77,190,208660,2,0,P|95:236|100:296,2,80,12|12|12,3:1|3:1|3:1,0:0:0:0:
8,334,210088,6,0,P|67:375|174:346,1,160,12|0,3:1|3:3,0:0:0:0:
208,308,211159,2,0,L|186:134,1,160,8|8,3:2|3:2,0:0:0:0:
258,110,212231,2,0,L|257:41,2,40,8|0|8,3:3|0:0|3:2,0:0:0:0:
327,150,212946,6,0,L|306:308,1,160,12|0,0:1|3:0,0:0:0:0:
372,354,214017,1,8,3:2:0:0:
427,296,214374,2,0,P|479:291|523:303,2,80,14|12|6,3:2|3:2|3:1,0:0:0:0:
306,192,215803,6,0,P|385:179|425:91,1,160,12|0,3:1|3:3,0:0:0:0:
465,46,216874,2,0,B|424:28|391:32|384:58|355:60|307:42,1,160,8|8,3:2|3:2,0:0:0:0:
257,103,217946,2,0,L|257:166,2,40,8|0|8,3:3|0:0|3:2,0:0:0:0:
205,44,218660,6,0,B|159:60|130:58|123:32|90:28|49:46,1,160,12|0,0:1|3:0,0:0:0:0:
3,111,219731,1,8,3:2:0:0:
16,191,220089,2,0,P|44:224|88:258,2,80,12|12|12,3:1|3:1|3:1,0:0:0:0:
175,172,221517,6,0,B|115:169|106:92|106:92|171:53|218:104,1,240,12|8,3:1|3:2,0:0:0:0:
297,102,222946,2,0,B|331:52|402:82|402:82|403:158|336:173,1,240,12|8,3:1|3:2,0:0:0:0:
297,242,224374,2,0,B|325:297|257:342|257:342|193:298|216:239,1,240,4|0,1:3|1:1,0:0:0:0:
258,172,225803,5,12,1:3:0:0:
256,92,226160,2,0,L|257:12,2,80,0|0|4,0:0|0:0|1:3,0:0:0:0:
256,192,227231,12,4,229374,0:1:0:0:
256,172,230802,6,0,L|256:210,1,30
