osu file format v14

[General]
AudioFilename: koi yomi zakura.mp3
AudioLeadIn: 0
PreviewTime: 204284
Countdown: 0
SampleSet: None
StackLeniency: 0.7
Mode: 0
LetterboxInBreaks: 0
WidescreenStoryboard: 0

[Editor]
Bookmarks: 37231,47231,59374,105802,230802
DistanceSpacing: 0.5
BeatDivisor: 4
GridSize: 32
TimelineZoom: 1.499998

[Metadata]
Title:Koi Yomi Zakura (Full size)
TitleUnicode:恋詠桜(Full size)
Artist:loos
ArtistUnicode:loos
Creator:papapa213
Version:Insane
Source:
Tags:omoi yoshino オモイヨシノ 柊莉杏 Hiiragi Rian spice+rock imouto ouo koko lyric ametrin yf_bmp gust ultimate madoka
BeatmapID:1272051
BeatmapSetID:602230

[Difficulty]
HPDrainRate:7
CircleSize:4
OverallDifficulty:7
ApproachRate:9
SliderMultiplier:1.4
SliderTickRate:1

[Events]
//Background and Video events
0,0,"48542248_p0.jpg",0,0
//Break Periods
2,127431,138059
2,164574,175088
2,176159,187231
//Storyboard Layer 0 (Background)
//Storyboard Layer 1 (Fail)
//Storyboard Layer 2 (Pass)
//Storyboard Layer 3 (Foreground)
//Storyboard Sound Samples

[TimingPoints]
1517,357.142857142857,4,3,10,40,1,0
6516,-142.857142857143,4,3,10,40,0,0
7231,-83.3333333333333,4,3,10,40,0,0
12231,-83.3333333333333,4,3,10,60,0,0
12945,-100,4,3,10,70,0,0
16516,-83.3333333333333,4,3,10,70,0,0
17052,-100,4,3,10,70,0,0
24374,-200,4,2,10,50,0,0
32409,-117.647058823529,4,3,10,50,0,0
32945,-100,4,2,10,50,0,0
33302,-66.6666666666667,4,2,10,50,0,0
33659,-83.3333333333333,4,2,10,50,0,0
34016,-66.6666666666667,4,2,10,50,0,0
34374,-76.9230769230769,4,2,10,50,0,0
35981,-83.3333333333333,4,3,10,60,0,0
38838,-76.9230769230769,4,3,10,60,0,0
39909,-83.3333333333333,4,3,10,60,0,0
46695,-71.4285714285714,4,3,10,60,0,0
46874,-71.4285714285714,4,3,10,70,0,0
47588,-90.9090909090909,4,3,10,70,0,0
52231,-111.111111111111,4,3,10,70,0,0
52588,-90.9090909090909,4,3,10,70,0,0
55445,-76.9230769230769,4,3,10,70,0,0
55624,-83.3333333333333,4,3,10,70,0,0
57409,-142.857142857143,4,3,10,100,0,0
58124,-142.857142857143,4,3,10,70,0,0
58659,-76.9230769230769,4,2,11,70,0,1
60802,-100,4,2,11,70,0,1
61516,-76.9230769230769,4,2,11,70,0,1
66516,-100,4,2,11,70,0,1
67231,-76.9230769230769,4,2,11,70,0,1
77231,-68.9655172413793,4,2,11,70,0,1
77945,-62.5,4,2,11,70,0,1
78659,-62.5,4,3,10,70,0,1
78838,-76.9230769230769,4,3,10,70,0,1
81516,-66.6666666666667,4,3,10,70,0,0
84731,-62.5,4,3,10,70,0,0
86695,-83.3333333333333,4,3,10,70,0,0
87231,-71.4285714285714,4,3,10,70,0,0
87945,-66.6666666666667,4,3,10,70,0,0
92945,-200,4,3,10,70,0,0
94374,-76.9230769230769,4,3,10,70,0,0
95802,-76.9230769230769,4,3,10,60,0,0
101874,-71.4285714285714,4,3,10,60,0,0
102231,-76.9230769230769,4,3,10,60,0,0
102588,-62.5,4,3,10,60,0,0
102945,-76.9230769230769,4,3,10,60,0,0
104374,-76.9230769230769,4,3,10,60,0,0
107588,-66.6666666666667,4,3,10,60,0,0
108659,-76.9230769230769,4,3,10,60,0,0
112766,-76.9230769230769,4,3,10,60,0,0
115445,-76.9230769230769,4,3,10,70,0,0
116159,-83.3333333333333,4,3,10,70,0,0
120802,-100,4,3,10,70,0,0
121159,-83.3333333333333,4,3,10,70,0,0
124016,-76.9230769230769,4,3,10,70,0,0
124195,-83.3333333333333,4,3,10,70,0,0
124556,-83.3333333333333,4,3,10,70,0,0
125981,-142.857142857143,4,3,10,70,0,0
127231,-100,4,2,10,50,0,0
138659,-100,4,2,10,60,0,0
144374,-100,4,3,0,40,0,0
145445,-125,4,3,0,50,0,0
145802,-100,4,3,0,45,0,0
146159,-100,4,3,0,50,0,0
147231,-100,4,3,0,30,0,0
147409,-100,4,3,0,40,0,0
147588,-100,4,3,0,50,0,0
147945,-100,4,3,0,40,0,0
148124,-100,4,3,0,45,0,0
148302,-100,4,3,0,55,0,0
148481,-100,4,3,0,50,0,0
148659,-100,4,2,10,70,0,0
150088,-83.3333333333333,4,3,10,70,0,1
162409,-76.9230769230769,4,3,10,70,0,0
188615,-76.9230769230769,4,3,10,20,0,0
188704,-76.9230769230769,4,3,10,5,0,0
190088,-66.6666666666667,4,3,10,70,0,0
200266,-90.9090909090909,4,2,10,30,0,0
201516,-90.9090909090909,4,2,10,50,0,0
201695,-76.9230769230769,4,2,10,50,0,0
203659,-142.857142857143,4,3,10,70,0,1
204374,-62.5,4,2,11,70,0,1
206516,-71.4285714285714,4,2,11,70,0,1
207231,-62.5,4,2,11,70,0,1
212231,-71.4285714285714,4,2,11,70,0,1
212945,-62.5,4,2,11,70,0,1
215088,-62.5,4,2,11,70,0,1
215624,-62.5,4,2,11,70,0,1
222945,-58.8235294117647,4,2,11,70,0,1
223659,-50,4,2,11,70,0,1
224374,-50,4,3,10,70,0,1
226874,-62.5,4,3,10,70,0,1
227231,-111.111111111111,4,3,10,70,0,0
229374,-111.111111111111,4,3,10,50,0,0
230802,-111.111111111111,4,3,10,40,0,0

[Colours]
Combo1 : 233,50,82
Combo2 : 238,87,174
Combo3 : 236,223,66
Combo4 : 33,156,222

[HitObjects]
43,268,1517,5,4,0:0:0:0:
119,224,1695,1,0,0:2:0:0:
118,323,1874,2,0,L|59:361,1,70,2|0,0:2|0:0,0:0:0:0:
268,224,2231,5,0,0:0:0:0:
351,302,2409,1,0,0:0:0:0:
444,228,2588,2,0,L|507:179,1,70,2|0,0:2|0:0,0:0:0:0:
444,92,2945,5,4,0:0:0:0:
444,228,3124,1,0,0:0:0:0:
354,141,3302,1,0,0:0:0:0:
268,224,3481,1,2,0:2:0:0:
168,39,3659,5,0,0:0:0:0:
116,136,3838,1,0,0:0:0:0:
260,88,4016,1,2,0:2:0:0:
352,223,4195,1,4,0:3:0:0:
404,40,4374,5,4,0:0:0:0:
354,141,4731,1,2,0:2:0:0:
260,88,5088,1,0,0:0:0:0:
216,188,5445,1,2,0:2:0:0:
51,121,5802,5,2,0:1:0:0:
398,213,6516,6,0,B|446:238|475:197|475:197|447:163|397:182,1,171.499994766236,0|0,2:0|0:0,0:0:0:0:
358,194,7231,5,4,1:1:0:0:
276,117,7409,2,0,L|217:117,1,41.9999987182618,2|0,0:0|0:0,0:0:0:0:
153,118,7588,1,8,0:0:0:0:
88,188,7766,1,0,0:0:0:0:
214,45,7945,1,0,1:0:0:0:
276,117,8124,1,0,0:0:0:0:
303,143,8213,1,0,0:0:0:0:
338,156,8302,2,0,P|391:147|430:95,1,83.9999974365235
247,201,8659,5,0,1:0:0:0:
158,281,8838,2,0,L|116:281,1,41.9999987182618,2|0,0:0|0:0,0:0:0:0:
240,282,9016,1,8,1:3:0:0:
292,358,9195,1,0,0:0:0:0:
109,359,9374,1,0,1:0:0:0:
158,281,9552,1,0,0:0:0:0:
126,261,9641,1,0,0:0:0:0:
89,254,9731,2,0,P|31:276|3:317,1,83.9999974365235
248,200,10088,5,0,1:0:0:0:
323,280,10266,2,0,L|373:280,1,41.9999987182618,2|0,0:0|0:0,0:0:0:0:
426,219,10445,1,8,1:3:0:0:
512,220,10624,1,0,0:0:0:0:
377,150,10802,1,0,1:0:0:0:
377,150,10981,1,0,1:0:0:0:
377,3,11159,1,2,0:0:0:0:
328,76,11338,1,0,1:0:0:0:
426,219,11516,5,0,1:0:0:0:
326,224,11695,1,2,1:3:0:0:
300,196,11784,1,0,2:0:0:0:
287,159,11874,1,8,0:0:0:0:
440,62,12052,2,0,P|444:96|437:123,1,41.9999987182618,0|0,1:1|0:0,0:0:0:0:
292,0,12231,1,8,1:0:0:0:
299,339,12945,6,0,P|268:341|231:328,1,70,4|2,0:1|0:2,0:0:0:0:
141,164,13302,1,8,1:0:0:0:
45,233,13481,1,2,0:2:0:0:
235,233,13659,1,0,1:0:0:0:
180,107,13838,1,2,0:2:0:0:
180,107,13927,1,2,0:2:0:0:
180,107,14016,2,0,P|154:130|140:162,1,70,8|2,1:0|0:2,0:0:0:0:
120,360,14374,6,0,P|144:335|160:304,1,70,0|2,1:0|0:2,0:0:0:0:
180,107,14731,1,8,1:0:0:0:
301,109,14910,1,2,0:2:0:0:
133,222,15088,1,0,1:0:0:0:
117,79,15267,1,2,0:2:0:0:
117,79,15356,1,2,0:2:0:0:
117,79,15445,2,0,P|156:88|189:119,1,70,8|2,1:0|0:2,0:0:0:0:
303,231,15802,6,0,P|267:238|231:231,1,70,0|2,1:0|0:2,0:0:0:0:
28,189,16159,1,8,1:0:0:0:
80,296,16338,1,2,0:2:0:0:
179,106,16516,2,0,P|188:64|180:23,1,83.9999974365235,2|0,1:2|0:0,0:0:0:0:
30,107,16874,2,0,P|20:148|28:189,1,83.9999974365235,8|8,1:0|3:0,0:0:0:0:
205,249,17231,5,0,1:0:0:0:
317,276,17409,1,0,1:0:0:0:
169,140,17588,1,8,1:0:0:0:
132,332,17766,1,0,0:0:0:0:
317,276,17945,5,0,1:0:0:0:
354,83,18124,1,0,0:0:0:0:
169,140,18302,1,8,1:0:0:0:
278,166,18481,1,0,0:0:0:0:
236,38,18659,6,0,P|134:25|56:90,1,210,4|4,1:3|1:3,0:0:0:0:
220,328,19552,1,8,2:0:0:0:
220,328,19731,1,8,0:2:0:0:
392,21,20088,5,4,1:3:0:0:
466,100,20266,1,4,1:3:0:0:
353,118,20445,1,2,0:3:0:0:
427,197,20624,1,4,1:3:0:0:
108,64,20981,1,8,2:2:0:0:
108,64,21160,1,8,2:0:0:0:
347,244,21516,5,4,1:1:0:0:
419,333,21695,1,0,0:0:0:0:
304,350,21874,1,8,0:1:0:0:
88,333,22052,1,4,1:2:0:0:
203,350,22231,1,0,0:0:0:0:
160,244,22409,1,8,0:1:0:0:
254,101,22588,1,4,1:1:0:0:
254,209,22766,1,8,0:1:0:0:
390,61,22945,6,0,L|324:37,1,70,4|2,1:2|2:0,0:0:0:0:
181,38,23302,2,0,L|87:72,1,70,0|2,2:0|2:0,0:0:0:0:
116,62,23659,1,4,2:3:0:0:
390,61,23838,5,2,0:1:0:0:
390,61,23927,1,2,0:1:0:0:
390,61,24016,1,8,0:1:0:0:
390,61,24195,1,2,0:1:0:0:
408,210,24374,6,0,P|363:230|325:108,1,210,4|0,1:1|0:0,0:0:0:0:
390,61,25624,2,0,L|391:107,1,35,4|0,0:3|0:0,0:0:0:0:
467,151,25981,2,0,L|468:32,1,105,4|0,0:3|0:0,0:0:0:0:
85,310,27231,6,0,B|111:290|144:316|144:316|154:288|163:268|163:268|204:276|220:337,1,210,4|0,0:3|0:0,0:0:0:0:
305,366,28481,2,0,L|350:366,1,35,4|0,0:3|0:0,0:0:0:0:
315,286,28838,2,0,L|206:286,1,105,4|0,0:3|0:0,0:0:0:0:
243,0,30088,6,0,B|245:73|197:37|197:37|183:73|136:65|136:65|159:112,1,210,4|0,0:3|0:0,0:0:0:0:
224,187,31338,2,0,L|223:141,1,35,4|0,0:3|0:0,0:0:0:0:
305,121,31695,2,0,L|305:234,1,105,4|0,0:3|0:3,0:0:0:0:
153,277,32409,5,0,0:0:0:0:
153,277,32499,1,0,0:0:0:0:
153,277,32588,2,0,P|169:237|193:209,1,59.5000011348725,0|0,0:0|0:0,0:0:0:0:
305,156,32945,2,0,L|305:255,1,70,4|0,0:3|0:0,0:0:0:0:
482,286,33302,6,0,P|468:251|402:201,1,105.000004005432,12|4,0:0|0:3,0:0:0:0:
242,285,33659,2,0,L|253:380,1,83.9999974365235,4|0,0:3|0:0,0:0:0:0:
108,166,34016,6,0,P|155:140|220:144,1,105.000004005432,8|4,0:0|0:3,0:0:0:0:
370,286,34374,2,0,L|353:388,1,90.9999958343508,2|8,0:0|0:0,0:0:0:0:
462,167,34909,1,8,0:0:0:0:
110,268,35266,1,8,0:0:0:0:
198,332,35445,1,12,0:0:0:0:
306,318,35624,1,0,3:0:0:0:
370,201,35802,5,4,1:0:0:0:
462,167,35981,1,2,0:2:0:0:
462,167,36070,1,2,0:2:0:0:
462,167,36159,2,0,P|469:212|459:251,1,83.9999974365235,8|2,0:1|0:0,0:0:0:0:
186,179,36516,1,0,0:0:0:0:
243,257,36695,1,2,0:0:0:0:
243,257,36784,1,2,0:2:0:0:
243,257,36873,2,0,P|271:222|283:170,1,83.9999974365235,8|2,0:3|0:0,0:0:0:0:
220,76,37231,5,0,0:2:0:0:
186,179,37409,1,2,0:2:0:0:
69,179,37588,2,0,L|50:76,1,83.9999974365235,8|2,0:1|0:0,2:0:0:0:
126,265,37945,2,0,P|87:282|47:280,1,83.9999974365235,0|2,0:0|0:0,2:0:0:0:
186,179,38302,2,0,P|224:162|273:167,1,83.9999974365235,8|2,0:3|0:0,0:0:0:0:
308,277,38659,5,0,0:0:0:0:
502,323,38838,1,2,0:0:0:0:
502,323,38927,1,0,0:2:0:0:
502,323,39016,2,0,B|511:267|511:267|479:223,1,90.9999958343508,8|2,0:1|0:0,0:0:0:0:
384,125,39374,2,0,B|376:180|376:180|408:224,1,90.9999958343508,0|0,0:0|0:3,0:0:0:0:
490,107,39641,1,2,0:2:0:0:
490,107,39731,2,0,B|499:51|499:51|467:7,1,90.9999958343508,8|2,2:2|0:3,0:0:0:0:
384,125,40088,6,0,P|322:128|283:104,1,83.9999974365235,2|2,0:2|2:0,0:0:0:0:
204,7,40445,2,0,P|266:4|305:28,1,83.9999974365235,8|2,0:1|0:0,0:0:0:0:
384,125,40802,1,2,0:2:0:0:
512,3,40981,1,0,0:0:0:0:
512,3,41070,1,2,0:2:0:0:
512,3,41159,2,0,P|471:-4|432:9,1,83.9999974365235,8|2,2:3|0:0,0:0:0:0:
295,156,41516,5,2,0:2:0:0:
246,75,41695,1,2,0:0:0:0:
246,75,41784,1,0,0:0:0:0:
246,75,41874,2,0,P|210:107|202:147,1,83.9999974365235,8|2,0:1|2:0,0:0:0:0:
343,273,42231,1,0,0:0:0:0:
392,194,42409,1,2,0:0:0:0:
266,315,42588,2,0,P|292:348|332:360,1,83.9999974365235,8|0,0:2|0:3,0:0:0:0:
185,270,42945,5,0,0:0:0:0:
147,189,43124,1,2,0:0:0:0:
147,189,43213,1,0,0:0:0:0:
147,187,43302,2,0,P|186:176|226:188,1,83.9999974365235,8|2,0:1|2:0,2:0:0:0:
67,320,43659,1,0,0:0:0:0:
156,364,43838,1,2,0:0:0:0:
64,225,44016,2,0,P|53:185|66:145,1,83.9999974365235,8|2,1:0|0:0,2:0:0:0:
251,82,44374,5,4,0:3:0:0:
311,182,44552,1,2,0:2:0:0:
375,282,44731,1,4,1:1:0:0:
235,294,45088,5,4,0:3:0:0:
311,182,45266,1,2,0:2:0:0:
387,70,45445,1,12,0:2:0:0:
463,210,45802,5,4,0:3:0:0:
311,182,45981,2,0,P|183:182|131:202,1,167.999994873047,0|12,0:3|0:2,0:0:0:0:
378,379,46695,6,4,L|374:275,1,97.9999970092774,4|8,0:0|1:3,0:0:0:0:
371,6,47231,5,12,1:1:0:0:
82,101,47588,2,0,P|125:146|226:146,1,154.000004699707,8|0,2:2|0:0,0:0:0:0:
315,104,48124,1,0,0:0:0:0:
467,284,48481,6,0,P|392:270|347:211,1,154.000004699707,2|2,0:1|0:2,0:0:0:0:
315,104,49016,1,8,0:2:0:0:
232,228,49195,1,2,0:0:0:0:
90,215,49374,2,0,P|46:182|24:151,1,77.0000023498536,2|8,0:2|0:2,0:0:0:0:
175,71,49731,2,0,P|191:106|200:143,1,77.0000023498536,0|2,0:0|0:0,0:0:0:0:
162,273,50088,5,4,3:3:0:0:
346,361,50445,2,0,P|419:351|469:294,1,154.000004699707,8|0,2:2|0:0,0:0:0:0:
482,166,50981,1,0,0:0:0:0:
243,123,51338,6,0,P|304:79|379:88,1,154.000004699707,2|0,0:0|0:0,0:0:0:0:
482,166,51874,1,10,0:2:0:0:
369,220,52052,1,0,0:2:0:0:
253,278,52231,2,0,L|253:362,1,62.9999980773926,0|8,0:2|0:2,0:0:0:0:
369,220,52588,1,8,2:0:0:0:
356,352,52945,5,4,0:1:0:0:
274,159,53302,2,0,P|181:137|118:164,1,154.000004699707,8|0,2:0|0:0,0:0:0:0:
72,255,53838,1,0,0:0:0:0:
356,352,54195,6,0,P|285:376|215:348,1,154.000004699707,2|0,0:1|0:0,0:0:0:0:
173,247,54731,1,8,2:0:0:0:
288,273,54909,1,0,0:0:0:0:
350,158,55088,2,0,L|273:158,1,77.0000023498536,8|0,2:0|0:0,0:0:0:0:
432,27,55445,2,0,P|443:68|419:130,1,90.9999958343508,8|0,2:0|0:0,0:0:0:0:
273,158,55802,5,12,2:0:0:0:
146,122,55981,5,0,2:0:0:0:
121,112,56070,1,0,2:0:0:0:
97,103,56159,1,8,2:0:0:0:
39,262,56338,5,0,2:0:0:0:
64,272,56427,1,0,2:0:0:0:
88,281,56516,1,8,2:0:0:0:
19,137,56695,5,0,2:0:0:0:
9,162,56784,1,0,2:0:0:0:
0,186,56874,1,8,2:0:0:0:
173,247,57052,5,0,2:0:0:0:
183,222,57141,1,0,2:0:0:0:
192,198,57231,1,12,3:2:0:0:
315,100,57409,6,0,B|359:127|403:99|403:99|451:68|503:103,1,195.999994018555,2|2,2:2|0:1,0:0:0:0:
499,100,58213,1,2,0:1:0:0:
499,100,58302,1,10,0:1:0:0:
499,100,58481,1,2,0:1:0:0:
358,28,58659,5,12,3:1:0:0:
222,121,58838,1,2,0:3:0:0:
104,28,59016,2,0,P|146:15|190:27,1,90.9999958343508,8|2,3:2|0:3,0:0:0:0:
335,121,59374,1,0,3:3:0:0:
443,27,59552,1,2,0:3:0:0:
443,27,59641,1,0,0:3:0:0:
443,27,59731,6,0,P|400:16|357:27,1,90.9999958343508,8|2,3:2|0:3,0:0:0:0:
212,212,60088,1,2,3:2:0:0:
351,212,60266,1,2,0:3:0:0:
222,121,60445,2,0,P|158:111|103:144,1,90.9999958343508,8|2,3:2|0:3,0:0:0:0:
71,298,60802,6,0,L|143:298,1,70,8|0,3:3|0:0,0:0:0:0:
222,121,61159,2,0,P|184:109|150:113,1,70,8|2,3:2|0:3,0:0:0:0:
59,314,61516,6,0,P|103:336|160:326,1,90.9999958343508,2|0,3:3|0:3,0:0:0:0:
164,323,61784,1,2,0:3:0:0:
182,309,61874,1,8,3:2:0:0:
338,185,62052,1,2,0:3:0:0:
440,321,62231,6,0,P|396:343|339:333,1,90.9999958343508,2|0,3:3|0:3,0:0:0:0:
336,327,62499,1,2,0:3:0:0:
319,311,62589,1,8,3:2:0:0:
170,186,62766,1,2,0:3:0:0:
375,91,62945,5,2,3:2:0:0:
296,210,63124,1,2,0:3:0:0:
254,44,63302,1,10,3:2:0:0:
254,190,63481,1,2,0:3:0:0:
135,91,63659,1,10,3:2:0:0:
213,210,63838,1,8,1:3:0:0:
254,229,63927,1,8,1:3:0:0:
296,210,64016,1,8,1:3:0:0:
254,44,64195,1,8,1:3:0:0:
142,251,64374,6,0,P|130:294|137:338,1,90.9999958343508,4|2,3:3|0:3,0:0:0:0:
296,298,64731,2,0,P|305:254|296:210,1,90.9999958343508,8|2,3:2|0:3,0:0:0:0:
254,44,65088,1,0,3:3:0:0:
95,180,65266,1,2,0:3:0:0:
95,180,65356,1,0,0:3:0:0:
95,180,65445,6,0,P|86:128|101:84,1,90.9999958343508,8|2,3:2|0:3,0:0:0:0:
254,229,65802,1,2,3:2:0:0:
100,288,65981,1,2,0:3:0:0:
205,156,66159,2,0,P|251:140|296:152,1,90.9999958343508,8|2,3:2|0:3,0:0:0:0:
302,332,66516,6,0,L|232:331,1,70,8|0,3:3|0:0,0:0:0:0:
205,156,66874,2,0,P|238:142|278:143,1,70,8|2,3:2|0:3,0:0:0:0:
286,345,67231,6,0,P|243:357|200:346,1,90.9999958343508,2|2,3:3|0:3,0:0:0:0:
87,217,67588,1,8,3:2:0:0:
241,259,67766,1,2,0:3:0:0:
101,316,67945,1,0,3:0:0:0:
184,177,68124,1,2,0:3:0:0:
173,156,68213,1,2,0:3:0:0:
156,140,68302,2,0,P|112:114|54:120,1,90.9999958343508,8|2,3:2|0:3,0:0:0:0:
73,241,68659,5,2,3:2:0:0:
192,185,68838,1,2,0:3:0:0:
62,141,69016,1,8,3:2:0:0:
192,185,69195,1,2,0:3:0:0:
133,62,69374,1,0,3:2:0:0:
192,185,69552,5,2,2:1:0:0:
227,205,69641,1,2,2:1:0:0:
269,206,69731,1,2,3:1:0:0:
401,168,69909,1,2,3:1:0:0:
303,268,70088,5,12,3:1:0:0:
330,129,70266,1,2,0:3:0:0:
435,32,70445,1,8,3:2:0:0:
401,168,70624,1,2,0:3:0:0:
355,34,70802,1,0,3:3:0:0:
192,185,70981,5,2,0:3:0:0:
192,185,71070,1,2,0:3:0:0:
192,185,71159,1,10,3:2:0:0:
119,31,71338,1,2,0:3:0:0:
48,102,71516,1,0,3:2:0:0:
208,83,71695,1,2,0:3:0:0:
93,196,71874,1,8,3:2:0:0:
119,31,72052,1,2,0:3:0:0:
192,185,72231,6,0,P|233:207|277:204,1,90.9999958343508,0|0,3:3|0:0,0:0:0:0:
338,115,72499,1,2,0:3:0:0:
338,115,72588,2,0,L|327:8,1,90.9999958343508,8|2,3:2|0:3,0:0:0:0:
315,284,72945,5,8,3:3:0:0:
163,357,73124,1,2,0:3:0:0:
145,359,73213,1,2,0:3:0:0:
127,357,73302,2,0,P|77:331|51:271,1,90.9999958343508,8|2,3:2|0:3,0:0:0:0:
26,126,73659,5,0,3:0:0:0:
181,60,73838,1,2,0:3:0:0:
199,61,73927,1,2,0:3:0:0:
216,66,74016,2,0,P|265:93|291:153,1,90.9999958343508,8|2,3:2|0:3,0:0:0:0:
459,282,74374,5,2,3:2:0:0:
491,122,74552,1,2,0:3:0:0:
419,278,74731,1,8,3:2:0:0:
368,118,74909,1,2,0:3:0:0:
383,306,75088,1,8,3:2:0:0:
263,194,75266,1,10,1:3:0:0:
235,170,75356,1,10,1:3:0:0:
205,149,75445,2,0,P|161:137|113:157,1,90.9999958343508,8|8,1:2|1:3,1:0:0:0:
110,263,75802,6,0,L|110:354,1,90.9999958343508,12|2,3:1|0:2,0:0:0:0:
235,261,76159,2,0,L|235:170,1,90.9999958343508,8|0,3:2|0:0,0:0:0:0:
360,52,76516,2,0,P|403:40|447:51,1,90.9999958343508,2|0,3:3|0:0,0:0:0:0:
486,216,76874,1,8,3:2:0:0:
419,340,77052,1,2,0:0:0:0:
310,213,77231,6,0,L|425:182,1,101.500003097534,12|0,3:1|0:0,0:0:0:0:
419,340,77588,2,0,L|320:369,1,101.500003097534,8|0,3:2|0:0,0:0:0:0:
145,263,77945,6,0,P|195:263|258:302,1,112,2|0,3:3|0:3,0:0:0:0:
64,350,78302,2,0,P|32:311|23:237,1,112,8|8,3:2|0:3,0:0:0:0:
43,89,78659,5,4,1:2:0:0:
189,34,78838,1,2,0:0:0:0:
216,36,78927,1,2,0:0:0:0:
237,52,79016,1,0,1:1:0:0:
281,192,79195,5,2,0:0:0:0:
247,205,79284,1,2,0:0:0:0:
210,200,79374,1,4,0:2:0:0:
348,112,79552,5,2,0:0:0:0:
387,132,79641,1,2,0:0:0:0:
407,174,79731,1,0,1:0:0:0:
369,355,79909,5,2,0:0:0:0:
336,316,79999,1,2,0:0:0:0:
330,266,80088,1,4,1:2:0:0:
481,120,80266,5,0,1:0:0:0:
490,174,80356,1,0,1:0:0:0:
495,228,80445,2,0,P|457:270|419:277,1,90.9999958343508,0|0,1:0|1:0,0:0:0:0:
210,200,80802,5,2,1:0:0:0:
164,204,80891,1,2,0:1:0:0:
133,237,80981,1,2,0:1:0:0:
128,282,81070,1,2,0:1:0:0:
96,314,81159,2,0,P|54:329|7:307,1,90.9999958343508,2|2,0:1|0:1,0:0:0:0:
54,124,81516,6,0,L|-5:21,1,105.000004005432,4|0,1:1|0:1,0:0:0:0:
100,0,81784,1,0,0:0:0:0:
100,0,81874,2,0,L|166:119,1,105.000004005432,8|8,0:1|0:0,0:0:0:0:
339,242,82231,6,0,L|464:243,1,105.000004005432,2|0,0:2|0:0,0:0:0:0:
478,147,82499,1,0,0:0:0:0:
474,143,82588,2,0,L|359:143,1,105.000004005432,8|2,0:1|0:0,0:0:0:0:
195,201,82945,5,0,0:0:0:0:
199,71,83124,1,8,0:0:0:0:
282,172,83302,1,8,0:1:0:0:
286,42,83481,1,8,0:0:0:0:
369,143,83659,1,0,0:0:0:0:
373,13,83838,2,0,L|438:2,2,52.5000020027161,0|0|8,0:1|0:0|0:1,0:0:0:0:
258,106,84195,1,0,0:0:0:0:
122,11,84374,5,6,0:2:0:0:
52,150,84552,1,0,0:1:0:0:
52,150,84642,1,0,0:0:0:0:
52,150,84731,2,0,P|103:173|158:166,1,112,8|8,0:1|3:0,0:0:0:0:
369,143,85088,5,2,0:2:0:0:
439,269,85266,1,0,0:0:0:0:
439,269,85356,1,0,0:0:0:0:
439,269,85445,2,0,P|388:292|333:285,1,112,8|2,0:1|0:0,0:0:0:0:
306,61,85802,5,0,0:0:0:0:
417,98,85981,1,8,0:0:0:0:
311,142,86159,1,8,0:1:0:0:
422,179,86338,1,8,0:0:0:0:
316,220,86516,1,4,0:0:0:0:
439,269,86695,1,2,0:1:0:0:
439,269,86784,1,2,0:1:0:0:
439,269,86874,1,2,0:1:0:0:
439,269,87052,1,2,0:1:0:0:
439,269,87231,6,0,B|408:293|408:293|320:293|320:293|337:364,2,195.999994018555,4|0|2,3:1|0:1|0:2,0:0:0:0:
511,150,88124,1,0,0:0:0:0:
397,34,88302,6,0,P|346:20|295:28,1,105.000004005432,8|2,0:1|0:0,0:0:0:0:
139,100,88659,1,4,2:0:0:0:
270,145,88838,1,0,0:3:0:0:
292,180,88927,1,0,0:3:0:0:
312,217,89016,2,0,P|312:281|288:321,1,105.000004005432,8|8,0:1|0:0,0:0:0:0:
147,328,89374,2,0,P|147:264|171:224,1,105.000004005432,0|8,0:0|0:1,0:0:0:0:
270,144,89731,2,0,P|320:131|370:144,1,105.000004005432,8|8,0:2|0:0,0:0:0:0:
256,296,90088,6,0,P|281:347|326:382,1,105.000004005432,4|0,0:1|0:1,0:0:0:0:
362,194,90445,2,0,P|413:168|449:122,1,105.000004005432,8|0,0:1|0:0,0:0:0:0:
262,93,90802,2,0,P|240:44|201:10,1,105.000004005432,2|0,0:3|0:1,0:0:0:0:
152,203,91159,2,0,P|105:224|71:263,1,105.000004005432,8|0,0:1|0:0,0:0:0:0:
141,144,91516,5,4,0:1:0:0:
252,60,91695,1,8,0:0:0:0:
367,140,91873,1,2,0:0:0:0:
326,274,92052,1,8,0:0:0:0:
185,276,92231,1,4,0:1:0:0:
251,97,92588,6,0,B|219:136|251:189|251:189|287:244|247:292,1,210,8|4,0:0|2:1,0:0:0:0:
256,212,94374,5,4,0:0:0:0:
267,224,95266,5,2,0:1:0:0:
267,224,95356,1,2,0:1:0:0:
267,224,95445,1,8,0:1:0:0:
267,224,95624,1,2,0:1:0:0:
376,116,95802,6,0,L|376:212,1,90.9999958343508,4|0,0:1|3:0,0:0:0:0:
256,319,96159,2,0,L|256:227,1,90.9999958343508,10|0,0:2|2:0,0:0:0:0:
256,136,96516,1,0,0:0:0:0:
257,38,96695,1,2,0:0:0:0:
257,24,96784,1,0,0:0:0:0:
257,10,96874,1,8,0:1:0:0:
256,136,97052,1,0,2:2:0:0:
344,236,97231,6,0,L|256:208,1,90.9999958343508
169,267,97588,2,0,L|255:294,1,90.9999958343508,10|0,0:2|2:0,0:0:0:0:
350,321,97945,1,0,0:0:0:0:
449,281,98124,1,2,0:0:0:0:
462,277,98213,1,0,0:0:0:0:
474,272,98302,1,8,0:1:0:0:
350,321,98481,1,0,2:0:0:0:
248,384,98659,6,0,P|210:361|161:356,1,90.9999958343508,2|0,0:2|0:0,0:0:0:0:
84,344,98927,1,0,0:0:0:0:
84,344,99016,2,0,P|58:299|80:248,1,90.9999958343508,8|2,0:2|2:0,0:0:0:0:
108,172,99374,5,0,0:0:0:0:
204,124,99552,1,2,0:0:0:0:
214,168,99641,1,0,0:0:0:0:
206,213,99731,1,8,0:1:0:0:
108,172,99909,1,2,2:0:0:0:
13,124,100088,6,0,P|2:183|24:234,1,90.9999958343508,0|2,0:0|0:0,0:0:0:0:
76,257,100356,1,0,0:0:0:0:
76,257,100445,2,0,L|112:161,1,90.9999958343508,8|2,2:0|2:0,0:0:0:0:
158,42,100802,6,0,P|206:26|259:57,1,90.9999958343508,0|2,0:0|0:0,0:0:0:0:
288,120,101070,1,2,0:0:0:0:
288,120,101159,2,0,P|234:135|184:105,1,90.9999958343508,0|2,0:2|0:0,0:0:0:0:
21,20,101516,2,0,L|60:115,1,90.9999958343508,4|0,0:3|0:0,0:0:0:0:
0,279,101874,6,0,P|51:267|87:219,1,97.9999970092774,12|4,1:0|0:3,0:0:0:0:
252,28,102231,2,0,L|201:125,1,90.9999958343508,4|0,0:3|0:0,0:0:0:0:
279,297,102588,6,0,P|234:289|181:217,1,112,8|4,2:0|2:3,0:0:0:0:
134,3,102945,2,0,L|134:103,1,90.9999958343508,2|8,0:0|2:0,0:0:0:0:
11,222,103481,5,8,2:0:0:0:
360,286,103838,1,8,2:0:0:0:
272,352,104016,1,12,2:0:0:0:
165,359,104195,1,0,3:0:0:0:
57,298,104374,5,4,1:2:0:0:
84,178,104552,1,2,0:2:0:0:
95,197,104641,1,2,0:2:0:0:
97,220,104731,1,8,0:1:0:0:
16,126,104909,1,2,0:0:0:0:
16,126,105088,5,0,0:0:0:0:
130,83,105266,1,2,0:0:0:0:
109,73,105356,1,2,0:2:0:0:
86,75,105445,1,8,0:3:0:0:
191,146,105624,1,2,0:0:0:0:
331,93,105802,2,0,L|219:54,1,90.9999958343508,0|2,0:2|0:2,0:0:0:0:
270,217,106159,6,0,L|370:192,1,90.9999958343508,8|2,0:1|0:0,0:0:0:0:
451,320,106516,2,0,P|393:327|343:310,1,90.9999958343508
270,217,106874,1,8,0:3:0:0:
270,334,107052,1,2,0:0:0:0:
212,91,107231,5,0,0:0:0:0:
105,166,107409,1,2,0:0:0:0:
105,166,107499,1,0,0:2:0:0:
105,166,107588,2,0,B|118:207|118:207|207:208,1,105.000004005432,8|2,0:1|2:3,0:0:0:0:
285,130,107945,2,0,B|277:91|277:91|203:91,1,105.000004005432,0|2,0:2|2:3,0:0:0:0:
136,51,108213,1,2,0:2:0:0:
136,51,108302,2,0,B|148:91|148:91|233:91,1,105.000004005432,8|2,2:2|0:3,0:0:0:0:
356,80,108659,6,0,P|408:88|443:117,1,90.9999958343508,2|2,0:2|0:2,0:0:0:0:
512,203,108927,1,2,0:2:0:0:
512,203,109016,2,0,P|460:211|423:237,1,90.9999958343508,8|2,0:1|0:0,0:0:0:0:
353,331,109374,5,2,0:2:0:0:
226,360,109552,1,2,0:0:0:0:
239,341,109641,1,0,0:2:0:0:
241,318,109731,1,8,2:3:0:0:
178,213,109909,1,2,0:3:0:0:
53,184,110088,5,2,0:2:0:0:
178,213,110266,1,2,0:0:0:0:
142,295,110445,1,8,0:1:0:0:
146,120,110624,1,2,2:0:0:0:
340,150,110802,5,0,0:0:0:0:
261,37,110981,1,2,0:0:0:0:
261,37,111070,1,0,0:0:0:0:
261,37,111159,1,8,0:2:0:0:
146,120,111338,1,0,0:3:0:0:
271,216,111516,5,2,0:2:0:0:
410,315,111695,1,2,0:0:0:0:
295,317,111874,1,8,0:1:0:0:
435,217,112052,1,2,2:0:0:0:
340,150,112231,5,0,0:0:0:0:
214,165,112409,1,2,0:0:0:0:
214,165,112499,1,0,0:0:0:0:
214,165,112588,1,8,1:2:0:0:
261,37,112766,1,2,0:0:0:0:
488,240,112945,6,0,P|450:276|374:279,1,90.9999958343508,4|2,0:3|0:2,0:0:0:0:
278,262,113302,1,4,1:1:0:0:
205,310,113659,6,0,P|242:273|318:270,1,90.9999958343508,4|2,0:3|0:2,0:0:0:0:
414,286,114016,1,12,0:2:0:0:
317,374,114374,5,4,0:3:0:0:
364,167,114552,1,0,0:3:0:0:
278,262,114731,1,2,0:2:0:0:
414,286,114909,1,12,0:2:0:0:
204,309,115266,5,4,0:0:0:0:
414,286,115445,1,8,1:3:0:0:
8,355,115802,5,4,1:1:0:0:
120,175,116159,2,0,P|142:254|209:311,1,167.999994873047,8|0,2:2|0:0,0:0:0:0:
319,325,116695,1,0,0:0:0:0:
452,95,117052,6,0,P|386:58|280:75,1,167.999994873047,2|2,0:1|0:2,0:0:0:0:
278,77,117499,1,0,0:0:0:0:
264,92,117588,1,8,0:2:0:0:
189,200,117766,1,2,0:0:0:0:
159,307,117945,2,0,P|165:346|187:383,1,83.9999974365235,2|8,0:2|0:2,0:0:0:0:
307,344,118302,2,0,P|300:302|278:266,1,83.9999974365235,0|2,0:0|0:0,0:0:0:0:
189,200,118659,1,4,1:3:0:0:
22,71,119016,6,0,P|94:103|194:91,1,167.999994873047,8|0,2:2|0:0,0:0:0:0:
296,66,119552,1,0,0:0:0:0:
488,251,119909,6,0,P|440:303|344:319,1,167.999994873047,2|0,0:0|0:0,0:0:0:0:
327,312,120356,1,0,0:0:0:0:
309,300,120445,1,10,0:2:0:0:
207,192,120624,1,0,0:2:0:0:
150,298,120802,2,0,L|150:375,1,70,0|8,0:2|0:2,0:0:0:0:
37,266,121159,1,8,2:0:0:0:
231,270,121516,5,4,0:1:0:0:
78,376,121874,2,0,P|158:388|262:336,1,167.999994873047,8|0,2:0|0:0,0:0:0:0:
321,267,122409,1,0,0:0:0:0:
489,150,122766,6,0,P|409:162|305:110,1,167.999994873047,2|0,0:1|0:0,0:0:0:0:
312,118,123213,1,0,0:0:0:0:
298,102,123302,1,8,2:0:0:0:
192,18,123481,1,0,0:0:0:0:
72,113,123659,2,0,P|54:160|70:209,1,83.9999974365235,8|0,2:0|0:0,0:0:0:0:
235,168,124016,2,0,P|200:152|147:159,1,90.9999958343508,8|0,2:0|0:0,0:0:0:0:
132,344,124374,5,8,2:0:0:0:
275,370,124552,5,0,2:0:0:0:
298,360,124641,1,0,2:0:0:0:
320,348,124731,1,8,2:0:0:0:
456,282,124909,5,0,2:0:0:0:
432,269,124999,1,0,2:0:0:0:
410,255,125088,1,8,2:0:0:0:
260,225,125266,5,0,2:0:0:0:
282,213,125356,1,0,2:0:0:0:
304,201,125445,1,8,2:0:0:0:
441,137,125624,5,0,2:0:0:0:
418,125,125713,1,0,2:0:0:0:
395,113,125802,1,4,0:2:0:0:
256,50,125981,6,0,B|300:23|344:51|344:51|392:82|444:47,1,195.999994018555,2|2,2:2|0:1,0:0:0:0:
440,49,126784,1,2,0:1:0:0:
440,49,126874,1,2,0:1:0:0:
440,49,127052,1,2,0:1:0:0:
512,146,127231,5,4,0:1:0:0:
160,152,138659,5,2,0:0:0:0:
110,135,138838,1,0,0:0:0:0:
110,83,139016,1,2,0:0:0:0:
160,67,139195,1,0,0:0:0:0:
190,109,139374,1,2,0:0:0:0:
322,275,139731,5,2,0:0:0:0:
352,317,139909,1,0,0:0:0:0:
402,301,140088,1,2,0:0:0:0:
402,249,140266,1,0,0:0:0:0:
352,232,140445,1,2,0:0:0:0:
200,291,140802,5,2,0:0:0:0:
130,304,140981,1,0,0:0:0:0:
115,237,141159,1,0,0:0:0:0:
182,221,141338,1,0,0:0:0:0:
272,200,141516,5,2,0:0:0:0:
362,179,141695,1,0,0:0:0:0:
341,89,141874,1,2,0:0:0:0:
250,109,142052,1,0,0:0:0:0:
182,221,142231,5,2,0:0:0:0:
272,200,142409,1,0,0:0:0:0:
296,291,142588,1,2,0:0:0:0:
203,311,142766,1,0,0:0:0:0:
182,221,142945,5,2,0:0:0:0:
296,291,143124,1,0,0:0:0:0:
395,206,143302,1,0,0:0:0:0:
345,83,143481,1,2,0:0:0:0:
213,93,143659,1,2,0:0:0:0:
182,221,143838,5,4,0:0:0:0:
294,291,144016,1,4,0:0:0:0:
213,93,144195,1,0,0:0:0:0:
182,221,144374,6,0,L|174:258,11,35,0|0|0|0|0|0|0|0|0|0|0|0,0:0|0:0|0:0|0:0|0:0|0:0|0:0|0:0|0:0|0:0|0:0|0:0,0:0:0:0:
154,142,145445,6,0,L|130:116,3,28,0|0|0|0,0:0|0:0|0:0|0:0,0:0:0:0:
235,153,145802,6,0,L|261:142,6,17.5,0|0|0|0|0|0|0,0:0|0:0|0:0|0:0|0:0|0:0|0:0,0:0:0:0:
165,223,146159,6,0,L|147:256,3,35,0|0|0|0,0:0|0:0|0:0|0:0,0:0:0:0:
159,129,146516,2,0,L|149:87,7,35,0|0|0|0|0|0|0|0,0:0|0:0|0:0|0:0|0:0|0:0|0:0|0:0,0:0:0:0:
239,174,147231,6,0,L|267:183,15,17.5
148,214,147945,2,0,L|132:223,14,17.5
181,93,148659,5,4,1:1:0:0:
254,257,148838,1,8,0:1:0:0:
186,70,149195,5,8,0:1:0:0:
267,266,149552,5,2,1:3:0:0:
191,49,149731,1,4,2:0:0:0:
94,328,150088,6,0,P|39:254|60:155,1,167.999994873047,6|8,0:0|0:1,0:0:0:0:
174,143,150624,2,0,L|153:235,1,83.9999974365235,0|2,0:0|0:0,0:0:0:0:
377,164,150981,6,0,P|314:187|265:167,1,83.9999974365235,8|8,0:0|0:1,0:0:0:0:
174,143,151338,1,8,0:0:0:0:
8,81,151516,2,0,P|67:59|119:74,1,83.9999974365235,0|0,0:0|0:0,0:0:0:0:
257,94,151874,2,0,P|301:98|338:77,1,83.9999974365235,8|2,0:1|0:0,0:0:0:0:
465,14,152231,2,0,P|496:73|484:121,1,83.9999974365235,0|8,0:0|0:0,0:0:0:0:
473,118,152499,1,0,3:1:0:0:
451,148,152588,2,0,P|460:207|492:240,1,83.9999974365235,8|8,0:1|0:0,0:0:0:0:
512,354,152945,6,0,P|420:378|324:340,1,167.999994873047,6|8,0:0|0:1,0:0:0:0:
177,289,153481,2,0,L|266:290,1,83.9999974365235,8|0,0:0|0:0,0:0:0:0:
20,353,153838,6,0,P|6:302|27:247,1,83.9999974365235,2|8,0:0|0:1,0:0:0:0:
107,193,154195,1,8,0:0:0:0:
288,252,154374,5,0,0:0:0:0:
176,98,154552,1,8,0:0:0:0:
177,289,154731,1,8,0:1:0:0:
288,134,154909,1,8,0:0:0:0:
107,193,155088,1,0,0:0:0:0:
288,252,155266,2,0,L|288:305,2,41.9999987182618,2|2|2,0:1|0:1|0:1,0:0:0:0:
398,130,155624,5,10,0:1:0:0:
458,313,155802,2,0,P|379:375|301:357,1,167.999994873047,6|8,0:0|0:1,0:0:0:0:
177,289,156338,2,0,L|126:365,1,83.9999974365235,0|2,0:0|0:0,0:0:0:0:
107,193,156695,6,0,P|154:183|200:204,1,83.9999974365235,8|8,0:0|0:1,0:0:0:0:
249,358,157052,1,8,0:0:0:0:
387,192,157231,2,0,P|346:181|306:193,1,83.9999974365235
177,289,157588,2,0,P|137:301|96:292,1,83.9999974365235,8|2,0:1|0:0,0:0:0:0:
36,148,157945,2,0,P|20:104|39:58,1,83.9999974365235,0|8,0:0|0:0,0:0:0:0:
56,41,158213,1,0,0:0:0:0:
88,21,158302,2,0,P|129:29|174:17,1,83.9999974365235,8|8,0:1|0:0,0:0:0:0:
378,91,158659,6,0,P|354:173|261:214,1,167.999994873047,6|8,0:3|0:1,0:0:0:0:
172,254,159195,2,0,L|140:156,1,83.9999974365235,8|0,0:0|0:0,0:0:0:0:
371,378,159552,2,0,P|318:380|275:347,1,83.9999974365235,0|8,0:0|0:1,0:0:0:0:
172,254,159909,1,0,0:0:0:0:
307,120,160088,5,2,0:0:0:0:
172,254,160266,1,8,0:0:0:0:
360,224,160445,1,2,0:0:0:0:
190,138,160624,1,8,0:0:0:0:
276,308,160802,1,6,0:0:0:0:
276,308,161516,5,0,0:0:0:0:
190,138,161695,1,8,0:0:0:0:
360,224,161874,1,0,0:0:0:0:
172,254,162052,1,8,0:0:0:0:
307,120,162231,1,4,0:0:0:0:
237,25,162409,5,2,0:1:0:0:
237,25,162499,1,2,0:1:0:0:
237,25,162588,1,2,0:1:0:0:
237,25,162766,1,2,0:1:0:0:
307,120,162945,5,0,0:0:0:0:
360,224,163123,1,0,0:0:0:0:
276,308,163302,1,0,0:0:0:0:
172,254,163480,1,0,0:0:0:0:
190,138,163659,1,8,0:2:0:0:
262,209,164374,5,4,2:3:0:0:
256,192,175802,5,4,2:3:0:0:
256,192,188615,6,0,L|256:244,1,45.4999979171754,8|8,0:0|0:0,0:0:0:0:
61,202,190088,6,0,P|68:261|97:311,1,105.000004005432,4|0,0:3|0:3,0:0:0:0:
103,108,190624,1,4,2:3:0:0:
103,108,190802,2,0,P|70:157|60:214,1,105.000004005432,4|0,0:3|0:0,0:0:0:0:
395,287,191338,1,4,2:3:0:0:
395,287,191516,6,0,P|351:327|297:347,1,105.000004005432,4|4,0:0|0:0,0:0:0:0:
422,187,191874,2,0,P|415:246|386:296,1,105.000004005432,0|4,0:0|0:0,0:0:0:0:
379,93,192231,2,0,P|411:142|421:199,1,105.000004005432,4|0,0:0|0:0,0:0:0:0:
176,250,192588,2,0,P|125:237|82:207,1,105.000004005432,4|4,0:0|0:0,0:0:0:0:
156,42,192945,6,0,P|224:34|290:59,1,105.000004005432,4|0,2:3|0:0,0:0:0:0:
279,251,193302,2,0,P|211:259|145:234,1,105.000004005432,4|0,0:0|0:0,0:0:0:0:
94,128,193659,1,4,0:0:0:0:
94,128,193838,1,4,3:0:0:0:
219,124,194195,1,0,0:0:0:0:
219,124,194374,5,4,0:0:0:0:
94,128,194552,1,4,0:0:0:0:
59,250,194731,1,0,0:0:0:0:
164,321,194909,1,0,0:0:0:0:
264,244,195088,1,4,0:0:0:0:
344,112,195266,5,2,0:1:0:0:
344,112,195356,1,2,0:1:0:0:
344,112,195445,1,2,0:1:0:0:
344,112,195624,1,2,0:1:0:0:
354,283,195802,6,0,P|308:337|232:336,1,105.000004005432,4|0,0:0|0:0,0:0:0:0:
94,128,196159,2,0,P|122:178|171:200,1,105.000004005432,0|4,0:0|0:0,0:0:0:0:
270,47,196516,1,4,0:0:0:0:
270,47,196695,1,4,0:0:0:0:
430,328,197052,1,4,0:0:0:0:
430,328,197231,6,0,L|380:236,1,105.000004005432,4|4,0:0|0:0,0:0:0:0:
267,255,197588,2,0,L|254:369,1,105.000004005432,0|4,0:0|0:0,0:0:0:0:
95,284,197945,2,0,L|169:199,1,105.000004005432,4|0,0:0|0:0,0:0:0:0:
106,103,198302,2,0,L|-6:131,1,105.000004005432,4|0,0:0|0:0,0:0:0:0:
260,72,198659,6,0,L|385:43,1,105.000004005432,4|0,0:3|0:0,0:0:0:0:
470,116,198927,1,0,0:0:0:0:
470,116,199016,2,0,L|358:142,1,105.000004005432,4|0,0:0|0:0,0:0:0:0:
296,244,199284,1,0,0:0:0:0:
296,244,199374,2,0,L|411:217,1,105.000004005432,4|4,0:3|0:3,0:0:0:0:
492,272,199731,1,0,0:0:0:0:
384,312,199909,1,4,0:0:0:0:
296,244,200088,1,0,0:0:0:0:
54,299,200266,6,0,P|123:330|204:291,1,154.000004699707,4|0,0:3|0:0,0:0:0:0:
291,43,200802,2,0,B|322:66|322:66|290:86|290:86|318:114|318:114|290:138|290:138|318:166|318:166|290:190|290:190|321:222|321:222|273:262,1,308.000009399414,4|0,0:3|0:3,0:0:0:0:
385,318,201695,6,0,P|305:357|220:331,1,181.999991668702,2|0,0:0|0:0,0:0:0:0:
103,181,202231,2,0,L|97:78,1,90.9999958343508
198,147,202588,2,0,L|204:237,1,90.9999958343508
270,384,203659,6,0,B|294:340|250:309|250:309|203:338|230:395,1,171.499994766236,0|0,2:2|0:0,0:0:0:0:
225,383,204374,5,12,3:1:0:0:
415,333,204552,1,2,0:3:0:0:
302,227,204731,2,0,P|233:212|184:242,1,112,8|2,3:2|0:3,0:0:0:0:
120,363,205088,1,0,3:3:0:0:
41,228,205266,1,2,0:3:0:0:
68,220,205356,1,2,0:3:0:0:
94,231,205445,6,0,P|163:246|212:216,1,112,8|2,3:2|0:3,0:0:0:0:
371,90,205802,1,12,3:1:0:0:
323,251,205981,1,2,0:3:0:0:
276,89,206159,2,0,P|290:36|333:1,1,112,8|2,3:2|0:3,0:0:0:0:
115,60,206516,6,0,L|17:60,1,97.9999970092774,8|0,3:3|0:0,0:0:0:0:
140,152,206874,2,0,P|181:128|206:81,1,97.9999970092774,8|2,3:2|0:3,0:0:0:0:
402,17,207231,6,0,P|436:57|439:122,1,112,12|0,3:1|0:0,0:0:0:0:
435,142,207499,1,8,0:3:0:0:
425,168,207588,1,8,3:2:0:0:
320,104,207766,5,2,0:3:0:0:
320,283,207945,1,2,3:0:0:0:
216,165,208124,1,0,0:0:0:0:
203,141,208213,1,8,0:3:0:0:
197,113,208303,2,8,P|202:58|236:16,1,112,8|8,3:2|0:3,0:0:0:0:
437,291,208659,5,12,3:1:0:0:
318,197,208838,1,2,0:3:0:0:
195,295,209016,1,12,3:1:0:0:
318,197,209195,1,8,0:3:0:0:
320,371,209374,1,12,3:1:0:0:
358,116,209552,1,8,1:3:0:0:
320,104,209641,1,8,1:3:0:0:
282,116,209731,1,14,1:2:0:0:
320,283,209909,1,8,1:2:0:0:
369,27,210088,6,0,P|300:12|251:42,1,112,12|2,3:1|0:3,0:0:0:0:
213,198,210445,2,0,P|282:213|331:183,1,112,8|2,3:2|0:3,0:0:0:0:
264,28,210802,1,0,3:3:0:0:
217,202,210980,1,2,0:3:0:0:
193,217,211070,1,2,0:3:0:0:
166,224,211159,6,0,P|99:216|61:179,1,112,8|2,3:2|0:3,0:0:0:0:
282,116,211516,1,12,3:1:0:0:
231,280,211695,1,2,0:3:0:0:
192,104,211873,2,0,P|215:53|263:27,1,112,8|2,3:2|0:3,0:0:0:0:
406,204,212231,6,0,L|305:204,1,97.9999970092774,8|0,3:3|0:0,0:0:0:0:
415,295,212588,2,0,P|461:280|488:240,1,97.9999970092774,8|2,3:2|0:3,0:0:0:0:
227,126,212945,5,12,0:1:0:0:
184,285,213124,1,0,0:0:0:0:
133,131,213302,2,0,P|152:63|217:37,1,112,8|2,3:2|0:3,0:0:0:0:
266,218,213659,1,0,3:0:0:0:
460,125,213838,1,2,0:3:0:0:
443,110,213927,1,0,0:0:0:0:
422,102,214016,2,0,P|365:104|320:145,1,112,8|2,3:2|0:3,0:0:0:0:
103,240,214374,5,14,3:2:0:0:
227,126,214552,1,2,0:3:0:0:
103,240,214731,1,12,3:2:0:0:
269,255,214909,1,2,0:3:0:0:
103,240,215088,5,6,3:1:0:0:
66,225,215177,1,0,1:1:0:0:
51,188,215266,1,2,1:1:0:0:
227,126,215445,1,8,1:2:0:0:
96,21,215624,1,10,1:2:0:0:
354,18,215802,5,12,3:1:0:0:
227,126,215981,1,2,0:3:0:0:
407,216,216159,1,8,3:2:0:0:
269,255,216338,1,2,0:3:0:0:
227,126,216516,1,0,3:3:0:0:
354,98,216695,1,2,0:3:0:0:
354,98,216784,1,8,0:3:0:0:
354,98,216874,5,8,3:2:0:0:
407,216,217052,1,2,0:3:0:0:
227,126,217231,1,12,3:1:0:0:
47,216,217409,1,2,0:3:0:0:
184,245,217588,1,8,3:2:0:0:
76,89,217766,1,2,0:3:0:0:
71,49,217856,1,0,0:0:0:0:
96,21,217945,6,0,P|149:7|198:31,1,112,8|0,3:3|0:0,0:0:0:0:
227,126,218213,1,2,0:0:0:0:
227,126,218302,2,0,P|273:99|295:50,1,112,8|2,3:2|0:3,0:0:0:0:
327,316,218659,5,12,0:1:0:0:
170,355,218838,1,2,0:3:0:0:
143,358,218927,1,0,0:3:0:0:
115,352,219016,2,0,P|45:314|25:263,1,112,8|2,3:2|0:3,0:0:0:0:
30,56,219374,5,0,3:0:0:0:
186,17,219552,1,2,0:3:0:0:
214,13,219641,1,2,0:3:0:0:
242,20,219731,2,0,P|306:51|330:106,1,112,8|10,3:2|0:3,0:0:0:0:
459,296,220088,5,12,3:1:0:0:
452,128,220266,1,2,0:3:0:0:
410,306,220445,1,12,3:1:0:0:
320,163,220624,1,2,0:3:0:0:
384,349,220802,1,12,3:1:0:0:
235,277,220981,1,8,0:3:0:0:
196,265,221070,1,8,0:3:0:0:
156,281,221159,2,8,P|112:301|43:266,1,112,8|8,3:3|2:3,0:0:0:0:
349,67,221516,6,0,L|466:81,1,112,12|2,3:1|0:2,0:0:0:0:
327,197,221874,2,0,L|212:183,1,112,8|0,3:2|0:0,0:0:0:0:
148,20,222231,2,0,L|272:20,1,112,2|0,3:2|0:0,0:0:0:0:
327,197,222588,1,8,3:2:0:0:
431,35,222766,1,2,0:3:0:0:
218,68,222945,6,0,P|188:117|176:176,1,119.000002269745,12|0,3:1|0:0,0:0:0:0:
418,231,223302,2,0,P|448:180|461:121,1,119.000002269745,8|2,3:2|0:2,0:0:0:0:
184,130,223659,2,0,P|179:197|203:262,1,140,12|2,3:1|0:3,0:0:0:0:
453,169,224016,2,0,P|457:99|432:34,1,140,8|8,3:2|0:3,0:0:0:0:
150,233,224374,5,4,1:3:0:0:
138,265,224463,1,2,0:0:0:0:
126,297,224552,1,8,0:0:0:0:
357,89,224731,6,0,L|342:16,2,70,0|0|2,1:1|0:0|0:0,0:0:0:0:
276,325,225088,5,4,1:3:0:0:
303,347,225177,1,2,0:0:0:0:
330,369,225266,1,8,0:0:0:0:
204,86,225445,6,0,L|129:85,2,70,0|0|2,1:1|0:0|0:0,0:0:0:0:
407,238,225802,5,12,1:3:0:0:
437,220,225891,1,8,0:0:0:0:
468,202,225981,1,12,1:3:0:0:
256,167,226159,5,8,1:0:0:0:
214,163,226249,1,0,0:0:0:0:
173,159,226338,1,8,1:3:0:0:
15,343,226516,5,14,1:3:0:0:
47,360,226606,1,2,0:1:0:0:
87,364,226695,1,10,0:3:0:0:
127,356,226784,1,2,0:1:0:0:
159,332,226874,2,0,P|199:279|199:219,1,112,4|2,1:3|0:1,0:0:0:0:
174,76,227231,6,0,L|110:36,1,62.9999980773926,4|0,0:1|0:2,0:0:0:0:
50,84,227588,2,0,L|114:124,1,62.9999980773926,0|0,0:2|0:0,0:0:0:0:
173,159,227945,1,0,0:0:0:0:
247,204,228124,1,0,0:0:0:0:
247,285,228302,1,0,0:0:0:0:
173,323,228481,1,0,0:0:0:0:
174,241,228659,1,0,0:0:0:0:
103,202,228838,1,0,0:0:0:0:
102,283,229016,2,0,L|102:351,1,62.9999980773926
102,346,229374,1,2,0:2:0:0:
414,350,230802,5,0,0:0:0:0:
414,350,230936,1,0,0:0:0:0:
