osu file format v14

[General]
AudioFilename: koi yomi zakura.mp3
AudioLeadIn: 0
PreviewTime: 204284
Countdown: 0
SampleSet: None
StackLeniency: 0.7
Mode: 0
LetterboxInBreaks: 0
WidescreenStoryboard: 0

[Editor]
Bookmarks: 59731,70981
DistanceSpacing: 1.1
BeatDivisor: 4
GridSize: 4
TimelineZoom: 1.3

[Metadata]
Title:Koi Yomi Zakura (Full size)
TitleUnicode:恋詠桜(Full size)
Artist:loos
ArtistUnicode:loos
Creator:papapa213
Version:Hard
Source:
Tags:omoi yoshino オモイヨシノ 柊莉杏 Hiiragi Rian spice+rock imouto ouo koko lyric ametrin yf_bmp gust ultimate madoka
BeatmapID:1272126
BeatmapSetID:602230

[Difficulty]
HPDrainRate:5
CircleSize:4
OverallDifficulty:6
ApproachRate:7.5
SliderMultiplier:1.5
SliderTickRate:1

[Events]
//Background and Video events
0,0,"48542248_p0.jpg",0,0
//Break Periods
2,127431,137834
2,164574,174977
2,176002,187790
//Storyboard Layer 0 (Background)
//Storyboard Layer 1 (Fail)
//Storyboard Layer 2 (Pass)
//Storyboard Layer 3 (Foreground)
//Storyboard Sound Samples

[TimingPoints]
1517,357.142857142857,4,3,10,40,1,0
6516,-153.846153846154,4,3,10,40,0,0
7231,-100,4,3,10,40,0,0
12231,-166.666666666667,4,3,10,60,0,0
12945,-100,4,3,10,70,0,0
18659,-142.857142857143,4,3,10,70,0,0
19195,-100,4,3,10,70,0,0
20266,-142.857142857143,4,3,10,70,0,0
20624,-100,4,3,10,70,0,0
24374,-200,4,2,10,50,0,0
32588,-100,4,3,10,50,0,0
32945,-100,4,2,10,50,0,0
35981,-100,4,3,10,60,0,0
46874,-100,4,3,10,70,0,0
58659,-100,4,2,11,70,0,1
78659,-100,4,3,10,70,0,1
81516,-100,4,3,10,70,0,0
95802,-100,4,3,10,60,0,0
115445,-100,4,3,10,70,0,0
127231,-100,4,2,10,50,0,0
138659,-100,4,2,10,60,0,0
144374,-142.857142857143,4,3,0,40,0,0
145445,-100,4,3,0,50,0,0
145802,-100,4,3,0,45,0,0
146159,-100,4,3,0,50,0,0
146516,-111.111111111111,4,3,0,50,0,0
147231,-142.857142857143,4,3,0,30,0,0
147409,-142.857142857143,4,3,0,40,0,0
147588,-142.857142857143,4,3,0,50,0,0
147945,-111.111111111111,4,3,0,40,0,0
148124,-111.111111111111,4,3,0,45,0,0
148302,-111.111111111111,4,3,0,55,0,0
148481,-111.111111111111,4,3,0,50,0,0
148659,-100,4,2,10,70,0,0
150088,-100,4,3,10,70,0,0
188615,-100,4,3,10,20,0,0
188704,-100,4,3,10,5,0,0
190088,-100,4,3,10,70,0,0
204374,-100,4,2,11,70,0,1
224374,-100,4,3,10,70,0,1
227231,-100,4,3,10,70,0,0
229374,-100,4,3,10,50,0,0
230802,-100,4,3,10,40,0,0

[Colours]
Combo1 : 233,50,82
Combo2 : 238,87,174
Combo3 : 236,223,66
Combo4 : 33,156,222

[HitObjects]
95,269,1517,6,0,L|51:343,2,75,4|0|2,0:0|0:2|0:2,0:0:0:0:
136,197,2052,1,0,0:0:0:0:
178,125,2231,2,0,L|264:125,2,75,0|0|2,0:0|0:0|0:2,0:0:0:0:
95,125,2766,1,0,0:0:0:0:
218,196,2945,6,0,L|300:196,1,75,4|0,0:0|0:0,0:0:0:0:
334,266,3302,1,2,0:2:0:0:
375,196,3481,1,0,0:0:0:0:
252,267,3659,6,0,L|177:267,1,75,0|0,0:0|0:0,0:0:0:0:
95,267,4016,1,2,0:2:0:0:
136,337,4195,1,4,0:3:0:0:
136,197,4374,5,4,0:0:0:0:
255,345,4731,5,2,0:2:0:0:
375,196,5088,5,0,0:0:0:0:
255,345,5445,5,2,0:2:0:0:
255,147,5802,5,2,0:1:0:0:
512,29,6516,6,0,P|421:69|367:26,1,170.624992189408,0|0,2:0|0:0,0:0:0:0:
341,3,7231,6,0,P|309:94|237:136,1,150,4|8,1:1|0:0,0:0:0:0:
90,151,7945,2,0,P|181:183|223:255,1,150,0|2,1:0|0:0,0:0:0:0:
106,384,8659,6,0,L|92:307,1,75,0|2,1:0|0:0,0:0:0:0:
26,259,9016,2,0,L|12:182,1,75,8|0,1:3|0:0,0:0:0:0:
142,232,9374,2,0,P|230:270|310:246,1,150,0|2,1:0|0:0,0:0:0:0:
414,93,10088,6,0,L|324:99,1,75,0|2,1:0|0:0,0:0:0:0:
280,155,10445,2,0,L|190:161,1,75,8|0,1:3|0:0,0:0:0:0:
67,115,10802,2,0,L|141:110,1,75,0|0,1:0|1:0,0:0:0:0:
219,256,11338,1,0,1:0:0:0:
148,298,11516,6,0,L|58:304,1,75,0|2,1:0|1:3,0:0:0:0:
100,334,11784,1,0,2:0:0:0:
100,334,11874,2,0,L|174:329,1,75,8|0,0:0|1:0,0:0:0:0:
291,207,12231,6,0,P|255:176|151:201,1,157.499995193482,8|0,1:0|0:0,0:0:0:0:
119,218,12945,6,0,L|36:218,1,75,4|2,0:1|0:2,0:0:0:0:
12,141,13302,2,0,L|87:141,1,75,8|2,1:0|0:2,0:0:0:0:
159,101,13659,1,0,1:0:0:0:
87,59,13838,2,0,L|49:59,2,37.5,2|2|8,0:2|0:2|1:0,0:0:0:0:
238,125,14374,6,0,L|238:205,1,75,0|2,1:0|0:2,0:0:0:0:
315,225,14731,2,0,L|315:150,1,75,8|2,1:0|0:2,0:0:0:0:
298,69,15088,1,0,1:0:0:0:
376,94,15266,2,0,L|424:93,2,37.5,2|2|8,0:2|0:2|1:0,0:0:0:0:
178,181,15802,6,0,L|93:181,1,75,0|2,1:0|0:2,0:0:0:0:
72,257,16159,2,0,L|146:257,1,75,8|2,1:0|0:2,0:0:0:0:
229,249,16516,1,2,1:2:0:0:
279,314,16695,1,0,0:0:0:0:
197,325,16874,1,8,1:0:0:0:
384,239,17231,6,0,L|309:239,1,75,0|0,1:0|0:0,0:0:0:0:
275,163,17588,2,0,L|350:163,1,75,8|0,1:0|0:0,0:0:0:0:
318,86,17945,2,0,L|243:86,1,75,0|0,1:0|0:0,0:0:0:0:
209,10,18302,2,0,L|284:10,1,75,8|0,1:0|0:0,0:0:0:0:
167,84,18659,6,0,P|92:116|26:81,1,157.499995193482,4|4,1:3|1:3,0:0:0:0:
213,14,19552,1,8,2:0:0:0:
213,14,19731,1,8,2:0:0:0:
255,192,20088,5,4,1:3:0:0:
299,260,20266,2,0,P|365:297|412:288,1,104.999996795654,4|4,1:3|1:3,0:0:0:0:
220,265,20981,1,8,2:2:0:0:
220,265,21159,1,8,2:0:0:0:
86,130,21516,6,0,L|245:107,1,150,4|8,1:1|0:1,0:0:0:0:
313,133,22052,1,4,1:2:0:0:
361,65,22231,2,0,L|407:3,1,75,0|8,0:0|0:1,0:0:0:0:
451,73,22588,2,0,L|406:133,1,75,4|8,1:1|0:1,0:0:0:0:
361,202,22945,1,4,1:2:0:0:
361,284,23124,1,2,2:0:0:0:
438,311,23302,2,0,L|438:236,2,75,0|2|4,2:0|2:0|2:3,0:0:0:0:
368,357,23838,5,2,0:1:0:0:
363,358,23927,1,2,0:1:0:0:
358,359,24016,2,0,P|299:361|269:332,1,75,8|2,0:1|0:1,0:0:0:0:
132,290,24374,6,0,B|219:281|264:202|264:202|324:223|374:193,1,262.5,4|4,1:1|0:3,0:0:0:0:
426,153,25981,1,4,0:3:0:0:
163,63,27231,6,0,B|175:84|175:84|145:162|208:236|208:236|230:183|230:183|258:186,1,262.5,4|4,0:3|0:3,0:0:0:0:
327,199,28838,1,4,0:3:0:0:
486,120,30088,6,0,B|439:86|369:118|369:118|294:141|242:75,1,262.5,4|4,0:3|0:3,0:0:0:0:
211,3,31695,1,4,0:3:0:0:
272,254,32588,5,8,1:1:0:0:
272,254,32766,1,0,0:0:0:0:
194,282,32945,1,4,0:3:0:0:
52,197,33302,5,12,0:0:0:0:
130,169,33480,1,4,0:3:0:0:
130,169,33659,1,4,0:3:0:0:
273,87,34016,5,8,0:0:0:0:
273,169,34195,1,4,0:3:0:0:
128,248,34552,1,8,0:0:0:0:
129,83,34909,1,8,0:0:0:0:
274,5,35266,5,8,0:0:0:0:
273,87,35445,1,12,0:0:0:0:
273,169,35624,1,0,3:0:0:0:
274,286,35802,6,0,L|341:339,1,75,4|2,1:0|0:2,0:0:0:0:
391,274,36159,2,0,L|490:274,1,75,8|2,0:1|0:0,0:0:0:0:
493,351,36516,2,0,L|418:351,1,75,0|2,0:0|0:0,0:0:0:0:
391,274,36874,2,0,L|369:196,1,75,8|2,0:3|0:0,0:0:0:0:
351,78,37231,6,0,P|410:101|448:183,1,150,0|8,0:2|0:1,0:0:0:0:
370,201,37766,2,0,B|305:228|269:174|219:207,1,150,2|2,0:0|0:0,0:0:0:0:
168,265,38302,1,8,0:3:0:0:
248,282,38481,1,2,0:0:0:0:
223,204,38659,2,0,P|150:186|128:195,1,75,0|2,0:0|0:0,0:0:0:0:
0,190,39016,6,0,L|85:191,1,75,8|2,0:1|0:0,0:0:0:0:
113,117,39374,2,0,L|38:116,1,75,0|0,0:0|0:3,0:0:0:0:
74,190,39731,2,0,L|159:191,1,75,8|2,2:2|0:3,0:0:0:0:
187,117,40088,2,0,L|112:116,1,75,2|2,0:2|0:0,0:0:0:0:
86,83,40356,1,0,0:0:0:0:
111,50,40445,1,8,0:1:0:0:
183,15,40624,6,0,L|343:15,1,150,2|0,0:0|0:0,0:0:0:0:
397,65,41159,2,0,L|482:65,1,75,8|2,2:3|0:0,0:0:0:0:
409,144,41516,2,0,L|334:144,1,75,2|2,0:2|0:0,0:0:0:0:
260,183,41874,1,8,0:1:0:0:
98,281,42231,6,0,L|181:281,1,75,0|2,0:0|0:0,0:0:0:0:
231,339,42588,2,0,L|320:339,1,75,8|0,0:2|0:3,0:0:0:0:
372,289,42945,1,0,0:0:0:0:
294,259,43124,2,0,L|251:259,2,37.5,2|0|8,0:0|0:0|0:1,0:0:0:0:
260,183,43481,6,0,P|324:203|280:261,1,150,2|2,2:0|0:0,0:0:0:0:
211,257,44016,2,0,L|150:176,1,75,8|2,1:3|0:0,0:0:0:0:
83,80,44374,5,4,0:3:0:0:
53,46,44552,1,2,0:2:0:0:
25,10,44731,1,4,1:1:0:0:
91,174,45088,5,4,0:3:0:0:
76,216,45266,1,2,0:2:0:0:
59,259,45445,1,12,0:2:0:0:
169,121,45802,5,4,0:3:0:0:
211,106,45981,2,0,P|273:95|361:114,1,150,0|12,0:3|0:2,0:0:0:0:
477,224,46695,2,0,P|440:217|405:229,1,75,4|8,0:0|1:3,0:0:0:0:
326,374,47231,1,4,1:1:0:0:
215,214,47588,5,8,2:2:0:0:
336,104,47945,2,0,P|385:109|420:91,2,75,0|0|0,0:0|0:0|0:0,0:0:0:0:
264,62,48481,2,0,P|193:43|108:74,1,150,2|2,0:1|0:2,0:0:0:0:
72,130,49016,1,8,0:2:0:0:
215,214,49374,2,0,P|166:219|131:201,2,75,2|8|0,0:2|0:2|0:0,0:0:0:0:
336,104,50088,5,4,3:3:0:0:
352,268,50445,1,8,2:2:0:0:
415,115,50802,2,0,P|449:86|484:84,2,75,0|0|0,0:0|0:0|0:0,0:0:0:0:
364,180,51338,2,0,P|300:176|255:104,1,150,2|0,0:0|0:0,0:0:0:0:
219,34,51874,1,10,0:2:0:0:
147,182,52231,2,0,L|111:258,2,75,0|8|8,0:2|0:2|2:0,0:0:0:0:
219,34,52945,5,4,0:1:0:0:
75,114,53302,1,8,2:0:0:0:
267,163,53659,2,0,P|302:172|337:160,2,75,0|0|0,0:0|0:0|0:0,0:0:0:0:
198,116,54195,2,0,B|130:106|164:27|50:29,1,150,2|0,0:1|0:0,0:0:0:0:
7,66,54731,1,8,2:0:0:0:
75,114,54909,1,0,0:0:0:0:
81,30,55088,1,8,2:0:0:0:
63,193,55445,1,8,2:0:0:0:
245,55,55802,6,0,B|314:41|334:91|400:72,1,150,12|8,2:0|2:0,0:0:0:0:
271,229,56516,2,0,B|202:215|182:265|125:248,1,150,8|8,2:0|2:0,0:0:0:0:
63,193,57052,1,0,2:0:0:0:
142,168,57231,1,12,3:2:0:0:
381,221,58302,5,10,0:1:0:0:
381,221,58659,6,0,P|453:214|474:192,1,75,12|2,3:1|0:3,0:0:0:0:
409,143,59016,2,0,P|337:150|316:172,1,75,8|2,3:2|0:3,0:0:0:0:
298,223,59374,1,0,3:3:0:0:
191,98,59731,6,0,P|182:26|200:2,1,75,8|2,3:2|0:3,0:0:0:0:
261,55,60088,2,0,P|269:126|251:151,1,75,2|2,3:2|0:3,0:0:0:0:
205,179,60445,1,8,3:2:0:0:
57,331,60802,6,0,L|153:331,1,75,8|0,3:3|0:0,0:0:0:0:
166,256,61159,2,0,L|91:256,1,75,8|2,3:2|0:3,0:0:0:0:
210,326,61516,6,0,P|291:334|355:290,1,150,2|8,3:3|3:2,0:0:0:0:
403,238,62052,1,2,0:3:0:0:
419,156,62231,2,0,L|419:72,1,75,2|2,3:3|0:3,0:0:0:0:
498,56,62588,2,0,L|498:131,1,75,8|2,3:2|0:3,0:0:0:0:
419,156,62945,5,2,3:2:0:0:
373,87,63124,1,2,0:3:0:0:
423,20,63302,1,10,3:2:0:0:
500,48,63481,1,2,0:3:0:0:
498,131,63659,2,0,P|433:140|370:77,1,150,10|8,3:2|1:3,0:0:0:0:
320,23,64195,1,8,1:3:0:0:
213,114,64374,6,0,P|141:123|117:105,1,75,4|2,3:3|0:3,0:0:0:0:
170,44,64731,2,0,P|241:36|266:54,1,75,8|2,3:2|0:3,0:0:0:0:
295,99,65088,1,0,3:3:0:0:
357,251,65445,6,0,P|429:260|453:242,1,75,8|2,3:2|0:3,0:0:0:0:
400,181,65802,2,0,P|329:173|304:191,1,75,2|2,3:2|0:3,0:0:0:0:
275,236,66159,1,8,3:2:0:0:
112,355,66516,6,0,L|112:279,1,75,8|0,3:3|0:0,0:0:0:0:
191,255,66874,2,0,L|191:330,1,75,8|2,3:2|0:3,0:0:0:0:
123,204,67231,6,0,P|167:150|270:131,1,150,2|8,3:3|3:2,0:0:0:0:
323,125,67766,1,2,0:3:0:0:
393,81,67945,2,0,L|469:81,1,75,0|2,3:0|0:3,0:0:0:0:
472,163,68302,2,0,L|397:163,1,75,8|2,3:2|0:3,0:0:0:0:
323,125,68659,6,0,P|308:78|325:32,2,75,2|2|8,3:2|0:3|3:2,0:0:0:0:
397,163,69195,1,2,0:3:0:0:
369,240,69374,2,0,P|296:263|212:223,1,150,0|2,3:2|3:1,0:0:0:0:
185,169,69909,1,2,3:1:0:0:
101,57,70088,6,0,P|32:33|5:45,1,75,12|2,3:1|0:3,0:0:0:0:
44,116,70445,2,0,P|111:138|139:126,1,75,8|2,3:2|0:3,0:0:0:0:
178,88,70802,1,0,3:3:0:0:
200,251,71159,6,0,P|209:323|191:347,1,75,10|2,3:2|0:3,0:0:0:0:
130,294,71516,2,0,P|122:223|140:198,1,75,0|2,3:2|0:3,0:0:0:0:
185,169,71873,1,8,3:2:0:0:
366,49,72231,6,0,L|277:49,1,75,0|0,3:3|0:0,0:0:0:0:
254,122,72588,2,0,L|329:122,1,75,8|2,3:2|0:3,0:0:0:0:
213,52,72945,6,0,P|163:39|74:75,1,150,8|8,3:3|3:2,0:0:0:0:
33,145,73481,1,2,0:3:0:0:
90,203,73659,2,0,L|174:203,1,75,0|2,3:0|0:3,0:0:0:0:
190,282,74016,2,0,L|115:282,1,75,8|2,3:2|0:3,0:0:0:0:
90,203,74373,5,2,3:2:0:0:
159,157,74552,1,2,0:3:0:0:
226,207,74730,1,8,3:2:0:0:
198,284,74909,1,2,0:3:0:0:
115,282,75087,2,0,P|106:217|169:154,1,150,8|8,3:2|1:2,0:0:0:0:
235,124,75624,1,8,1:3:0:0:
305,273,75802,6,0,P|366:301|451:285,1,150,12|8,3:1|3:2,0:0:0:0:
502,228,76338,1,0,0:0:0:0:
460,157,76516,2,0,P|399:129|314:145,1,150,2|8,3:3|3:2,0:0:0:0:
263,202,77052,1,2,0:0:0:0:
235,124,77231,6,0,P|249:66|283:34,1,75,12|0,3:1|0:0,0:0:0:0:
295,37,77499,1,0,0:0:0:0:
322,67,77588,2,0,P|325:104|318:141,1,75,8|0,3:2|0:0,0:0:0:0:
263,202,77945,2,0,P|222:214|157:198,1,75,2|0,3:3|0:3,0:0:0:0:
127,157,78302,2,0,P|89:155|54:166,1,75,8|8,3:2|0:3,0:0:0:0:
23,284,78659,6,0,L|23:362,1,75,4|2,1:2|0:0,0:0:0:0:
101,311,79016,2,0,L|101:236,1,75,0|2,1:1|0:0,0:0:0:0:
179,284,79374,2,0,L|179:362,1,75,4|2,0:2|0:0,0:0:0:0:
257,311,79731,2,0,L|257:236,1,75,0|2,1:0|0:0,0:0:0:0:
335,284,80088,6,0,P|382:305|415:299,1,75,4|0,1:2|1:0,0:0:0:0:
439,280,80356,1,0,1:0:0:0:
449,240,80445,2,0,P|425:194|396:177,1,75,0|0,1:0|1:0,0:0:0:0:
340,132,80802,2,0,L|297:132,3,37.5,2|2|2|2,1:0|0:1|0:1|0:1,0:0:0:0:
268,107,81159,2,0,P|300:64|341:58,1,75,2|2,0:1|0:1,0:0:0:0:
350,165,81516,6,0,P|288:205|211:189,1,150,4|8,1:1|0:1,0:0:0:0:
214,26,82231,2,0,P|286:13|347:53,1,150,2|8,0:2|0:1,0:0:0:0:
408,108,82766,1,2,0:0:0:0:
430,187,82945,6,0,L|430:271,1,75,0|8,0:0|0:0,0:0:0:0:
350,240,83302,2,0,L|350:164,1,75,8|8,0:1|0:0,0:0:0:0:
322,86,83659,2,0,P|271:87|190:151,1,150,0|8,0:0|0:1,0:0:0:0:
180,225,84195,1,0,0:0:0:0:
161,356,84374,6,0,P|212:355|293:291,1,150,6|8,0:2|0:1,0:0:0:0:
432,165,85088,2,0,P|455:235|433:305,1,150,2|8,0:2|0:1,0:0:0:0:
358,340,85624,1,2,0:0:0:0:
284,303,85802,6,0,L|194:303,1,75,0|8,0:0|0:0,0:0:0:0:
180,225,86159,2,0,L|255:225,1,75,8|8,0:1|0:0,0:0:0:0:
337,226,86516,1,4,0:0:0:0:
394,165,86695,2,0,L|443:165,2,37.5,2|2|2,0:1|0:1|0:1,0:0:0:0:
312,148,87052,1,2,0:1:0:0:
232,128,87231,6,0,B|183:115|183:115|153:81|153:81|96:67,2,150,4|0|2,3:1|0:1|0:2,0:0:0:0:
380,54,88302,2,0,L|466:54,1,75,8|2,0:1|0:0,0:0:0:0:
473,134,88659,6,0,L|473:218,1,75,4|0,2:0|0:3,0:0:0:0:
393,229,89016,2,0,L|393:154,1,75,8|8,0:1|0:0,0:0:0:0:
319,115,89374,2,0,P|244:96|167:125,1,150,0|8,0:0|0:2,0:0:0:0:
129,185,89909,1,8,0:0:0:0:
54,306,90088,6,0,P|32:235|51:163,1,150,4|8,0:1|0:1,0:0:0:0:
204,89,90802,2,0,P|223:160|201:231,1,150,2|8,0:3|0:1,0:0:0:0:
126,267,91338,1,0,0:0:0:0:
129,185,91516,5,4,0:1:0:0:
57,224,91695,1,8,0:0:0:0:
54,306,91874,1,2,0:0:0:0:
123,349,92052,1,8,0:0:0:0:
195,310,92231,1,4,0:1:0:0:
303,185,92588,6,0,L|200:230,1,112.5,8|0,0:0|0:0,0:0:0:0:
200,230,92945,1,4,2:1:0:0:
199,230,94374,5,4,0:0:0:0:
199,148,95266,1,2,0:1:0:0:
199,230,95445,1,8,0:1:0:0:
379,113,95802,2,0,L|287:113,1,75,4|0,0:1|3:0,0:0:0:0:
272,189,96159,2,0,L|347:189,1,75,10|0,0:2|2:0,0:0:0:0:
429,181,96516,1,0,0:0:0:0:
484,119,96695,2,0,L|484:73,2,37.5,2|0|8,0:0|0:0|0:1,0:0:0:0:
508,198,97052,1,0,2:2:0:0:
456,297,97231,6,0,L|456:373,1,75,0|0,0:0|0:0,0:0:0:0:
374,357,97588,2,0,L|374:282,1,75,10|0,0:2|2:0,0:0:0:0:
349,203,97945,1,0,0:0:0:0:
296,267,98124,2,0,L|296:320,2,37.5,2|0|8,0:0|0:0|0:1,0:0:0:0:
271,188,98481,1,0,2:0:0:0:
229,70,98659,6,0,L|147:70,1,75,2|0,0:2|0:0,0:0:0:0:
123,146,99016,2,0,L|200:146,1,75,8|2,0:2|2:0,0:0:0:0:
271,188,99374,1,0,0:0:0:0:
296,267,99552,1,2,0:0:0:0:
349,203,99731,2,0,L|433:203,1,75,8|2,0:1|2:0,0:0:0:0:
453,280,100088,6,0,L|378:280,1,75,0|2,0:0|0:0,0:0:0:0:
296,267,100445,1,8,2:0:0:0:
215,246,100624,2,0,P|123:229|54:265,1,150,2|2,2:0|0:0,0:0:0:0:
8,300,101159,2,0,P|43:328|84:328,1,75,0|2,0:2|0:0,0:0:0:0:
154,332,101516,1,4,0:3:0:0:
281,190,101874,6,0,P|245:161|204:161,1,75,12|4,1:0|0:3,0:0:0:0:
135,158,102231,1,4,0:3:0:0:
244,281,102588,2,0,L|319:281,1,75,8|4,2:0|2:3,0:0:0:0:
154,332,103124,5,8,2:0:0:0:
135,158,103481,1,8,2:0:0:0:
6,261,103838,1,8,2:0:0:0:
87,253,104016,1,12,2:0:0:0:
169,244,104195,1,0,3:0:0:0:
282,195,104374,6,0,L|353:174,1,75,4|2,1:2|0:2,0:0:0:0:
362,91,104731,2,0,L|417:22,1,75,8|2,0:1|0:0,0:0:0:0:
475,80,105088,2,0,L|428:138,1,75,0|2,0:0|0:0,0:0:0:0:
362,91,105445,2,0,L|291:70,1,75,8|2,0:3|0:0,0:0:0:0:
192,14,105802,6,0,P|180:92|220:158,1,150,0|8,0:2|0:1,0:0:0:0:
282,195,106338,2,0,P|294:267|261:333,1,150,2|0,0:0|0:0,0:0:0:0:
193,381,106874,1,8,0:3:0:0:
185,299,107052,1,2,0:0:0:0:
261,333,107231,2,0,P|311:342|359:329,1,75,0|2,0:0|0:0,0:0:0:0:
480,331,107588,6,0,L|480:256,1,75,8|2,0:1|2:3,0:0:0:0:
408,295,107945,2,0,L|408:373,1,75,0|2,0:2|2:3,0:0:0:0:
480,256,108302,2,0,L|480:181,1,75,8|2,2:2|0:3,0:0:0:0:
408,220,108659,2,0,L|408:298,1,75,2|2,0:2|0:2,0:0:0:0:
379,324,108927,1,2,0:2:0:0:
345,347,109016,1,8,0:1:0:0:
311,271,109195,6,0,P|240:248|162:284,1,150,2|2,0:0|0:0,0:0:0:0:
110,328,109731,2,0,L|29:328,1,75,8|2,2:3|0:3,0:0:0:0:
18,247,110088,2,0,L|99:247,1,75,2|2,0:2|0:0,0:0:0:0:
172,274,110445,1,8,0:1:0:0:
45,130,110802,6,0,L|45:46,1,75,0|2,0:0|0:0,0:0:0:0:
123,26,111159,2,0,L|123:101,1,75,8|0,0:2|0:3,0:0:0:0:
124,183,111516,1,2,0:2:0:0:
206,198,111695,2,0,L|247:171,2,37.5,2|0|8,0:0|0:0|0:1,0:0:0:0:
172,274,112052,2,0,P|246:298|319:275,1,150,2|2,2:0|0:0,0:0:0:0:
382,234,112588,2,0,L|414:152,1,75,8|2,1:3|0:0,0:0:0:0:
398,32,112945,5,4,0:3:0:0:
353,38,113124,1,2,0:2:0:0:
322,70,113302,1,4,1:1:0:0:
365,276,113659,5,4,0:3:0:0:
382,234,113838,1,2,0:2:0:0:
370,191,114016,1,12,0:2:0:0:
170,126,114374,5,4,0:3:0:0:
198,161,114553,1,0,0:3:0:0:
241,172,114731,2,0,P|275:171|311:142,1,75,2|12,0:2|0:2,0:0:0:0:
101,86,115266,2,0,P|88:117|99:162,1,75,4|8,0:0|1:3,0:0:0:0:
149,312,115802,5,4,1:1:0:0:
309,224,116159,1,8,2:2:0:0:
199,101,116516,1,0,0:0:0:0:
158,173,116695,1,0,0:0:0:0:
241,172,116873,1,0,0:0:0:0:
284,101,117052,2,0,P|248:31|157:28,1,150,2|2,0:1|0:2,0:0:0:0:
115,63,117587,5,8,0:2:0:0:
241,172,117945,1,2,0:2:0:0:
158,173,118123,1,8,0:2:0:0:
199,101,118302,2,0,P|290:105|323:167,1,150,0|2,0:0|3:2,0:0:0:0:
376,339,119016,6,0,P|417:350|456:340,1,75,8|0,2:2|0:0,0:0:0:0:
417,267,119373,2,0,P|402:193|417:121,1,150,0|0,0:0|0:0,0:0:0:0:
457,49,119909,2,0,P|385:32|312:48,1,150,2|0,0:0|0:0,0:0:0:0:
266,117,120445,5,10,0:2:0:0:
335,267,120802,1,0,0:2:0:0:
377,193,120980,1,8,0:2:0:0:
417,267,121159,1,8,2:0:0:0:
255,299,121516,5,4,0:1:0:0:
493,311,121873,1,8,2:0:0:0:
377,193,122230,1,0,0:0:0:0:
335,267,122409,1,0,0:0:0:0:
417,267,122587,1,0,0:0:0:0:
459,195,122766,2,0,P|431:129|356:111,1,150,2|0,0:1|0:0,0:0:0:0:
281,133,123302,5,8,2:0:0:0:
298,52,123480,1,0,0:0:0:0:
220,81,123659,1,8,2:0:0:0:
65,22,124016,1,8,2:0:0:0:
25,218,124374,6,0,B|94:204|114:254|180:235,1,150,8|8,2:0|2:0,0:0:0:0:
244,200,124909,1,0,2:0:0:0:
326,200,125088,2,0,L|411:201,1,75,8|0,2:0|2:0,0:0:0:0:
429,278,125445,2,0,L|354:277,1,75,8|0,2:0|2:0,0:0:0:0:
283,321,125802,1,4,0:2:0:0:
216,279,127231,1,4,0:1:0:0:
172,227,138659,6,0,P|136:267|15:255,2,150,2|2|2,0:0|0:0|0:0,0:0:0:0:
232,73,139731,2,0,P|267:32|388:44,2,150,2|2|2,0:0|0:0|0:0,0:0:0:0:
313,216,140802,6,0,P|308:284|247:347,1,150,2|0,0:0|0:0,0:0:0:0:
173,357,141338,1,0,0:0:0:0:
138,282,141516,2,0,P|143:214|204:151,1,150,2|2,0:0|0:0,0:0:0:0:
381,148,142231,2,0,P|406:218|367:296,1,150,2|2,0:0|0:0,0:0:0:0:
335,79,142945,6,0,P|320:54|327:10,2,75,2|0|0,0:0|0:0|0:0,0:0:0:0:
380,148,143481,1,2,0:0:0:0:
423,217,143659,2,0,L|510:233,2,75,2|4|4,0:0|0:0|0:0,0:0:0:0:
226,172,144374,6,0,P|199:111|202:11,2,157.499995193482
272,240,145624,1,0,0:0:0:0:
389,214,145802,1,0,0:0:0:0:
198,259,146159,1,0,0:0:0:0:
315,168,146516,6,0,P|355:226|338:293,1,134.999995880127,0|0,0:0|0:0,0:0:0:0:
216,347,147231,6,0,L|52:347,1,157.499995193482,0|0,0:0|0:0,0:0:0:0:
28,256,147945,6,0,L|234:256,1,202.499993820191,0|0,0:0|0:0,0:0:0:0:
313,256,148659,1,4,1:1:0:0:
395,256,148838,1,8,0:1:0:0:
216,347,149195,1,8,0:1:0:0:
115,176,149552,2,0,L|200:176,1,75,2|4,1:3|2:0,0:0:0:0:
293,49,150088,6,0,P|237:74|144:66,1,150,6|8,0:0|0:1,0:0:0:0:
94,7,150624,1,0,0:0:0:0:
23,49,150802,2,0,L|23:216,1,150,2|8,0:0|0:1,0:0:0:0:
176,326,151516,2,0,L|175:242,1,75,0|0,0:0|0:0,0:0:0:0:
101,214,151874,2,0,L|101:319,1,75,8|2,0:1|0:0,0:0:0:0:
23,349,152231,2,0,L|23:195,1,150,0|8,0:0|0:1,0:0:0:0:
68,130,152766,1,8,0:0:0:0:
174,172,152945,6,0,P|247:192|325:162,1,150,6|8,0:0|0:1,0:0:0:0:
378,115,153481,1,8,0:0:0:0:
319,57,153659,2,0,L|153:57,1,150,0|8,0:0|0:1,0:0:0:0:
140,248,154374,2,0,L|235:248,1,75,0|8,0:0|0:0,0:0:0:0:
249,172,154731,2,0,L|174:172,1,75,8|8,0:1|0:0,0:0:0:0:
94,150,155088,1,0,0:0:0:0:
150,90,155266,2,0,L|231:90,2,75,2|2|10,0:1|0:1|0:1,0:0:0:0:
22,82,155802,6,0,P|1:145|43:242,1,150,6|8,0:0|0:1,0:0:0:0:
72,290,156338,1,0,0:0:0:0:
140,248,156516,2,0,L|292:248,1,150,0|8,0:0|0:1,0:0:0:0:
417,94,157231,2,0,L|333:95,1,75,0|0,0:0|0:0,0:0:0:0:
305,169,157589,2,0,L|410:169,1,75,8|2,0:1|0:0,0:0:0:0:
440,248,157946,2,0,L|286:248,1,150,0|8,0:0|0:1,0:0:0:0:
228,303,158481,1,8,0:0:0:0:
140,248,158659,6,0,P|120:175|137:97,1,150,6|8,0:3|0:1,0:0:0:0:
184,37,159195,1,8,0:0:0:0:
257,75,159374,2,0,L|257:225,1,150,0|8,0:0|0:1,0:0:0:0:
228,303,159909,1,0,0:0:0:0:
178,369,160088,6,0,L|98:369,2,75,2|8|2,0:0|0:0|0:0,0:0:0:0:
259,379,160624,1,8,0:0:0:0:
339,364,160802,2,0,P|390:336|375:249,1,150,6|0,0:0|0:0,0:0:0:0:
408,91,161516,6,0,L|488:91,2,75,0|8|0,0:0|0:0|0:0,0:0:0:0:
327,81,162052,1,8,0:0:0:0:
247,96,162230,2,0,P|196:124|211:211,1,150,4|2,0:0|0:1,0:0:0:0:
408,257,162945,6,0,L|408:337,2,75,0|0|0,0:0|0:0|0:0,0:0:0:0:
408,174,163481,1,0,0:0:0:0:
408,91,163659,1,8,0:2:0:0:
408,174,164374,5,4,2:3:0:0:
225,164,175802,5,4,2:3:0:0:
225,164,188615,6,0,L|225:214,1,37.5,8|8,0:0|0:0,0:0:0:0:
139,172,190088,5,4,0:3:0:0:
161,207,190802,5,4,0:3:0:0:
182,242,191516,5,4,0:0:0:0:
186,246,191695,1,4,0:0:0:0:
227,300,192052,5,4,0:0:0:0:
231,304,192231,2,0,L|331:304,1,75,4|0,0:0|0:0,0:0:0:0:
376,347,192588,2,0,P|389:295|376:264,1,75,4|4,0:0|0:0,0:0:0:0:
327,210,192945,5,4,2:3:0:0:
288,186,193302,5,4,0:0:0:0:
329,167,193659,5,4,0:0:0:0:
329,167,193838,1,4,3:0:0:0:
218,89,194195,5,0,0:0:0:0:
218,89,194374,2,0,P|163:81|134:92,1,75,4|4,0:0|0:0,0:0:0:0:
78,203,194909,5,0,0:0:0:0:
78,203,195088,2,0,P|133:211|162:200,1,75,4|2,0:0|0:1,0:0:0:0:
329,167,195802,6,0,L|329:260,1,75,4|0,0:0|0:0,0:0:0:0:
249,266,196159,2,0,L|249:191,1,75,0|4,0:0|0:0,0:0:0:0:
264,109,196516,2,0,P|212:85|120:115,1,150,4|0,0:0|0:0,0:0:0:0:
73,249,197231,5,4,0:0:0:0:
73,249,197409,2,0,L|73:347,2,75,4|0|4,0:0|0:0|0:0,0:0:0:0:
73,249,197945,1,4,0:0:0:0:
165,150,198302,5,4,0:0:0:0:
259,246,198659,6,0,L|339:333,1,112.5,4|0,0:3|0:0,0:0:0:0:
335,328,199016,1,4,0:0:0:0:
412,217,199374,5,4,0:3:0:0:
412,217,199552,2,0,L|457:138,2,75,4|0|4,0:3|0:0|0:0,0:0:0:0:
412,217,200088,1,0,0:0:0:0:
256,192,200266,12,0,202766,2:0:0:0:
129,145,204373,6,0,P|57:152|36:174,1,75,12|2,3:1|0:3,0:0:0:0:
101,223,204730,2,0,P|173:216|194:194,1,75,8|2,3:2|0:3,0:0:0:0:
212,143,205088,1,0,3:3:0:0:
319,268,205445,6,0,P|328:340|310:364,1,75,8|2,3:2|0:3,0:0:0:0:
249,311,205802,2,0,P|241:240|259:215,1,75,12|2,3:1|0:3,0:0:0:0:
305,187,206159,1,8,3:2:0:0:
453,35,206516,6,0,L|357:35,1,75,8|0,3:3|0:0,0:0:0:0:
344,110,206873,2,0,L|419:110,1,75,8|2,3:2|0:3,0:0:0:0:
300,40,207230,6,0,P|219:32|155:76,1,150,12|8,3:1|3:2,0:0:0:0:
107,128,207766,1,2,0:3:0:0:
91,210,207945,2,0,L|91:294,1,75,2|0,3:0|0:0,0:0:0:0:
12,310,208302,2,0,L|12:235,1,75,8|8,3:2|0:3,0:0:0:0:
91,210,208659,5,12,3:1:0:0:
137,279,208838,1,2,0:3:0:0:
87,346,209016,1,12,3:1:0:0:
10,318,209195,1,8,0:3:0:0:
12,235,209373,2,0,P|77:226|140:289,1,150,12|14,3:1|1:2,0:0:0:0:
190,343,209909,1,8,1:2:0:0:
301,251,210088,6,0,P|322:181|308:154,1,75,12|2,3:1|0:3,0:0:0:0:
238,196,210445,2,0,P|217:264|231:292,1,75,8|2,3:2|0:3,0:0:0:0:
271,327,210802,1,0,3:3:0:0:
434,303,211159,6,0,P|506:294|530:312,1,75,8|2,3:2|0:3,0:0:0:0:
477,373,211516,2,0,P|406:381|381:363,1,75,12|2,3:1|0:3,0:0:0:0:
352,318,211873,1,8,3:2:0:0:
311,96,212230,6,0,L|311:172,1,75,8|0,3:3|0:0,0:0:0:0:
385,207,212588,2,0,L|385:132,1,75,8|2,3:2|0:3,0:0:0:0:
318,245,212945,6,0,P|251:266|154:226,1,150,12|8,0:1|3:2,0:0:0:0:
162,163,213480,1,2,0:3:0:0:
107,100,213659,2,0,L|31:100,1,75,0|2,3:0|0:3,0:0:0:0:
10,179,214016,2,0,L|85:179,1,75,8|2,3:2|0:3,0:0:0:0:
162,163,214373,6,0,P|210:143|230:113,2,75,14|2|12,3:2|0:3|3:2,0:0:0:0:
107,100,214909,1,2,0:3:0:0:
155,32,215088,2,0,P|228:9|312:49,1,150,6|8,3:1|1:2,0:0:0:0:
306,114,215623,1,10,1:2:0:0:
423,194,215802,6,0,P|496:195|518:175,1,75,12|2,3:1|0:3,0:0:0:0:
458,120,216159,2,0,P|387:119|364:139,1,75,8|2,3:2|0:3,0:0:0:0:
340,188,216516,1,0,3:3:0:0:
188,253,216874,6,0,P|114:254|92:234,1,75,8|2,3:2|0:3,0:0:0:0:
153,179,217231,2,0,P|223:178|246:198,1,75,12|2,3:1|0:3,0:0:0:0:
271,247,217588,1,8,3:2:0:0:
456,352,217945,6,0,L|367:352,1,75,8|0,3:3|0:0,0:0:0:0:
344,279,218302,2,0,L|419:279,1,75,8|2,3:2|0:3,0:0:0:0:
303,349,218659,6,0,P|253:362|164:326,1,150,12|8,0:1|3:2,0:0:0:0:
123,254,219195,1,2,0:3:0:0:
153,179,219373,2,0,L|237:179,1,75,0|2,3:0|0:3,0:0:0:0:
253,100,219730,2,0,L|178:100,1,75,8|10,3:2|0:3,0:0:0:0:
153,179,220087,5,12,3:1:0:0:
222,225,220266,1,2,0:3:0:0:
289,175,220444,1,12,3:1:0:0:
261,98,220623,1,2,0:3:0:0:
178,100,220801,2,0,P|169:165|232:228,1,150,12|8,3:1|3:3,0:0:0:0:
298,256,221338,1,8,2:3:0:0:
364,142,221516,6,0,P|429:155|489:218,1,150,12|8,3:1|3:2,0:0:0:0:
496,292,222052,1,0,0:0:0:0:
420,326,222230,2,0,P|354:312|294:249,1,150,2|8,3:2|3:2,0:0:0:0:
289,175,222766,1,2,0:3:0:0:
246,103,222945,6,0,L|146:103,1,75,12|0,3:1|0:0,0:0:0:0:
112,185,223302,2,0,L|187:185,1,75,8|2,3:2|0:2,0:0:0:0:
246,267,223659,2,0,L|171:267,1,75,12|2,3:1|0:3,0:0:0:0:
112,349,224016,2,0,L|187:349,1,75,8|8,3:2|0:3,0:0:0:0:
328,281,224374,6,0,L|416:246,2,75,4|8|0,1:3|0:0|1:1,0:0:0:0:
246,267,224909,1,2,0:0:0:0:
163,254,225088,2,0,L|74:288,2,75,4|8|0,1:3|0:0|1:1,0:0:0:0:
215,189,225624,1,2,0:0:0:0:
268,124,225802,2,0,L|356:89,2,75,12|12|8,1:3|1:3|1:0,0:0:0:0:
185,110,226338,1,8,1:3:0:0:
113,69,226516,6,0,L|31:69,1,75,14|10,1:3|0:3,0:0:0:0:
44,151,226874,2,0,L|119:151,1,75,4|2,1:3|0:1,0:0:0:0:
215,189,227231,6,0,L|308:216,1,75,4|0,0:1|0:2,0:0:0:0:
366,233,227588,1,0,0:2:0:0:
448,233,227766,1,0,0:0:0:0:
379,314,227945,6,0,L|286:341,1,75,0|0,0:0|0:0,0:0:0:0:
228,358,228302,1,0,0:0:0:0:
146,358,228480,1,0,0:0:0:0:
186,258,228659,6,0,L|214:188,1,75,0|0,0:0|0:0,0:0:0:0:
250,114,229016,1,0,0:0:0:0:
332,110,229194,1,0,0:0:0:0:
295,184,229374,1,2,0:2:0:0:
295,184,230802,6,0,L|296:247,1,56.25
