osu file format v6

[General]
AudioFilename: Chelo - Cha Cha.mp3
AudioLeadIn: 0
PreviewTime: -1
Countdown: 1
SampleSet: Soft
StackLeniency: 0.7
Mode: 0
LetterboxInBreaks: 1

[Editor]
DistanceSpacing: 0.800000011920929
BeatDivisor: 8
GridSize: 32

[Metadata]
Title:lol
Artist:lol
Creator:Bye
Version:lol
Source:lol
Tags:lol

[Difficulty]
HPDrainRate:0
CircleSize:3
OverallDifficulty:0
SliderMultiplier:1.4
SliderTickRate:1

[Events]
//Background and Video events
//Break Periods
//Storyboard Layer 0 (Background)
//Storyboard Layer 1 (Fail)
//Storyboard Layer 2 (Pass)
//Storyboard Layer 3 (Foreground)
//Storyboard Sound Samples
//Background Colour Transformations
3,100,163,162,255

[TimingPoints]
25.438726485239,101.010101010101,4,2,0,100,1,0

[Colours]
Combo1 : 255,150,0
Combo2 : 5,240,5
Combo3 : 5,5,240
Combo4 : 240,5,5

[HitObjects]
32,64,25,1,0
32,64,126,1,0
32,64,227,1,0
32,64,328,1,0
32,64,429,1,0
32,64,530,1,0
32,64,732,1,0
32,64,833,1,0
32,64,934,1,0
32,64,1035,1,0
32,64,1136,1,0
32,64,1237,1,0
32,64,1338,1,0
32,64,1439,1,0
32,64,1540,1,0
32,64,1641,1,0
32,64,1742,1,0
32,64,1843,1,0
32,64,1944,1,0
32,64,2045,1,0
32,64,2146,1,0
32,64,2247,1,0
32,64,2348,1,0
32,64,2449,1,0
32,64,2550,1,0
32,64,2651,1,0
32,64,2752,1,0
32,64,2853,1,0
32,64,2954,1,0
32,64,3055,1,0
32,64,3156,1,0
32,64,3257,1,0
32,64,3358,1,0
32,64,3459,1,0
32,64,3560,1,0
32,64,3661,1,0
32,64,3762,1,0
32,64,3863,1,0
32,64,3964,1,0
32,64,4065,1,0
32,64,4166,1,0
32,64,4267,1,0
32,64,4368,1,0
32,64,4469,1,0
32,64,4570,1,0
32,64,4671,1,0
32,64,4772,1,0
32,64,4873,1,0
32,64,4974,1,0
32,64,5075,1,0
32,64,5176,1,0
32,64,5277,1,0
32,64,5378,1,0
32,64,5479,1,0
32,64,5580,1,0
32,64,5682,1,0
32,64,5783,1,0
32,64,5884,1,0
32,64,5985,1,0
32,64,6086,1,0
32,64,6187,1,0
32,64,6288,1,0
32,64,6389,1,0
32,64,6490,1,0
32,64,6591,1,0
32,64,6692,1,0
32,64,6793,1,0
32,64,6894,1,0
32,64,6995,1,0
32,64,7096,1,0
32,64,7197,1,0
32,64,7298,1,0
32,64,7399,1,0
32,64,7500,1,0
32,64,7601,1,0
32,64,7702,1,0
32,64,7803,1,0
32,64,7904,1,0
32,64,8005,1,0
32,64,8106,1,0
32,64,8207,1,0
32,64,8308,1,0
32,64,8409,1,0
32,64,8510,1,0
32,64,8611,1,0
32,64,8712,1,0
32,64,8813,1,0
32,64,8914,1,0
32,64,9015,1,0
32,64,9116,1,0
32,64,9217,1,0
32,64,9318,1,0
32,64,9419,1,0
32,64,9520,1,0
32,64,9621,1,0
32,64,9722,1,0
32,64,9823,1,0
32,64,9924,1,0
32,64,10025,1,0
32,64,10126,1,0
32,64,10227,1,0
32,64,10328,1,0
32,64,10429,1,0
32,64,10530,1,0
32,64,10631,1,0
32,64,10732,1,0
32,64,10833,1,0
32,64,10934,1,0
32,64,11035,1,0
32,64,11136,1,0
32,64,11237,1,0
32,64,11338,1,0
32,64,11439,1,0
32,64,11540,1,0
32,64,11641,1,0
32,64,11742,1,0
32,64,11843,1,0
32,64,11944,1,0
32,64,12045,1,0
32,64,12146,1,0
32,64,12247,1,0
32,64,12348,1,0
32,64,12449,1,0
32,64,12550,1,0
32,64,12651,1,0
32,64,12752,1,0
32,64,12853,1,0
32,64,12954,1,0
32,64,13055,1,0
32,64,13156,1,0
32,64,13257,1,0
32,64,13358,1,0
32,64,13459,1,0
32,64,13560,1,0
32,64,13661,1,0
32,64,13762,1,0
32,64,13863,1,0
32,64,13964,1,0
32,64,14065,1,0
32,64,14166,1,0
32,64,14267,1,0
32,64,14368,1,0
32,64,14469,1,0
32,64,14570,1,0
32,64,14671,1,0
32,64,14772,1,0
32,64,14873,1,0
32,64,14974,1,0
32,64,15075,1,0
32,64,15176,1,0
32,64,15277,1,0
32,64,15290,1,0
32,64,15303,1,0
32,64,15315,1,0
32,64,15328,1,0
32,64,15341,1,0
32,64,15353,1,0
32,64,15366,1,0
32,64,15378,1,0
32,64,15391,1,0
32,64,15404,1,0
32,64,15416,1,0
32,64,15429,1,0
32,64,15442,1,0
32,64,15454,1,0
32,64,15467,1,0
32,64,15479,1,0
32,64,15492,1,0
32,64,15505,1,0
32,64,15517,1,0
32,64,15530,1,0
32,64,15543,1,0
32,64,15555,1,0
32,64,15568,1,0
32,64,15580,1,0
32,64,15593,1,0
32,64,15606,1,0
32,64,15618,1,0
32,64,15631,1,0
32,64,15644,1,0
32,64,15656,1,0
32,64,15669,1,0
32,64,15682,1,0
32,64,15694,1,0
32,64,15707,1,0
32,64,15719,1,0
32,64,15732,1,0
32,64,15745,1,0
32,64,15757,1,0
32,64,15770,1,0
32,64,15783,1,0
32,64,15795,1,0
32,64,15808,1,0
32,64,15820,1,0
32,64,15833,1,0
32,64,15846,1,0
32,64,15858,1,0
32,64,15871,1,0
32,64,15884,1,0
32,64,15896,1,0
32,64,15909,1,0
32,64,15921,1,0
32,64,15934,1,0
32,64,15947,1,0
32,64,15959,1,0
32,64,15985,1,0
32,64,16022,1,0
32,64,16035,1,0
32,64,16048,1,0
32,64,16060,1,0
32,64,16073,1,0
32,64,16086,1,0
32,64,16098,1,0
32,64,16111,1,0
32,64,16123,1,0
32,64,16136,1,0
32,64,16149,1,0
32,64,16174,1,0
32,64,16199,1,0
32,64,16212,1,0
32,64,16224,1,0
32,64,16237,1,0
32,64,16250,1,0
32,64,16262,1,0
32,64,16275,1,0
32,64,16288,1,0
32,64,16300,1,0
32,64,16313,1,0
160,64,16325,1,0
160,64,16338,1,0
160,64,16351,1,0
160,64,16363,1,0
160,64,16376,1,0
160,64,16389,1,0
160,64,16401,1,0
160,64,16414,1,0
160,64,16426,1,0
160,64,16439,1,0
160,64,16452,1,0
160,64,16477,1,0
160,64,16502,1,0
160,64,16515,1,0
160,64,16527,1,0
160,64,16540,1,0
160,64,16553,1,0
160,64,16565,1,0
160,64,16578,1,0
160,64,16591,1,0
160,64,16603,1,0
160,64,16616,1,0
160,64,16641,1,0
160,64,16679,1,0
160,64,16692,1,0
160,64,16704,1,0
160,64,16717,1,0
160,64,16729,1,0
160,64,16742,1,0
160,64,16780,1,0
160,64,16793,1,0
160,64,16818,1,0
160,64,16830,1,0
160,64,16843,1,0
160,64,16856,1,0
160,64,16868,1,0
160,64,16881,1,0
160,64,16906,1,0
64,192,16919,1,0
64,192,16944,1,0
64,192,16957,1,0
64,192,16969,1,0
64,192,16982,1,0
64,192,16995,1,0
64,192,17007,1,0
64,192,17033,1,0
64,192,17045,1,0
64,192,17058,1,0
64,192,17070,1,0
64,192,17083,1,0
64,192,17096,1,0
64,192,17108,1,0
64,192,17121,1,0
64,192,17134,1,0
64,192,17146,1,0
64,192,17159,1,0
64,192,17171,1,0
64,192,17184,1,0
64,192,17197,1,0
64,192,17209,1,0
64,192,17222,1,0
64,192,17235,1,0
64,192,17247,1,0
64,192,17260,1,0
64,192,17272,1,0
64,192,17285,1,0
64,192,17298,1,0
64,192,17310,1,0
64,192,17323,1,0
64,192,17336,1,0
64,192,17348,1,0
64,192,17361,1,0
64,192,17373,1,0
64,192,17386,1,0
64,192,17399,1,0
64,192,17411,1,0
64,192,17424,1,0
64,192,17437,1,0
64,192,17449,1,0
64,192,17462,1,0
64,192,17474,1,0
64,192,17487,1,0
64,192,17500,1,0
64,192,17512,1,0
64,192,17525,1,0
64,192,17538,1,0
64,192,17550,1,0
64,192,17563,1,0
64,192,17575,1,0
64,192,17588,1,0
64,192,17601,1,0
64,192,17613,1,0
64,192,17639,1,0
64,192,17651,1,0
64,192,17664,1,0
64,192,17676,1,0
64,192,17689,1,0
64,192,17702,1,0
64,192,17714,1,0
64,192,17727,1,0
64,192,17740,1,0
64,192,17752,1,0
224,160,17765,1,0
224,160,17777,1,0
224,160,17790,1,0
224,160,17803,1,0
224,160,17815,1,0
224,160,17828,1,0
224,160,17841,1,0
224,160,17853,1,0
224,160,17866,1,0
224,160,17878,1,0
224,160,17891,1,0
224,160,17904,1,0
224,160,17954,1,0
224,160,17967,1,0
224,160,17979,1,0
224,160,17992,1,0
224,160,18005,1,0
224,160,18017,1,0
224,160,18030,1,0
224,160,18043,1,0
224,160,18068,1,0
224,160,18080,1,0
224,160,18093,1,0
224,160,18106,1,0
224,160,18118,1,0
224,160,18131,1,0
224,160,18144,1,0
224,160,18156,1,0
224,160,18169,1,0
224,160,18182,1,0
224,160,18194,1,0
224,160,18207,1,0
224,160,18219,1,0
224,160,18232,1,0
224,160,18245,1,0
224,160,18257,1,0
224,160,18270,1,0
224,160,18283,1,0
256,64,18295,1,0
256,64,18308,1,0
256,64,18320,1,0
256,64,18346,1,0
256,64,18358,1,0
256,64,18371,1,0
256,64,18384,1,0
256,64,18396,1,0
256,64,18409,1,0
256,64,18421,1,0
256,64,18434,1,0
256,64,18447,1,0
256,64,18472,1,0
256,64,18485,1,0
256,64,18497,1,0
256,64,18510,1,0
256,64,18535,1,0
256,64,18548,1,0
256,64,18573,1,0
256,64,18586,1,0
256,64,18598,1,0
256,64,18611,1,0
256,64,18623,1,0
256,64,18636,1,0
256,64,18649,1,0
256,64,18661,1,0
256,64,18674,1,0
256,64,18687,1,0
256,64,18699,1,0
256,64,18712,1,0
256,64,18724,1,0
256,64,18737,1,0
256,64,18750,1,0
256,64,18762,1,0
256,64,18775,1,0
256,64,18788,1,0
256,64,18800,1,0
256,64,18813,1,0
256,64,18825,1,0
256,64,18838,1,0
256,64,18851,1,0
256,64,18863,1,0
256,64,18876,1,0
256,64,18889,1,0
256,64,18901,1,0
256,64,18914,1,0
256,64,18926,1,0
256,64,18939,1,0
256,64,18952,1,0
256,64,18964,1,0
256,64,18977,1,0
256,64,18990,1,0
256,64,19002,1,0
256,64,19015,1,0
256,64,19027,1,0
256,64,19040,1,0
256,64,19053,1,0
256,64,19065,1,0
256,64,19078,1,0
256,64,19091,1,0
256,64,19103,1,0
256,64,19116,1,0
256,64,19128,1,0
256,64,19141,1,0
256,64,19154,1,0
256,64,19166,1,0
256,64,19179,1,0
256,64,19192,1,0
256,64,19204,1,0
256,64,19229,1,0
256,64,19242,1,0
256,64,19255,1,0
256,64,19267,1,0
256,64,19280,1,0
256,64,19293,1,0
256,64,19305,1,0
256,64,19318,1,0
256,64,19330,1,0
256,64,19343,1,0
256,64,19356,1,0
256,64,19368,1,0
256,64,19381,1,0
256,64,19394,1,0
256,64,19406,1,0
256,64,19419,1,0
256,64,19432,1,0
256,64,19444,1,0
96,96,19457,1,0
96,96,19469,1,0
96,96,19482,1,0
96,96,19495,1,0
96,96,19507,1,0
96,96,19520,1,0
96,96,19533,1,0
96,96,19545,1,0
96,96,19558,1,0
96,96,19570,1,0
96,96,19583,1,0
96,96,19596,1,0
96,96,19608,1,0
96,96,19621,1,0
96,96,19634,1,0
96,96,19646,1,0
96,96,19659,1,0
96,96,19671,1,0
96,96,19684,1,0
96,96,19697,1,0
96,96,19709,1,0
96,96,19735,1,0
96,96,19747,1,0
96,96,19760,1,0
96,96,19772,1,0
96,96,19785,1,0
96,96,19798,1,0
96,96,19810,1,0
96,96,19823,1,0
96,96,19836,1,0
96,96,19848,1,0
96,96,19861,1,0
96,96,19873,1,0
96,96,19886,1,0
96,96,19899,1,0
96,96,19911,1,0
96,96,19924,1,0
96,96,19937,1,0
96,96,19949,1,0
96,96,19962,1,0
96,96,19974,1,0
96,96,19987,1,0
96,96,20000,1,0
96,96,20012,1,0
96,96,20025,1,0
96,96,20038,1,0
96,96,20050,1,0
96,96,20063,1,0
96,96,20075,1,0
96,96,20088,1,0
96,96,20101,1,0
96,96,20113,1,0
96,96,20126,1,0
96,96,20139,1,0
96,96,20151,1,0
96,96,20164,1,0
96,96,20176,1,0
96,96,20189,1,0
96,96,20202,1,0
96,96,20214,1,0
96,96,20227,1,0
96,96,20252,1,0
96,96,20265,1,0
96,96,20277,1,0
96,96,20290,1,0
96,96,20315,1,0
96,96,20328,1,0
96,96,20341,1,0
96,96,20353,1,0
96,96,20366,1,0
96,96,20378,1,0
96,96,20391,1,0
96,96,20404,1,0
96,96,20416,1,0
96,96,20429,1,0
160,192,20442,1,0
160,192,20454,1,0
160,192,20467,1,0
160,192,20479,1,0
160,192,20492,1,0
160,192,20505,1,0
160,192,20517,1,0
160,192,20530,1,0
160,192,20543,1,0
160,192,20568,1,0
160,192,20580,1,0
160,192,20593,1,0
160,192,20606,1,0
160,192,20618,1,0
160,192,20631,1,0
160,192,20656,1,0
160,192,20669,1,0
160,192,20682,1,0
160,192,20707,1,0
160,192,20719,1,0
160,192,20745,1,0
160,192,20757,1,0
160,192,20770,1,0
160,192,20783,1,0
160,192,20795,1,0
160,192,20808,1,0
160,192,20820,1,0
160,192,20833,1,0
160,192,20846,1,0
160,192,20858,1,0
160,192,20871,1,0
160,192,20896,1,0
160,192,20909,1,0
160,192,20921,1,0
160,192,20934,1,0
160,192,20947,1,0
160,192,20959,1,0
160,192,20972,1,0
160,192,20985,1,0
160,192,20997,1,0
160,192,21010,1,0
160,192,21022,1,0
160,192,21035,1,0
160,192,21048,1,0
160,192,21060,1,0
160,192,21073,1,0
160,192,21086,1,0
160,192,21098,1,0
160,192,21111,1,0
160,192,21123,1,0
160,192,21136,1,0
160,192,21149,1,0
160,192,21161,1,0
160,192,21174,1,0
160,192,21187,1,0
160,192,21224,1,0
160,192,21237,1,0
160,192,21250,1,0
160,192,21262,1,0
160,192,21275,1,0
160,192,21288,1,0
160,192,21300,1,0
160,192,21313,1,0
160,192,21325,1,0
160,192,21338,1,0
160,192,21351,1,0
160,192,21363,1,0
160,192,21376,1,0
160,192,21401,1,0
160,192,21414,1,0
160,192,21426,1,0
160,192,21439,1,0
160,192,21452,1,0
160,192,21477,1,0
160,192,21490,1,0
160,192,21515,1,0
160,192,21527,1,0
160,192,21540,1,0
160,192,21565,1,0
160,192,21578,1,0
160,192,21591,1,0
160,192,21603,1,0
256,96,21616,1,0
256,96,21628,1,0
256,96,21641,1,0
256,96,21654,1,0
256,96,21666,1,0
256,96,21679,1,0
256,96,21692,1,0
256,96,21704,1,0
256,96,21717,1,0
256,96,21729,1,0
256,96,21742,1,0
256,96,21767,1,0
256,96,21780,1,0
256,96,21793,1,0
256,96,21805,1,0
256,96,21830,1,0
256,96,21843,1,0
256,96,21856,1,0
256,96,21868,1,0
256,96,21881,1,0
256,96,21894,1,0
256,96,21906,1,0
256,96,21919,1,0
256,96,21932,1,0
256,96,21944,1,0
256,96,21957,1,0
256,96,21969,1,0
256,96,21982,1,0
256,96,21995,1,0
256,96,22007,1,0
256,96,22020,1,0
256,96,22033,1,0
256,96,22045,1,0
256,96,22058,1,0
256,96,22070,1,0
256,96,22083,1,0
256,96,22096,1,0
256,96,22108,1,0
256,96,22121,1,0
256,96,22134,1,0
256,96,22146,1,0
256,96,22159,1,0
256,96,22171,1,0
256,96,22184,1,0
256,96,22197,1,0
256,96,22209,1,0
256,96,22222,1,0
256,96,22235,1,0
256,96,22247,1,0
256,96,22260,1,0
256,96,22272,1,0
256,96,22285,1,0
256,96,22310,1,0
256,96,22323,1,0
256,96,22336,1,0
256,96,22348,1,0
256,96,22361,1,0
256,96,22373,1,0
256,96,22386,1,0
256,96,22399,1,0
256,96,22411,1,0
256,96,22424,1,0
256,96,22437,1,0
256,96,22449,1,0
256,96,22462,1,0
256,96,22474,1,0
256,96,22487,1,0
256,96,22500,1,0
256,96,22512,1,0
256,96,22538,1,0
256,96,22550,1,0
256,96,22563,1,0
256,96,22575,1,0
256,96,22588,1,0
256,96,22601,1,0
256,96,22613,1,0
256,96,22626,1,0
256,96,22639,1,0
256,96,22651,1,0
256,96,22676,1,0
256,96,22689,1,0
256,96,22702,1,0
256,96,22714,1,0
256,96,22727,1,0
96,96,22740,1,0
96,96,22752,1,0
96,96,22777,1,0
96,96,22815,1,0
96,96,22828,1,0
96,96,22841,1,0
96,96,22853,1,0
96,96,22866,1,0
96,96,22878,1,0
96,96,22891,1,0
96,96,22904,1,0
96,96,22916,1,0
96,96,22929,1,0
96,96,22942,1,0
96,96,22954,1,0
96,96,22979,1,0
96,96,22992,1,0
96,96,23005,1,0
96,96,23017,1,0
96,96,23030,1,0
96,96,23043,1,0
96,96,23055,1,0
96,96,23068,1,0
96,96,23080,1,0
96,96,23093,1,0
96,96,23106,1,0
96,96,23118,1,0
96,96,23131,1,0
96,96,23144,1,0
96,96,23156,1,0
96,96,23169,1,0
96,96,23182,1,0
96,96,23207,1,0
96,96,23219,1,0
96,96,23232,1,0
96,96,23245,1,0
96,96,23257,1,0
96,96,23270,1,0
96,96,23283,1,0
96,96,23295,1,0
96,96,23308,1,0
96,96,23320,1,0
96,96,23333,1,0
96,96,23346,1,0
96,96,23358,1,0
96,96,23371,1,0
96,96,23384,1,0
96,96,23396,1,0
96,96,23409,1,0
96,96,23421,1,0
96,96,23434,1,0
96,96,23447,1,0
96,96,23459,1,0
96,96,23472,1,0
96,96,23485,1,0
96,96,23497,1,0
96,96,23510,1,0
96,96,23522,1,0
160,224,23535,1,0
160,224,23548,1,0
160,224,23560,1,0
160,224,23573,1,0
160,224,23586,1,0
160,224,23598,1,0
160,224,23611,1,0
160,224,23623,1,0
160,224,23636,1,0
160,224,23661,1,0
160,224,23674,1,0
160,224,23687,1,0
160,224,23724,1,0
160,224,23737,1,0
160,224,23750,1,0
160,224,23788,1,0
160,224,23813,1,0
160,224,23825,1,0
160,224,23838,1,0
160,224,23851,1,0
160,224,23863,1,0
160,224,23876,1,0
160,224,23889,1,0
160,224,23901,1,0
160,224,23914,1,0
160,224,23939,1,0
160,224,23964,1,0
160,224,23977,1,0
160,224,23990,1,0
160,224,24002,1,0
160,224,24015,1,0
160,224,24027,1,0
160,224,24040,1,0
160,224,24053,1,0
160,224,24065,1,0
160,224,24091,1,0
160,224,24103,1,0
160,224,24116,1,0
160,224,24128,1,0
160,224,24141,1,0
160,224,24154,1,0
160,224,24179,1,0
160,224,24192,1,0
160,224,24204,1,0
160,224,24217,1,0
160,224,24229,1,0
160,224,24242,1,0
160,224,24255,1,0
160,224,24267,1,0
160,224,24280,1,0
160,224,24293,1,0
160,224,24305,1,0
288,160,24318,1,0
288,160,24330,1,0
288,160,24343,1,0
288,160,24356,1,0
288,160,24368,1,0
288,160,24381,1,0
288,160,24394,1,0
288,160,24406,1,0
288,160,24419,1,0
288,160,24432,1,0
288,160,24444,1,0
288,160,24457,1,0
288,160,24469,1,0
288,160,24482,1,0
288,160,24507,1,0
288,160,24520,1,0
288,160,24533,1,0
288,160,24545,1,0
288,160,24558,1,0
288,160,24570,1,0
288,160,24583,1,0
288,160,24596,1,0
288,160,24608,1,0
288,160,24621,1,0
288,160,24634,1,0
288,160,24646,1,0
288,160,24659,1,0
288,160,24684,1,0
288,160,24697,1,0
288,160,24722,1,0
288,160,24735,1,0
288,160,24747,1,0
288,160,24760,1,0
288,160,24772,1,0
288,160,24785,1,0
288,160,24798,1,0
288,160,24810,1,0
288,160,24823,1,0
288,160,24836,1,0
288,160,24848,1,0
288,160,24861,1,0
288,160,24873,1,0
288,160,24886,1,0
288,160,24899,1,0
288,160,24924,1,0
288,160,24937,1,0
288,160,24949,1,0
288,160,24962,1,0
288,160,24974,1,0
288,160,25000,1,0
288,160,25012,1,0
288,160,25025,1,0
288,160,25038,1,0
288,160,25050,1,0
288,160,25075,1,0
288,160,25088,1,0
288,160,25101,1,0
288,160,25126,1,0
288,160,25139,1,0
288,160,25151,1,0
288,160,25164,1,0
288,160,25176,1,0
288,160,25189,1,0
128,96,25202,1,0
128,96,25214,1,0
128,96,25227,1,0
128,96,25240,1,0
128,96,25252,1,0
128,96,25277,1,0
128,96,25290,1,0
128,96,25303,1,0
128,96,25315,1,0
128,96,25328,1,0
128,96,25341,1,0
128,96,25353,1,0
128,96,25366,1,0
128,96,25378,1,0
128,96,25391,1,0
128,96,25416,1,0
128,96,25429,1,0
128,96,25454,1,0
128,96,25492,1,0
128,96,25505,1,0
128,96,25517,1,0
128,96,25530,1,0
128,96,25543,1,0
128,96,25555,1,0
128,96,25593,1,0
128,96,25606,1,0
128,96,25618,1,0
128,96,25631,1,0
128,96,25644,1,0
128,96,25656,1,0
128,96,25669,1,0
128,96,25682,1,0
128,96,25694,1,0
128,96,25719,1,0
128,96,25732,1,0
128,96,25745,1,0
128,96,25770,1,0
128,96,25795,1,0
128,96,25808,1,0
128,96,25833,1,0
256,64,25846,1,0
256,64,25858,1,0
256,64,25871,1,0
256,64,25884,1,0
256,64,25896,1,0
256,64,25909,1,0
256,64,25921,1,0
256,64,25947,1,0
256,64,25959,1,0
256,64,25972,1,0
256,64,25985,1,0
256,64,26010,1,0
256,64,26022,1,0
256,64,26035,1,0
256,64,26048,1,0
256,64,26060,1,0
256,64,26073,1,0
256,64,26098,1,0
256,64,26111,1,0
256,64,26123,1,0
256,64,26136,1,0
256,64,26149,1,0
256,64,26161,1,0
256,64,26174,1,0
256,64,26187,1,0
352,64,26199,1,0
352,64,26212,1,0
352,64,26224,1,0
352,64,26237,1,0
352,64,26275,1,0
352,64,26288,1,0
352,64,26300,1,0
352,64,26313,1,0
352,64,26338,1,0
352,64,26351,1,0
352,64,26363,1,0
352,64,26376,1,0
352,64,26389,1,0
352,64,26401,1,0
352,64,26426,1,0
352,64,26439,1,0
352,64,26452,1,0
352,64,26477,1,0
352,64,26490,1,0
352,64,26502,1,0
352,64,26527,1,0
352,64,26540,1,0
352,64,26553,1,0
160,192,26565,1,0
160,192,26578,1,0
160,192,26603,1,0
160,192,26616,1,0
160,192,26628,1,0
160,192,26641,1,0
160,192,26654,1,0
160,192,26666,1,0
160,192,26679,1,0
160,192,26692,1,0
160,192,26704,1,0
160,192,26717,1,0
160,192,26729,1,0
160,192,26742,1,0
160,192,26755,1,0
160,192,26767,1,0
160,192,26780,1,0
160,192,26793,1,0
160,192,26805,1,0
160,192,26818,1,0
160,192,26830,1,0
160,192,26843,1,0
160,192,26856,1,0
160,192,26868,1,0
288,160,26881,1,0
288,160,26894,1,0
288,160,26906,1,0
288,160,26919,1,0
288,160,26932,1,0
288,160,26944,1,0
288,160,26957,1,0
288,160,26969,1,0
288,160,26982,1,0
288,160,26995,1,0
288,160,27007,1,0
288,160,27020,1,0
288,160,27033,1,0
288,160,27058,1,0
288,160,27083,1,0
288,160,27108,1,0
288,160,27134,1,0
288,160,27146,1,0
416,192,27171,1,0
288,256,27184,1,0
64,288,27525,1,0
64,288,27538,1,0
64,288,27550,1,0
64,288,27563,1,0
64,288,27575,1,0
64,288,27588,1,0
64,288,27601,1,0
64,288,27613,1,0
64,288,27626,1,0
64,288,27639,1,0
64,288,27651,1,0
64,288,27664,1,0
64,288,27676,1,0
64,288,27689,1,0
64,288,27702,1,0
64,288,27714,1,0
64,288,27727,1,0
64,288,27740,1,0
64,288,27752,1,0
64,288,27765,1,0
64,288,27777,1,0
64,288,27790,1,0
64,288,27803,1,0
64,288,27815,1,0
64,288,27828,1,0
64,288,27841,1,0
64,288,27853,1,0
64,288,27866,1,0
64,288,27878,1,0
64,288,27891,1,0
64,288,27904,1,0
64,288,27916,1,0
64,288,27929,1,0
64,288,27942,1,0
64,288,27954,1,0
64,288,27967,1,0
64,288,27992,1,0
64,288,28005,1,0
64,288,28017,1,0
64,288,28030,1,0
64,288,28043,1,0
64,288,28055,1,0
64,288,28068,1,0
64,288,28080,1,0
64,288,28093,1,0
64,288,28106,1,0
64,288,28118,1,0
32,320,28131,1,0
160,288,28182,1,0
160,288,28194,1,0
160,288,28207,1,0
160,288,28219,1,0
160,288,28232,1,0
160,288,28245,1,0
160,288,28270,1,0
160,288,28283,1,0
160,288,28295,1,0
160,288,28308,1,0
160,288,28320,1,0
160,288,28333,1,0
160,288,28346,1,0
160,288,28358,1,0
160,288,28371,1,0
160,288,28396,1,0
160,288,28421,1,0
160,288,28434,1,0
160,288,28472,1,0
160,288,28497,1,0
160,288,28535,1,0
160,288,28548,1,0
160,288,28560,1,0
160,288,28586,1,0
160,288,28623,1,0
160,288,28636,1,0
160,288,28649,1,0
160,288,28661,1,0
160,288,28687,1,0
160,288,28699,1,0
128,320,28712,1,0
160,288,28724,1,0
160,288,28737,1,0
160,288,28750,1,0
160,288,28762,1,0
160,288,28775,1,0
128,320,28788,1,0
224,160,28813,1,0
224,160,28825,1,0
224,160,28838,1,0
224,160,28863,1,0
224,160,28876,1,0
224,160,28889,1,0
224,160,28901,1,0
224,160,28914,1,0
224,160,28939,1,0
224,160,28952,1,0
224,160,28964,1,0
224,160,28977,1,0
224,160,28990,1,0
224,160,29002,1,0
224,160,29015,1,0
224,160,29027,1,0
224,160,29040,1,0
224,160,29053,1,0
224,160,29065,1,0
224,160,29078,1,0
224,160,29091,1,0
224,160,29103,1,0
224,160,29128,1,0
224,160,29154,1,0
224,160,29192,1,0
224,160,29204,1,0
224,160,29229,1,0
224,160,29242,1,0
224,160,29255,1,0
224,160,29267,1,0
224,160,29280,1,0
224,160,29293,1,0
224,160,29305,1,0
224,160,29330,1,0
224,160,29343,1,0
224,160,29356,1,0
224,160,29368,1,0
224,160,29381,1,0
224,160,29394,1,0
224,160,29406,1,0
224,160,29419,1,0
224,160,29432,1,0
224,160,29457,1,0
224,160,29482,1,0
224,160,29495,1,0
224,160,29507,1,0
224,160,29520,1,0
224,160,29533,1,0
224,160,29545,1,0
160,160,29570,1,0
160,160,29583,1,0
160,160,29596,1,0
160,160,29608,1,0
160,160,29621,1,0
160,160,29646,1,0
160,160,29659,1,0
160,160,29671,1,0
160,160,29684,1,0
160,160,29697,1,0
160,160,29709,1,0
160,160,29722,1,0
160,160,29735,1,0
160,160,29747,1,0
160,160,29760,1,0
160,160,29772,1,0
160,160,29785,1,0
160,160,29798,1,0
160,160,29810,1,0
160,160,29823,1,0
160,160,29836,1,0
160,160,29848,1,0
128,192,29861,1,0
224,288,29873,1,0
224,288,29886,1,0
224,288,29899,1,0
224,288,29911,1,0
224,288,29924,1,0
224,288,29937,1,0
224,288,29949,1,0
224,288,29962,1,0
224,288,29974,1,0
224,288,29987,1,0
224,288,30000,1,0
224,288,30012,1,0
224,288,30025,1,0
224,288,30038,1,0
224,288,30050,1,0
224,288,30063,1,0
224,288,30075,1,0
224,288,30101,1,0
256,256,30139,1,0
224,288,30151,1,0
224,288,30176,1,0
224,288,30189,1,0
224,288,30214,1,0
224,288,30227,1,0
224,288,30240,1,0
224,288,30252,1,0
224,288,30277,1,0
224,288,30290,1,0
224,288,30303,1,0
224,288,30315,1,0
224,288,30328,1,0
224,288,30341,1,0
224,288,30353,1,0
224,288,30366,1,0
224,288,30378,1,0
224,288,30391,1,0
224,288,30404,1,0
224,288,30416,1,0
224,288,30429,1,0
224,288,30442,1,0
224,288,30454,1,0
224,288,30467,1,0
352,128,30479,1,0
352,128,30492,1,0
352,128,30505,1,0
352,128,30517,1,0
352,128,30530,1,0
352,128,30543,1,0
352,128,30555,1,0
224,352,30568,1,0
352,128,30580,1,0
352,128,30593,1,0
352,128,30606,1,0
352,128,30618,1,0
352,128,30631,1,0
352,128,30644,1,0
256,96,30656,1,0
256,96,30669,1,0
256,96,30682,1,0
256,96,30694,1,0
256,96,30745,1,0
256,96,30770,1,0
256,96,30783,1,0
256,96,30808,1,0
256,96,30820,1,0
256,96,30858,1,0
256,96,30871,1,0
256,96,30884,1,0
256,96,30909,1,0
256,96,30921,1,0
256,96,30934,1,0
256,96,30947,1,0
256,96,30959,1,0
256,96,30972,1,0
256,96,30985,1,0
288,128,31035,1,0
288,128,31048,1,0
288,128,31060,1,0
288,128,31073,1,0
288,128,31086,1,0
288,128,31098,1,0
288,128,31111,1,0
288,128,31123,1,0
288,128,31136,1,0
288,128,31149,1,0
288,128,31161,1,0
288,192,31174,1,0
288,192,31187,1,0
320,224,31199,1,0
320,224,31212,1,0
320,224,31224,1,0
320,224,31237,1,0
320,224,31288,1,0
320,224,31300,1,0
320,224,31313,1,0
320,224,31325,1,0
320,224,31338,1,0
320,224,31351,1,0
352,256,31363,1,0
352,256,31376,1,0
352,256,31389,1,0
320,224,31401,1,0
352,256,31414,1,0
352,256,31426,1,0
352,256,31439,1,0
128,192,31452,1,0
128,192,31464,1,0
128,192,31477,1,0
128,192,31490,1,0
128,192,31502,1,0
128,192,31515,1,0
128,192,31527,1,0
128,192,31540,1,0
128,192,31553,1,0
128,192,31565,1,0
128,192,31578,1,0
128,192,31591,1,0
128,192,31603,1,0
96,256,31616,1,0
96,256,31641,1,0
96,256,31654,1,0
64,288,31666,1,0
64,288,31679,1,0
64,288,31692,1,0
64,288,31704,1,0
64,288,31729,1,0
64,288,31755,1,0
64,96,31780,1,0
64,96,31793,1,0
64,96,31805,1,0
32,224,31830,1,0
32,224,31843,1,0
32,224,31856,1,0
32,224,31868,1,0
32,224,31881,1,0
32,224,31919,1,0
32,224,31944,1,0
32,224,31957,1,0
32,224,31969,1,0
32,224,31982,1,0
32,224,31995,1,0
32,224,32007,1,0
32,224,32033,1,0
32,224,32045,1,0
32,224,32058,1,0
32,224,32083,1,0
32,224,32108,1,0
32,224,32121,1,0
32,224,32134,1,0
32,224,32146,1,0
32,224,32159,1,0
32,224,32171,1,0
32,224,32184,1,0
32,224,32197,1,0
32,224,32209,1,0
32,224,32222,1,0
32,224,32235,1,0
32,224,32247,1,0
32,224,32260,1,0
32,224,32272,1,0
32,224,32285,1,0
32,224,32298,1,0
32,224,32310,1,0
32,224,32323,1,0
32,224,32336,1,0
32,224,32348,1,0
32,224,32361,1,0
32,224,32373,1,0
32,224,32399,1,0
32,224,32411,1,0
32,224,32424,1,0
32,224,32437,1,0
32,224,32449,1,0
32,224,32462,1,0
32,224,32474,1,0
32,224,32487,1,0
32,224,32500,1,0
64,288,32525,1,0
64,288,32538,1,0
64,288,32550,1,0
64,288,32563,1,0
64,288,32575,1,0
64,288,32588,1,0
64,288,32601,1,0
64,288,32613,1,0
64,288,32626,1,0
64,288,32639,1,0
64,288,32651,1,0
96,256,32676,1,0
96,256,32689,1,0
160,288,32702,1,0
160,288,32714,1,0
160,288,32727,1,0
224,160,32916,1,0
224,160,32929,1,0
224,160,32942,1,0
224,160,32954,1,0
224,160,32967,1,0
224,160,32979,1,0
224,160,32992,1,0
224,160,33005,1,0
224,160,33017,1,0
224,160,33030,1,0
224,160,33043,1,0
224,160,33055,1,0
160,160,33068,1,0
160,160,33080,1,0
160,160,33093,1,0
160,160,33106,1,0
160,160,33131,1,0
160,160,33144,1,0
160,160,33156,1,0
160,160,33169,1,0
128,192,33182,1,0
128,192,33207,1,0
160,160,33219,1,0
160,224,33232,1,0
160,224,33257,1,0
160,224,33270,1,0
160,224,33308,1,0
160,224,33320,1,0
160,224,33333,1,0
160,224,33346,1,0
160,224,33358,1,0
160,224,33371,1,0
160,224,33396,1,0
352,128,33409,1,0
352,128,33421,1,0
352,128,33434,1,0
288,160,33447,1,0
288,160,33459,1,0
288,160,33472,1,0
288,160,33485,1,0
256,128,33497,1,0
256,128,33510,1,0
256,128,33522,1,0
256,128,33535,1,0
256,128,33548,1,0
416,128,33560,1,0
416,128,33586,1,0
416,128,33611,1,0
416,128,33623,1,0
416,128,33636,1,0
64,288,33661,1,0
64,288,33674,1,0
64,288,33699,1,0
64,288,33712,1,0
64,288,33724,1,0
64,288,33737,1,0
64,288,33750,1,0
64,288,33762,1,0
96,256,33775,1,0
160,160,33800,1,0
160,160,33825,1,0
160,160,33838,1,0
160,160,33851,1,0
160,160,33863,1,0
160,160,33889,1,0
160,160,33914,1,0
160,160,33939,1,0
160,160,33964,1,0
160,160,33977,1,0
160,160,34002,1,0
160,160,34015,1,0
160,160,34027,1,0
160,160,34040,1,0
160,160,34065,1,0
160,160,34078,1,0
160,160,34091,1,0
160,160,34116,1,0
160,160,34128,1,0
160,160,34141,1,0
160,160,34179,1,0
160,160,34204,1,0
160,160,34267,1,0
160,160,34293,1,0
160,160,34305,1,0
160,160,34318,1,0
160,160,34330,1,0
160,160,34356,1,0
160,160,34368,1,0
160,160,34381,1,0
160,160,34394,1,0
160,160,34419,1,0
160,160,34432,1,0
160,160,34457,1,0
160,160,34469,1,0
64,224,34482,1,0
64,224,34507,1,0
64,224,34545,1,0
64,224,34583,1,0
64,224,34596,1,0
64,224,34621,1,0
64,224,34634,1,0
64,224,34646,1,0
64,224,34671,1,0
64,224,34722,1,0
64,224,34747,1,0
64,224,34772,1,0
64,224,34798,1,0
32,192,34810,1,0
64,224,34823,1,0
64,224,34836,1,0
64,224,34848,1,0
32,192,34886,1,0
32,192,34911,1,0
64,224,34924,1,0
160,224,34937,1,0
160,224,34949,1,0
160,224,34962,1,0
160,224,34974,1,0
160,224,35000,1,0
160,224,35012,1,0
160,224,35025,1,0
128,352,35050,1,0
128,352,35063,1,0
128,352,35075,1,0
128,352,35088,1,0
128,352,35101,1,0
128,352,35113,1,0
128,352,35126,1,0
128,352,35139,1,0
128,352,35151,1,0
128,352,35164,1,0
128,352,35252,1,0
128,352,35265,1,0
128,352,35277,1,0
128,352,35290,1,0
160,320,35328,1,0
160,320,35341,1,0
256,256,35404,1,0
256,256,35416,1,0
256,256,35429,1,0
256,256,35442,1,0
256,256,35454,1,0
256,256,35467,1,0
256,256,35479,1,0
256,256,35517,1,0
320,224,35543,1,0
320,224,35555,1,0
320,224,35568,1,0
320,224,35580,1,0
320,224,35593,1,0
320,224,35606,1,0
320,224,35618,1,0
320,224,35631,1,0
320,224,35644,1,0
320,224,35656,1,0
320,224,35669,1,0
320,224,35694,1,0
320,224,35707,1,0
320,224,35719,1,0
320,224,35732,1,0
320,224,35770,1,0
320,224,35783,1,0
320,224,35795,1,0
320,224,35808,1,0
320,224,35820,1,0
320,224,35858,1,0
320,224,35871,1,0
320,224,35884,1,0
320,224,35909,1,0
320,224,35921,1,0
320,224,35934,1,0
320,224,35947,1,0
320,224,35959,1,0
320,224,35972,1,0
320,224,35997,1,0
320,224,36022,1,0
320,224,36048,1,0
320,224,36060,1,0
320,224,36073,1,0
320,224,36086,1,0
320,224,36098,1,0
320,224,36123,1,0
320,224,36136,1,0
320,224,36149,1,0
320,224,36161,1,0
320,224,36174,1,0
320,224,36187,1,0
320,224,36199,1,0
320,224,36212,1,0
320,224,36224,1,0
320,224,36237,1,0
320,224,36262,1,0
320,224,36275,1,0
320,224,36288,1,0
320,224,36300,1,0
320,224,36313,1,0
320,224,36325,1,0
320,224,36351,1,0
320,224,36363,1,0
320,224,36389,1,0
320,224,36401,1,0
320,224,36414,1,0
320,224,36426,1,0
320,224,36439,1,0
320,224,36452,1,0
320,224,36464,1,0
320,224,36515,1,0
320,224,36527,1,0
320,224,36540,1,0
320,224,36553,1,0
320,224,36578,1,0
320,224,36591,1,0
320,224,36603,1,0
160,192,36666,1,0
160,192,36679,1,0
160,192,36692,1,0
160,192,36717,1,0
160,192,36729,1,0
160,192,36742,1,0
160,192,36755,1,0
160,192,36767,1,0
160,192,36780,1,0
160,192,36805,1,0
160,192,36818,1,0
160,192,36830,1,0
160,192,36856,1,0
160,192,36868,1,0
160,192,36881,1,0
160,192,36906,1,0
160,192,36919,1,0
160,192,36957,1,0
160,192,36969,1,0
160,192,36995,1,0
160,192,37033,1,0
160,192,37045,1,0
160,192,37058,1,0
160,192,37083,1,0
160,192,37108,1,0
160,192,37134,1,0
160,192,37146,1,0
160,192,37171,1,0
160,192,37184,1,0
160,192,37209,1,0
160,192,37247,1,0
160,192,37260,1,0
160,192,37298,1,0
160,192,37323,1,0
160,192,37336,1,0
160,192,37348,1,0
160,192,37373,1,0
160,192,37386,1,0
160,192,37411,1,0
160,192,37424,1,0
160,192,37462,1,0
160,192,37474,1,0
416,192,37487,1,0
448,224,37500,1,0
448,224,37525,1,0
224,160,37575,1,0
224,160,37588,1,0
224,160,37626,1,0
224,160,37639,1,0
224,160,37651,1,0
224,160,37676,1,0
224,160,37689,1,0
224,160,37702,1,0
224,160,37714,1,0
224,160,37727,1,0
224,160,37752,1,0
224,160,37765,1,0
224,160,37777,1,0
224,160,37803,1,0
224,160,37815,1,0
224,160,37828,1,0
224,160,37841,1,0
224,160,37853,1,0
224,160,37866,1,0
224,160,37878,1,0
224,160,37891,1,0
224,160,37904,1,0
224,160,37916,1,0
224,160,37929,1,0
224,160,37954,1,0
224,160,37979,1,0
224,160,37992,1,0
224,160,38017,1,0
224,160,38030,1,0
224,160,38043,1,0
224,160,38055,1,0
224,160,38080,1,0
224,160,38093,1,0
224,160,38106,1,0
224,160,38131,1,0
224,160,38144,1,0
224,160,38156,1,0
224,160,38169,1,0
224,160,38194,1,0
288,128,38232,1,0
288,128,38245,1,0
288,128,38270,1,0
288,128,38283,1,0
288,128,38295,1,0
288,128,38308,1,0
288,128,38320,1,0
288,128,38358,1,0
288,128,38384,1,0
288,128,38396,1,0
288,128,38409,1,0
288,128,38434,1,0
288,128,38459,1,0
288,128,38472,1,0
288,128,38485,1,0
288,128,38497,1,0
288,128,38510,1,0
288,128,38522,1,0
288,128,38573,1,0
288,128,38586,1,0
288,128,38598,1,0
288,128,38611,1,0
288,128,38623,1,0
288,128,38649,1,0
288,128,38661,1,0
288,128,38674,1,0
288,128,38687,1,0
288,128,38699,1,0
288,128,38737,1,0
288,128,38750,1,0
288,128,38762,1,0
288,128,38775,1,0
288,128,38800,1,0
288,128,38813,1,0
288,128,38825,1,0
320,160,38863,1,0
320,160,38876,1,0
448,224,38901,1,0
448,224,38914,1,0
256,288,39027,1,0
256,288,39040,1,0
256,288,39116,1,0
256,288,39128,1,0
256,288,39179,1,0
256,288,39192,1,0
256,288,39217,1,0
256,288,39229,1,0
256,288,39255,1,0
256,288,39280,1,0
256,288,39305,1,0
256,288,39318,1,0
256,288,39330,1,0
256,288,39343,1,0
256,288,39368,1,0
256,288,39394,1,0
256,288,39406,1,0
256,288,39444,1,0
256,288,39457,1,0
256,288,39482,1,0
256,288,39495,1,0
256,288,39507,1,0
256,288,39545,1,0
256,288,39583,1,0
256,288,39608,1,0
256,288,39621,1,0
256,288,39634,1,0
256,288,39646,1,0
256,288,39659,1,0
256,288,39671,1,0
256,288,39684,1,0
256,288,39697,1,0
256,288,39709,1,0
256,288,39722,1,0
256,288,39735,1,0
256,288,39747,1,0
256,288,39772,1,0
96,192,39873,1,0
96,192,39886,1,0
96,192,39899,1,0
96,192,39949,1,0
96,192,39962,1,0
96,192,39987,1,0
96,192,40000,1,0
96,192,40012,1,0
96,192,40025,1,0
96,192,40050,1,0
96,192,40063,1,0
96,192,40075,1,0
96,192,40088,1,0
96,192,40101,1,0
96,192,40126,1,0
96,192,40139,1,0
96,192,40176,1,0
96,192,40189,1,0
96,192,40202,1,0
96,192,40214,1,0
160,256,40227,1,0
160,256,40240,1,0
160,256,40265,1,0
160,256,40277,1,0
160,256,40290,1,0
160,256,40315,1,0
96,288,40328,1,0
96,288,40341,1,0
96,288,40353,1,0
96,288,40391,1,0
96,192,40543,1,0
96,192,40555,1,0
96,192,40568,1,0
96,192,40580,1,0
96,192,40593,1,0
96,192,40606,1,0
96,192,40618,1,0
96,192,40631,1,0
96,192,40656,1,0
96,192,40669,1,0
96,192,40694,1,0
96,192,40719,1,0
128,128,40732,1,0
128,128,40757,1,0
128,128,40770,1,0
128,128,40795,1,0
128,128,40808,1,0
128,128,40820,1,0
128,128,40846,1,0
128,128,40858,1,0
128,128,40871,1,0
96,192,40985,1,0
96,192,40997,1,0
96,192,41010,1,0
96,192,41022,1,0
96,192,41035,1,0
96,192,41048,1,0
224,128,41136,1,0
224,128,41149,1,0
224,128,41161,1,0
224,128,41174,1,0
128,128,41187,1,0
160,160,41212,1,0
160,160,41224,1,0
160,160,41237,1,0
160,160,41250,1,0
160,160,41262,1,0
160,160,41275,1,0
160,160,41288,1,0
160,160,41313,1,0
160,160,41325,1,0
160,160,41338,1,0
160,160,41351,1,0
160,160,41376,1,0
160,160,41389,1,0
160,160,41401,1,0
160,160,41414,1,0
160,160,41439,1,0
160,160,41464,1,0
128,128,41477,1,0
160,160,41490,1,0
160,160,41502,1,0
288,192,41553,1,0
288,192,41565,1,0
288,192,41603,1,0
288,192,41616,1,0
288,192,41628,1,0
288,192,41654,1,0
288,192,41666,1,0
352,192,41679,1,0
352,192,41704,1,0
448,288,41729,1,0
448,288,41742,1,0
448,288,41755,1,0
448,288,41780,1,0
448,288,41793,1,0
448,288,41805,1,0
448,288,41818,1,0
448,288,41830,1,0
448,288,41843,1,0
448,288,41856,1,0
448,288,41868,1,0
448,288,41906,1,0
448,288,41919,1,0
448,288,41932,1,0
64,352,42007,1,0
64,352,42020,1,0
64,352,42033,1,0
64,352,42045,1,0
64,352,42070,1,0
64,352,42083,1,0
64,352,42108,1,0
64,352,42121,1,0
64,352,42134,1,0
64,352,42159,1,0
64,352,42171,1,0
64,352,42184,1,0
64,352,42197,1,0
64,352,42209,1,0
64,352,42222,1,0
64,352,42235,1,0
64,352,42247,1,0
64,352,42260,1,0
64,352,42272,1,0
64,352,42285,1,0
64,352,42298,1,0
64,352,42310,1,0
64,352,42336,1,0
64,352,42348,1,0
64,352,42361,1,0
64,352,42386,1,0
64,352,42399,1,0
64,352,42411,1,0
64,352,42424,1,0
64,352,42437,1,0
64,352,42449,1,0
64,352,42462,1,0
64,352,42474,1,0
64,352,42487,1,0
64,352,42512,1,0
64,352,42525,1,0
64,352,42550,1,0
64,352,42563,1,0
64,352,42588,1,0
64,352,42601,1,0
64,352,42613,1,0
64,352,42626,1,0
64,352,42639,1,0
64,352,42651,1,0
64,352,42664,1,0
64,352,42676,1,0
64,352,42689,1,0
64,352,42714,1,0
64,352,42727,1,0
64,352,42740,1,0
160,288,42866,1,0
160,288,42878,1,0
160,288,42891,1,0
160,288,42904,1,0
160,288,42942,1,0
160,288,42954,1,0
160,288,42979,1,0
160,288,43017,1,0
160,288,43030,1,0
160,288,43043,1,0
160,288,43055,1,0
160,288,43068,1,0
160,288,43093,1,0
160,288,43118,1,0
160,288,43144,1,0
160,288,43156,1,0
160,288,43194,1,0
160,288,43207,1,0
224,128,43320,1,0
224,128,43333,1,0
224,128,43358,1,0
224,128,43384,1,0
224,128,43396,1,0
224,128,43409,1,0
224,128,43459,1,0
224,128,43472,1,0
224,128,43485,1,0
224,128,43497,1,0
224,128,43510,1,0
224,128,43522,1,0
224,128,43548,1,0
224,128,43560,1,0
224,128,43586,1,0
128,128,43598,1,0
192,160,43611,1,0
288,192,43623,1,0
384,128,43636,1,0
256,256,43674,1,0
192,256,43687,1,0
160,192,43699,1,0
320,160,43737,1,0
416,192,43750,1,0
224,128,43775,1,0
224,192,43800,1,0
384,128,43838,1,0
288,96,43863,1,0
384,128,43876,1,0
384,224,43889,1,0
320,288,43901,1,0
320,288,43914,1,0
320,288,43926,1,0
320,288,43939,1,0
320,288,43952,1,0
320,288,43964,1,0
320,288,43977,1,0
320,288,43990,1,0
320,288,44015,1,0
320,288,44027,1,0
320,288,44040,1,0
320,288,44065,1,0
320,288,44078,1,0
320,288,44091,1,0
320,288,44103,1,0
320,288,44116,1,0
320,288,44128,1,0
160,288,44141,1,0
96,224,44166,1,0
96,224,44179,1,0
64,160,44192,1,0
64,160,44204,1,0
96,96,44217,1,0
192,64,44242,1,0
192,64,44255,1,0
288,96,44293,1,0
384,128,44318,1,0
384,128,44330,1,0
288,192,44368,1,0
256,256,44406,1,0
256,256,44419,1,0
224,192,44444,1,0
224,192,44482,1,0
224,192,44507,1,0
224,192,44520,1,0
224,192,44533,1,0
224,192,44545,1,0
224,192,44558,1,0
224,192,44596,1,0
416,64,44646,1,0
416,64,44671,1,0
416,64,44684,1,0
416,64,44697,1,0
416,64,44709,1,0
416,64,44722,1,0
416,64,44735,1,0
416,64,44760,1,0
416,64,44772,1,0
416,64,44785,1,0
416,64,44798,1,0
416,256,44848,1,0
416,256,44873,1,0
416,256,44886,1,0
416,256,44911,1,0
416,256,44924,1,0
416,256,44937,1,0
416,256,44949,1,0
128,320,44987,1,0
128,320,45000,1,0
128,320,45012,1,0
128,320,45025,1,0
128,320,45050,1,0
128,320,45063,1,0
128,320,45088,1,0
128,320,45101,1,0
128,320,45113,1,0
64,320,45139,1,0
64,320,45151,1,0
64,320,45164,1,0
64,320,45176,1,0
32,256,45227,1,0
192,320,45290,1,0
416,320,45341,1,0
256,208,45353,12,0,47020
64,96,47449,6,0,B|320:288|416:160|384:192|32:160|32:160|96:288|256:96|416:288|384:320,8,997.5
256,320,53560,2,0,B|160:128|-32:256|288:160|-32:288|96:384|224:384|288:128|-32:160|-32:160|256:160,202,822.5
256,208,173750,12,0,195058
