osu file format v14

[General]
AudioFilename: Tell your world.mp3
AudioLeadIn: 0
PreviewTime: 24026
Countdown: 0
SampleSet: Soft
StackLeniency: 0.6
Mode: 3
LetterboxInBreaks: 0
SpecialStyle: 0
WidescreenStoryboard: 0

[Editor]
DistanceSpacing: 0.8
BeatDivisor: 4
GridSize: 8
TimelineZoom: 0.7999998

[Metadata]
Title:Tell Your World
TitleUnicode:Tell Your World
Artist:livetune feat. Hatsune Miku
ArtistUnicode:livetune feat. 初音ミク
Creator:sherrysina
Version:NM+
Source:
Tags:vocaloid vocaloid2 kz Nicovideo Pharos21 zancers
BeatmapID:716208
BeatmapSetID:321428

[Difficulty]
HPDrainRate:7
CircleSize:4
OverallDifficulty:7
ApproachRate:5
SliderMultiplier:1.4
SliderTickRate:1

[Events]
//Background and Video events
0,0,"bg.jpg",0,0
Video,0,"video.avi"
//Break Periods
//Storyboard Layer 0 (Background)
//Storyboard Layer 1 (Fail)
//Storyboard Layer 2 (Pass)
//Storyboard Layer 3 (Foreground)
//Storyboard Sound Samples

[TimingPoints]
1026,400,4,2,0,40,1,0
25026,-100,4,2,0,40,0,1
37726,-100,4,2,0,40,0,0
37826,-100,4,2,0,40,0,1
44226,-100,4,2,0,40,0,0

[HitObjects]
64,192,1026,5,0,0:0:0:40:soft-hitnormal.wav
448,192,1026,1,0,0:0:0:40:soft-hitnormal.wav
320,192,1226,1,0,0:0:0:40:soft-hitnormal.wav
192,192,1426,1,0,0:0:0:40:soft-hitnormal.wav
320,192,1626,128,0,2026:0:0:0:40:soft-hitnormal.wav
64,192,2026,1,0,0:0:0:40:soft-hitnormal.wav
192,192,2226,1,0,0:0:0:40:soft-hitnormal.wav
448,192,2426,128,0,2826:0:0:0:40:soft-hitnormal.wav
320,192,2826,1,0,0:0:0:40:soft-hitnormal.wav
192,192,3026,1,0,0:0:0:40:soft-hitnormal.wav
64,192,3226,128,0,3626:0:0:0:40:soft-hitnormal.wav
448,192,3626,1,0,0:0:0:40:soft-hitnormal.wav
320,192,3826,1,0,0:0:0:40:soft-hitnormal.wav
192,192,4026,1,0,0:0:0:40:soft-hitnormal.wav
448,192,4226,1,0,0:0:0:40:soft-hitnormal.wav
64,192,4226,1,0,0:0:0:40:soft-hitnormal.wav
320,192,4426,1,0,0:0:0:40:soft-hitnormal.wav
192,192,4626,1,0,0:0:0:40:soft-hitnormal.wav
64,192,4826,128,0,5226:0:0:0:40:soft-hitnormal.wav
448,192,5226,1,0,0:0:0:40:soft-hitnormal.wav
320,192,5426,1,0,0:0:0:40:soft-hitnormal.wav
192,192,5626,128,0,6026:0:0:0:40:soft-hitnormal.wav
320,192,6026,1,0,0:0:0:40:soft-hitnormal.wav
64,192,6226,1,0,0:0:0:40:soft-hitnormal.wav
448,192,6426,128,0,6826:0:0:0:40:soft-hitnormal.wav
320,192,6826,1,0,0:0:0:40:soft-hitnormal.wav
192,192,7026,1,0,0:0:0:40:soft-hitnormal.wav
64,192,7226,1,0,0:0:0:40:soft-hitnormal.wav
320,192,7426,1,0,0:0:0:20:soft-hitnormal.wav
448,192,7426,1,0,0:0:0:20:soft-hitnormal.wav
192,192,7626,1,0,0:0:0:20:soft-hitnormal.wav
320,192,7826,1,0,0:0:0:20:soft-hitnormal.wav
448,192,8026,128,0,8426:0:0:0:20:soft-hitnormal.wav
192,192,8426,1,0,0:0:0:20:soft-hitnormal.wav
64,192,8626,1,0,0:0:0:20:soft-hitnormal.wav
320,192,8826,1,0,0:0:0:20:soft-hitnormal.wav
192,192,8826,128,0,10226:0:0:0:20:soft-hitnormal.wav
64,192,10226,128,0,10626:0:0:0:40:soft-hitnormal.wav
448,192,10626,1,0,0:0:0:40:soft-hitnormal.wav
320,192,10626,1,0,0:0:0:40:soft-hitnormal.wav
192,192,10826,1,0,0:0:0:0:
320,192,11026,1,0,0:0:0:40:kick1.wav
448,192,11226,1,0,0:0:0:0:
64,192,11426,1,0,0:0:0:40:kick1.wav
192,192,11626,1,0,0:0:0:0:
320,192,11826,1,0,0:0:0:0:
448,192,12026,1,0,0:0:0:40:kick1.wav
64,192,12226,1,0,0:0:0:0:
448,192,12426,1,0,0:0:0:0:
320,192,12626,1,0,0:0:0:40:kick1.wav
192,192,12826,1,0,0:0:0:0:
320,192,13026,1,0,0:0:0:40:kick1.wav
192,192,13226,1,0,0:0:0:0:
64,192,13426,1,0,0:0:0:0:
192,192,13626,1,0,0:0:0:40:kick1.wav
448,192,13826,1,0,0:0:0:40:drum1.wav
320,192,13826,1,0,0:0:0:40:drum1.wav
64,192,14026,1,0,0:0:0:0:
448,192,14226,1,0,0:0:0:40:kick1.wav
192,192,14626,1,0,0:0:0:40:kick1.wav
448,192,14826,1,0,0:0:0:40:drum1.wav
64,192,14826,1,0,0:0:0:40:drum1.wav
320,192,15226,1,0,0:0:0:40:kick1.wav
448,192,15626,1,0,0:0:0:40:kick1.wav
64,192,15826,1,0,0:0:0:40:kick1.wav
320,192,16026,1,0,0:0:0:0:
192,192,16226,1,0,0:0:0:40:kick1.wav
64,192,16426,1,0,0:0:0:40:kick1.wav
448,192,16626,1,0,0:0:0:40:kick1.wav
192,192,16826,1,0,0:0:0:40:kick1.wav
448,192,17026,1,0,0:0:0:40:drum1.wav
320,192,17026,1,0,0:0:0:40:drum1.wav
64,192,17226,1,0,0:0:0:0:
320,192,17426,1,0,0:0:0:40:kick1.wav
192,192,17826,1,0,0:0:0:40:kick1.wav
448,192,18026,1,0,0:0:0:40:drum1.wav
64,192,18026,1,0,0:0:0:40:drum1.wav
192,192,18426,1,0,0:0:0:40:kick1.wav
448,192,18626,1,0,0:0:0:0:
320,192,18826,1,0,0:0:0:40:kick1.wav
64,192,19026,1,0,0:0:0:40:kick1.wav
192,192,19226,1,0,0:0:0:0:
448,192,19426,1,0,0:0:0:40:kick1.wav
192,192,19626,1,0,0:0:0:40:drum1.wav
320,192,19626,1,0,0:0:0:40:drum1.wav
64,192,20026,1,0,0:0:0:40:kick1.wav
192,192,20226,1,0,0:0:0:40:drum1.wav
320,192,20226,1,0,0:0:0:40:drum1.wav
448,192,20626,1,0,0:0:0:40:kick1.wav
192,192,20826,1,0,0:0:0:0:
320,192,21026,1,0,0:0:0:40:kick1.wav
448,192,21226,1,0,0:0:0:40:drum1.wav
64,192,21226,1,0,0:0:0:40:drum1.wav
192,192,21626,1,0,0:0:0:40:kick1.wav
448,192,21826,1,0,0:0:0:0:
64,192,22026,1,0,0:0:0:40:kick1.wav
320,192,22226,1,0,0:0:0:40:kick1.wav
192,192,22426,1,0,0:0:0:40:drum1.wav
448,192,22626,1,0,0:0:0:0:
64,192,22826,1,0,0:0:0:0:
320,192,23026,1,0,0:0:0:0:
192,192,23226,1,0,0:0:0:0:
64,192,23426,128,0,23826:0:0:0:0:
192,192,24226,128,0,24626:0:0:0:0:
64,192,24626,1,0,0:0:0:40:kick1.wav
448,192,24626,1,0,0:0:0:40:kick1.wav
192,192,25026,1,0,0:0:0:0:
320,192,25026,1,0,0:0:0:0:
192,192,25426,1,0,0:0:0:40:drum2.wav
64,192,25426,1,0,0:0:0:40:drum2.wav
448,192,25626,1,0,0:0:0:0:
320,192,25826,1,0,0:0:0:40:drum1.wav
64,192,25826,1,0,0:0:0:40:drum1.wav
192,192,26026,1,0,0:0:0:40:drum2.wav
448,192,26026,1,0,0:0:0:40:drum2.wav
320,192,26226,1,0,0:0:0:40:drum1.wav
64,192,26226,1,0,0:0:0:40:drum1.wav
192,192,26426,1,0,0:0:0:0:
320,192,26626,1,0,0:0:0:40:drum1.wav
448,192,26626,1,0,0:0:0:40:drum1.wav
64,192,26826,1,0,0:0:0:0:
448,192,27026,1,0,0:0:0:40:drum2.wav
192,192,27026,1,0,0:0:0:40:drum2.wav
64,192,27226,1,0,0:0:0:0:
192,192,27426,1,0,0:0:0:40:drum1.wav
320,192,27426,1,0,0:0:0:40:drum1.wav
448,192,27626,1,0,0:0:0:40:drum2.wav
64,192,27626,1,0,0:0:0:40:drum2.wav
192,192,27826,1,0,0:0:0:40:drum2.wav
320,192,27926,1,0,0:0:0:40:drum2.wav
448,192,28026,1,0,0:0:0:40:drum2.wav
192,192,28226,1,0,0:0:0:40:drum1.wav
64,192,28226,1,0,0:0:0:40:drum1.wav
448,192,28426,1,0,0:0:0:0:
64,192,28626,1,0,0:0:0:40:drum2.wav
320,192,28626,1,0,0:0:0:40:drum2.wav
448,192,28826,1,0,0:0:0:0:
320,192,29026,1,0,0:0:0:40:drum1.wav
192,192,29026,1,0,0:0:0:40:drum1.wav
448,192,29226,1,0,0:0:0:40:drum2.wav
64,192,29226,1,0,0:0:0:40:drum2.wav
320,192,29426,1,0,0:0:0:40:drum1.wav
192,192,29426,1,0,0:0:0:40:drum1.wav
64,192,29626,1,0,0:0:0:0:
448,192,29826,1,0,0:0:0:40:drum1.wav
320,192,29826,1,0,0:0:0:40:drum1.wav
192,192,30026,1,0,0:0:0:0:
320,192,30226,1,0,0:0:0:40:drum2.wav
64,192,30226,1,0,0:0:0:40:drum2.wav
448,192,30426,1,0,0:0:0:0:
192,192,30626,1,0,0:0:0:40:drum1.wav
320,192,30626,1,0,0:0:0:40:drum1.wav
64,192,30826,1,0,0:0:0:0:
320,192,31026,1,0,0:0:0:40:drum1.wav
448,192,31026,1,0,0:0:0:40:drum1.wav
192,192,31226,1,0,0:0:0:0:
320,192,31426,1,0,0:0:0:40:drum1.wav
64,192,31426,1,0,0:0:0:40:drum1.wav
192,192,31626,1,0,0:0:0:0:
448,192,31826,1,0,0:0:0:40:drum2.wav
320,192,31826,1,0,0:0:0:40:drum2.wav
64,192,32026,1,0,0:0:0:0:
192,192,32226,1,0,0:0:0:40:drum1.wav
448,192,32226,1,0,0:0:0:40:drum1.wav
320,192,32426,1,0,0:0:0:40:drum2.wav
64,192,32426,1,0,0:0:0:40:drum2.wav
448,192,32626,1,0,0:0:0:40:drum1.wav
192,192,32626,1,0,0:0:0:40:drum1.wav
320,192,32826,1,0,0:0:0:0:
64,192,33026,1,0,0:0:0:40:drum1.wav
448,192,33026,1,0,0:0:0:40:drum1.wav
192,192,33226,1,0,0:0:0:10:drum2.wav
448,192,33426,1,0,0:0:0:40:drum2.wav
320,192,33426,1,0,0:0:0:40:drum2.wav
192,192,33626,1,0,0:0:0:0:
64,192,33826,1,0,0:0:0:40:drum1.wav
320,192,33826,1,0,0:0:0:40:drum1.wav
448,192,34026,1,0,0:0:0:40:drum2.wav
192,192,34026,1,0,0:0:0:40:drum2.wav
320,192,34226,1,0,0:0:0:40:drum2.wav
192,192,34326,1,0,0:0:0:40:drum2.wav
64,192,34426,1,0,0:0:0:40:drum2.wav
448,192,34626,1,0,0:0:0:40:drum1.wav
192,192,34626,1,0,0:0:0:40:drum1.wav
64,192,34826,1,0,0:0:0:0:
64,192,35026,1,0,0:0:0:40:drum2.wav
320,192,35026,1,0,0:0:0:40:drum2.wav
448,192,35226,1,0,0:0:0:0:
192,192,35426,1,0,0:0:0:40:drum1.wav
320,192,35426,1,0,0:0:0:40:drum1.wav
448,192,35626,1,0,0:0:0:40:drum2.wav
64,192,35626,1,0,0:0:0:40:drum2.wav
320,192,35826,1,0,0:0:0:40:drum1.wav
192,192,35826,1,0,0:0:0:40:drum1.wav
64,192,36026,1,0,0:0:0:0:
448,192,36226,1,0,0:0:0:40:drum1.wav
192,192,36226,1,0,0:0:0:40:drum1.wav
320,192,36426,1,0,0:0:0:40:drum1.wav
64,192,36426,1,0,0:0:0:40:drum1.wav
192,192,36626,1,0,0:0:0:40:drum2.wav
448,192,36626,1,0,0:0:0:40:drum2.wav
320,192,36826,1,0,0:0:0:40:drum1.wav
64,192,36826,1,0,0:0:0:40:drum1.wav
192,192,37026,1,0,0:0:0:40:drum2.wav
320,192,37126,1,0,0:0:0:40:drum2.wav
448,192,37226,1,0,0:0:0:40:drum2.wav
64,192,37426,1,8,0:0:0:40:kick1.wav
192,192,37426,1,8,0:0:0:40:kick1.wav
448,192,37826,1,0,0:0:0:40:drum1.wav
320,192,37826,1,0,0:0:0:40:drum1.wav
192,192,38226,1,0,0:0:0:40:drum2.wav
64,192,38226,1,0,0:0:0:40:drum2.wav
448,192,38426,1,0,0:0:0:0:
192,192,38626,1,0,0:0:0:40:drum1.wav
320,192,38626,1,0,0:0:0:40:drum1.wav
448,192,38826,1,0,0:0:0:40:drum2.wav
64,192,38826,1,0,0:0:0:40:drum2.wav
320,192,39026,1,0,0:0:0:40:drum1.wav
192,192,39026,1,0,0:0:0:40:drum1.wav
64,192,39226,1,0,0:0:0:0:
320,192,39426,1,0,0:0:0:40:drum1.wav
448,192,39426,1,0,0:0:0:40:drum1.wav
192,192,39626,1,0,0:0:0:0:
64,192,39826,1,0,0:0:0:40:drum2.wav
320,192,39826,1,0,0:0:0:40:drum2.wav
192,192,40026,1,0,0:0:0:0:
320,192,40226,1,0,0:0:0:40:drum1.wav
448,192,40226,1,0,0:0:0:40:drum1.wav
64,192,40426,1,0,0:0:0:40:drum2.wav
192,192,40426,1,0,0:0:0:40:drum2.wav
448,192,40626,1,0,0:0:0:40:drum2.wav
320,192,40726,1,0,0:0:0:40:drum2.wav
192,192,40826,1,0,0:0:0:40:drum2.wav
320,192,41026,1,0,0:0:0:40:drum1.wav
64,192,41026,1,0,0:0:0:40:drum1.wav
192,192,41426,1,0,0:0:0:40:drum2.wav
448,192,41426,1,0,0:0:0:40:drum2.wav
320,192,41626,1,0,0:0:0:0:
64,192,41826,1,0,0:0:0:40:drum1.wav
448,192,41826,1,0,0:0:0:40:drum1.wav
192,192,42026,1,0,0:0:0:40:drum2.wav
320,192,42026,1,0,0:0:0:40:drum2.wav
64,192,42226,1,0,0:0:0:40:drum1.wav
448,192,42226,1,0,0:0:0:40:drum1.wav
320,192,42426,1,0,0:0:0:0:
192,192,42626,1,0,0:0:0:40:drum1.wav
448,192,42626,1,0,0:0:0:40:drum1.wav
320,192,42826,1,0,0:0:0:0:
448,192,43026,1,0,0:0:0:20:drum2.wav
64,192,43026,1,0,0:0:0:20:drum2.wav
192,192,43226,1,0,0:0:0:0:
320,192,43426,1,0,0:0:0:40:drum1.wav
64,192,43426,1,0,0:0:0:40:drum1.wav
192,192,43626,1,0,0:0:0:0:
320,192,43826,1,0,0:0:0:40:drum1.wav
448,192,43826,1,0,0:0:0:40:drum1.wav
64,192,44026,1,0,0:0:0:0:
320,192,44226,1,0,0:0:0:40:drum1.wav
192,192,44226,1,0,0:0:0:40:drum1.wav
448,192,44626,1,0,0:0:0:40:drum2.wav
64,192,44626,1,0,0:0:0:40:drum2.wav
192,192,44826,1,0,0:0:0:0:
320,192,45026,1,0,0:0:0:40:drum1.wav
64,192,45026,1,0,0:0:0:40:drum1.wav
448,192,45226,1,0,0:0:0:40:drum2.wav
192,192,45226,1,0,0:0:0:40:drum2.wav
64,192,45426,1,0,0:0:0:40:drum1.wav
320,192,45426,1,0,0:0:0:40:drum1.wav
192,192,45626,1,0,0:0:0:0:
448,192,45826,1,0,0:0:0:40:drum1.wav
320,192,45826,1,0,0:0:0:40:drum1.wav
64,192,46026,1,0,0:0:0:0:
448,192,46226,1,0,0:0:0:40:drum2.wav
192,192,46226,1,0,0:0:0:40:drum2.wav
64,192,46426,1,0,0:0:0:0:
448,192,46626,1,0,0:0:0:40:drum1.wav
320,192,46626,1,0,0:0:0:40:drum1.wav
64,192,46826,1,0,0:0:0:40:drum2.wav
192,192,46826,1,0,0:0:0:40:drum2.wav
448,192,47026,1,0,0:0:0:40:drum2.wav
192,192,47126,1,0,0:0:0:40:drum2.wav
320,192,47226,1,0,0:0:0:40:drum2.wav
448,192,47426,1,0,0:0:0:40:drum1.wav
64,192,47426,1,0,0:0:0:40:drum1.wav
448,192,47826,1,0,0:0:0:40:drum2.wav
320,192,47826,1,0,0:0:0:40:drum2.wav
192,192,48026,1,0,0:0:0:0:
64,192,48226,1,0,0:0:0:40:drum1.wav
320,192,48226,1,0,0:0:0:40:drum1.wav
192,192,48426,1,0,0:0:0:40:drum2.wav
448,192,48426,1,0,0:0:0:40:drum2.wav
320,192,48626,1,0,0:0:0:40:drum1.wav
64,192,48626,1,0,0:0:0:40:drum1.wav
448,192,48826,1,0,0:0:0:0:
192,192,49026,1,0,0:0:0:40:drum1.wav
64,192,49026,1,0,0:0:0:40:drum1.wav
320,192,49226,1,0,0:0:0:0:
64,192,49426,1,0,0:0:0:40:drum2.wav
448,192,49426,1,0,0:0:0:40:drum2.wav
192,192,49626,1,0,0:0:0:0:
448,192,49826,128,0,50626:0:0:0:40:drum1.wav
64,192,49826,128,0,50626:0:0:0:40:drum1.wav
320,192,50626,1,0,0:0:0:40:soft-hitnormal.wav
192,192,50826,1,0,0:0:0:40:soft-hitnormal.wav
320,192,51026,1,0,0:0:0:40:soft-hitnormal.wav
448,192,51226,128,0,51626:0:0:0:40:soft-hitnormal.wav
64,192,51626,1,0,0:0:0:40:soft-hitnormal.wav
192,192,51826,1,0,0:0:0:40:soft-hitnormal.wav
448,192,52026,128,0,52426:0:0:0:40:soft-hitnormal.wav
192,192,52426,1,0,0:0:0:40:soft-hitnormal.wav
64,192,52626,1,0,0:0:0:40:soft-hitnormal.wav
320,192,52826,128,0,53226:0:0:0:40:soft-hitnormal.wav
448,192,53226,1,0,0:0:0:40:soft-hitnormal.wav
64,192,53426,1,0,0:0:0:40:soft-hitnormal.wav
192,192,53626,1,0,0:0:0:40:soft-hitnormal.wav
64,192,53826,1,0,0:0:0:40:soft-hitnormal.wav
320,192,53826,1,0,0:0:0:40:soft-hitnormal.wav
448,192,54026,1,0,0:0:0:40:soft-hitnormal.wav
320,192,54226,1,0,0:0:0:40:soft-hitnormal.wav
64,192,54426,128,0,54826:0:0:0:40:soft-hitnormal.wav
320,192,54826,1,0,0:0:0:40:soft-hitnormal.wav
448,192,55026,1,0,0:0:0:40:soft-hitnormal.wav
320,192,55226,128,0,55826:0:0:0:40:soft-hitnormal.wav
192,192,55826,1,0,0:0:0:40:soft-hitnormal.wav
64,192,56226,1,0,0:0:0:40:soft-hitnormal.wav
448,192,56426,128,0,58426:0:0:0:40:soft-hitnormal.wav
