osu file format v9

[General]
AudioFilename: Tell_your_world.mp3
AudioLeadIn: 1500
PreviewTime: 23930
Countdown: 0
SampleSet: Normal
StackLeniency: 0.7
Mode: 1
LetterboxInBreaks: 1

[Editor]
DistanceSpacing: 1.2
BeatDivisor: 4
GridSize: 8

[Metadata]
Title:Tell Your World
Artist:livetune feat. Hatsune Miku
Creator:KanaRin
Version:Taiko Oni
Source:
Tags:vocaloid vocaloid2 google chrome kz karenying aesopl19193

[Difficulty]
HPDrainRate:5
CircleSize:5
OverallDifficulty:5
ApproachRate:5
SliderMultiplier:1.4
SliderTickRate:1

[Events]
//Background and Video events
0,0,"taiko.jpg"
//Break Periods
//Storyboard Layer 0 (Background)
//Storyboard Layer 1 (Fail)
//Storyboard Layer 2 (Pass)
//Storyboard Layer 3 (Foreground)
//Storyboard Sound Samples
//Background Colour Transformations
3,100,163,162,255

[TimingPoints]
1026,400,4,1,1,60,1,0
25026,-100,4,1,1,65,0,1
50626,-100,4,1,1,45,0,0
56626,-100,4,1,1,15,0,0

[HitObjects]
264,184,10626,1,4
264,184,11026,1,0
376,376,11226,1,0
344,296,11426,1,8
304,264,11826,1,0
264,184,12026,1,0
264,184,12226,1,8
264,184,12426,1,0
304,208,12526,1,0
264,184,12626,1,0
264,184,12826,1,0
264,184,13026,1,8
264,184,13226,1,0
304,160,13326,1,0
264,184,13426,1,8
264,184,13626,1,8
376,376,14026,1,0
344,296,14226,1,8
304,264,14626,1,0
264,184,14826,1,8
264,184,15226,1,0
264,184,15426,1,8
264,184,15626,1,0
288,216,15726,1,0
264,184,15826,1,0
264,184,16026,1,0
264,184,16226,1,0
288,224,16326,1,8
176,160,16426,1,0
224,160,16526,1,0
264,184,16626,1,8
376,376,16826,1,0
344,296,16926,1,0
344,296,17026,1,0
360,336,17226,1,0
304,264,17426,1,8
264,184,17826,1,0
264,184,18026,1,0
264,184,18226,1,8
264,184,18426,1,0
304,168,18526,1,0
264,184,18626,1,8
264,184,18826,1,0
264,184,19026,1,0
264,184,19226,1,8
264,136,19626,1,0
264,136,19826,1,0
328,200,20026,1,8
352,240,20126,1,8
352,240,20226,1,0
352,240,20426,1,0
352,240,20626,1,8
336,248,21026,1,8
288,176,21226,1,0
336,256,21426,1,8
360,344,21626,1,0
352,296,21726,1,8
352,296,21826,1,0
352,296,22026,1,0
352,296,22126,1,0
352,296,22226,1,8
352,296,22426,1,0
352,296,22626,1,8
240,160,23026,2,0,B|400:168,2,140
216,56,25026,5,4
264,152,25226,1,0
368,176,25426,1,8
408,80,25626,1,8
376,120,25726,1,8
344,160,25826,1,0
312,264,26026,1,0
312,216,26126,1,0
344,160,26226,1,8
312,264,26426,1,0
344,160,26626,1,8
352,264,26826,1,0
352,264,26926,1,0
352,264,27026,1,8
352,264,27226,1,0
352,264,27326,1,0
352,264,27426,1,8
352,264,27626,1,0
352,264,27826,1,8
304,240,27926,1,8
352,264,28026,1,0
352,264,28126,1,0
352,264,28226,1,8
304,168,28426,1,0
304,168,28526,1,0
304,168,28626,1,8
304,168,28826,1,0
272,128,28926,1,0
304,168,29026,1,8
304,168,29226,1,8
304,168,29426,1,8
304,168,29626,1,0
304,168,29726,1,8
304,168,29826,1,0
376,248,30026,1,0
344,208,30126,1,0
304,176,30226,1,8
392,240,30426,1,0
296,184,30626,1,8
296,184,30726,1,8
296,184,30826,1,0
296,184,30926,1,0
296,184,31026,1,8
344,280,31226,1,0
344,208,31426,1,4
344,208,31626,1,0
344,208,31726,1,0
344,208,31826,1,8
344,280,32026,1,0
344,280,32126,1,0
344,280,32226,1,8
312,176,32426,1,0
344,280,32626,1,8
312,176,32826,1,0
328,224,32926,1,8
328,224,33026,1,0
328,224,33226,1,8
328,224,33426,1,8
328,224,33526,1,8
328,224,33626,1,0
328,224,33726,1,0
328,224,33826,1,8
328,224,34026,1,0
328,224,34126,1,0
328,224,34226,1,8
328,224,34426,1,8
328,224,34626,1,0
328,224,34726,1,0
328,224,34826,1,8
328,224,34926,1,8
328,224,35026,1,8
328,224,35226,1,0
328,224,35426,1,8
328,224,35526,1,8
328,224,35626,1,0
328,224,35726,1,0
328,224,35826,1,8
376,320,36026,1,0
352,272,36126,1,8
352,272,36226,1,0
352,272,36426,1,0
352,272,36526,1,0
352,272,36626,1,8
352,272,36826,1,8
368,320,36926,1,8
352,272,37026,1,0
352,272,37226,1,0
352,272,37326,1,0
352,272,37426,1,8
392,56,37826,1,4
376,160,38026,1,0
368,216,38126,1,0
368,216,38226,1,8
368,216,38426,1,8
368,216,38526,1,8
368,216,38626,1,0
280,192,38826,1,8
368,224,39026,1,0
280,192,39226,1,8
352,248,39426,1,0
368,336,39626,1,8
360,288,39726,1,8
352,240,39826,1,0
360,288,40026,1,8
360,288,40126,1,8
360,288,40226,1,0
360,288,40426,1,8
360,288,40626,1,0
360,288,40826,1,8
352,248,41026,1,0
352,240,41126,1,0
352,240,41226,1,8
352,240,41326,1,8
352,240,41426,1,0
272,200,41626,1,8
192,152,41826,1,0
232,176,41926,1,0
232,176,42026,1,8
232,176,42226,1,0
232,176,42326,1,0
232,176,42426,1,8
272,200,42626,1,0
312,280,42826,1,8
312,280,42926,1,8
312,280,43026,1,0
360,352,43226,1,8
312,280,43426,1,0
344,248,43526,1,0
328,192,43626,1,8
360,224,43726,1,0
320,280,43826,1,0
272,200,44026,1,8
312,280,44226,1,4
336,328,44526,1,0
336,304,44626,1,8
336,304,44826,1,0
336,304,45026,1,4
192,176,45326,1,0
312,128,45426,1,8
320,216,45626,1,0
336,304,45826,1,0
320,216,46026,1,0
328,264,46126,1,0
328,264,46226,1,8
328,264,46426,1,0
328,264,46626,1,4
176,160,47026,1,0
320,256,47226,1,8
320,256,47426,1,0
320,256,47526,1,0
320,256,47626,1,8
320,256,47826,1,0
328,296,47926,1,0
320,256,48026,1,8
328,296,48226,1,0
368,272,48326,1,0
328,296,48426,1,8
328,296,48626,1,0
344,344,48726,1,0
352,384,48826,1,8
352,344,48926,1,8
328,304,49026,1,0
328,304,49226,1,8
336,328,49426,1,0
344,344,49526,1,0
344,344,49626,1,8
344,344,49826,1,0
344,344,50026,1,8
328,304,50226,1,0
344,296,50626,1,8
360,336,50826,1,0
304,264,51026,1,0
264,184,51226,1,8
264,184,51626,1,0
264,184,51826,1,0
264,184,52026,1,8
264,184,52426,1,0
264,184,52626,1,0
264,184,52826,1,8
352,336,53226,1,0
344,296,53426,1,0
360,336,53626,1,8
320,256,53826,1,4
264,184,54026,1,0
264,184,54226,1,0
264,184,54426,1,8
264,184,54826,1,0
264,184,55026,1,0
264,184,55226,1,8
48,24,55826,1,8
192,128,56226,1,8
168,88,56426,1,0
256,192,56626,12,0,58426
