osu file format v9

[General]
AudioFilename: Tell_your_world.mp3
AudioLeadIn: 1500
PreviewTime: 23930
Countdown: 0
SampleSet: Soft
StackLeniency: 0.7
Mode: 0
LetterboxInBreaks: 1

[Editor]
DistanceSpacing: 1
BeatDivisor: 4
GridSize: 4

[Metadata]
Title:Tell Your World
Artist:livetune feat. Hatsune Miku
Creator:KanaRin
Version:Hard
Source:
Tags:vocaloid vocaloid2 google chrome kz karenying aesopl19193

[Difficulty]
HPDrainRate:5
CircleSize:3
OverallDifficulty:5
ApproachRate:7
SliderMultiplier:1.6
SliderTickRate:2

[Events]
//Background and Video events
Video,0,"video.avi"
0,0,"3.jpg"
//Break Periods
//Storyboard Layer 0 (Background)
//Storyboard Layer 1 (Fail)
//Storyboard Layer 2 (Pass)
//Storyboard Layer 3 (Foreground)
//Storyboard Sound Samples
//Background Colour Transformations
3,100,163,162,255

[TimingPoints]
1026,400,4,2,1,40,1,0
8826,-200,4,2,1,40,0,0
9826,-100,4,2,1,60,0,0
21826,-100,4,2,1,5,0,0
24026,-100,4,2,1,50,0,0
24626,-100,4,2,2,50,0,0
25026,-90.9090909090909,4,2,1,90,0,1
37026,-90.9090909090909,4,1,1,30,0,1
37726,-90.9090909090909,4,1,1,30,0,0
37826,-83.3333333333333,4,2,1,80,0,1
50626,-100,4,2,1,40,0,0
50826,-100,4,2,1,35,0,0
51026,-100,4,2,1,30,0,0
51626,-100,4,2,1,25,0,0
51826,-100,4,2,1,30,0,0
52026,-100,4,2,1,20,0,0
52426,-100,4,2,1,25,0,0
52626,-100,4,2,1,30,0,0
52826,-100,4,2,1,20,0,0
53126,-100,4,2,1,35,0,0
53426,-100,4,2,1,30,0,0
53626,-100,4,2,1,20,0,0
53826,-100,4,2,1,30,0,0
54026,-100,4,2,1,25,0,0
54226,-100,4,2,1,35,0,0
54426,-100,4,2,1,25,0,0
54826,-100,4,2,1,25,0,0
55026,-100,4,2,1,30,0,0
55226,-100,4,2,1,20,0,0
56426,-100,4,2,1,30,0,0
56523,-100,4,2,1,5,0,0

[Colours]
Combo1 : 255,151,203
Combo2 : 112,235,228
Combo3 : 204,130,253
Combo4 : 255,255,255

[HitObjects]
92,192,1026,2,0,B|20:268,2,80,0|0|2
92,192,1626,1,0
228,276,2026,6,0,B|224:380,2,80,0|2|0
368,200,2826,6,0,B|428:284,2,80,0|2|0
320,48,3626,5,0
320,48,3826,2,0,B|252:68|216:60,1,80,2|0
176,156,4226,6,0,B|242:151|289:176,1,80,0|0
336,160,4626,1,2
412,140,4826,1,0
404,280,5226,6,0,B|504:256,2,80,0|2|0
276,272,6026,6,0,B|248:368,2,80,0|2|0
152,236,6826,5,0
132,176,7026,2,0,B|132:120|148:72,1,80,2|0
196,60,7426,2,0,B|248:64|304:52,1,80
336,40,7826,1,2
396,60,8026,1,0
416,220,8426,5,0
416,220,8626,1,2
416,220,8826,2,0,B|332:224|244:224,1,160
176,216,9826,6,0,B|188:124,1,80
48,56,10226,2,0,B|36:148,1,80
8,300,10626,6,0,B|88:336|188:304,1,160,4|2
244,292,11226,1,0
244,292,11426,2,0,B|332:260|420:300,1,160,0|2
456,184,12026,1,0
396,84,12226,2,0,B|308:116|220:76,1,160,0|2
184,144,12826,5,0
136,208,13026,2,0,B|100:176|28:188,2,80,0|0|2
148,288,13626,2,0,B|224:324|312:296,1,160
380,276,14226,2,0,B|376:180|416:100,1,160,2|2
76,84,15226,6,0,B|72:180|112:260,1,160,2|0
160,296,15826,2,0,B|204:276|256:284,1,80,2|0
300,332,16226,6,0,B|400:360|480:304,1,160,2|2
480,192,16826,2,0,B|380:164|300:220,1,160,0|0
244,76,17426,2,0,B|344:104|424:48,1,160,2|2
400,304,18426,5,0
400,304,18626,2,0,B|240:336,1,160,0|2
156,264,19226,2,0,B|316:232,1,160,0|0
392,216,19826,1,2
344,104,20026,5,0
344,104,20226,2,0,B|272:68|168:96,1,160,0|2
180,244,20826,1,0
180,244,21026,2,0,B|256:284|352:252,1,160,0|2
408,220,21626,1,0
256,192,21826,12,0,23826
252,96,24026,5,2
252,96,24226,2,0,B|340:80,1,80
460,184,24626,2,0,B|352:204,1,80,4|0
300,288,25026,6,0,B|244:264|176:296,1,87.9999973773957,4|2
104,172,25426,1,0
104,172,25626,2,0,B|152:184|216:164,1,87.9999973773957,2|0
276,120,26026,1,10
276,120,26226,1,0
368,128,26426,1,2
368,128,26626,2,0,B|409:97|420:52,2,87.9999973773957,8|2|8
416,248,27226,5,2
356,312,27426,2,0,B|286:296|232:313,1,87.9999973773957,0|2
192,172,27826,2,0,B|262:188|316:171,1,87.9999973773957,8|2
432,56,28226,6,0,B|344:36|272:56,1,131.999996066094,0|2
240,60,28626,2,0,B|176:68|120:52,1,87.9999973773957,8|2
80,180,29026,2,0,B|144:172|200:188,1,87.9999973773957,0|2
252,208,29426,1,8
328,248,29626,2,0,B|364:216|368:168,1,87.9999973773957,2|0
288,48,30026,2,0,B|252:80|248:128,1,87.9999973773957,2|8
176,284,30426,5,2
176,284,30626,2,0,B|156:184,1,87.9999973773957,0|2
320,120,31026,2,0,B|340:220,1,87.9999973773957,8|2
352,328,31426,6,0,B|280:308|200:332,1,131.999996066094,4|0
160,336,31826,2,8,B|108:348|52:336,1,87.9999973773957,8|10
40,200,32226,2,0,B|88:184|148:200,1,87.9999973773957,0|2
208,228,32626,1,8
280,280,32826,2,0,B|356:216|364:120,1,175.999994754791,2|2
348,44,33426,1,8
276,96,33626,5,2
200,52,33826,2,0,B|160:160,1,87.9999973773957,0|2
136,224,34226,1,8
136,224,34326,1,8
136,224,34426,1,2
176,312,34626,6,0,B|264:344|372:308,1,175.999994754791,4|8
392,216,35226,1,2
352,116,35426,2,0,B|264:84|156:120,1,175.999994754791,0|8
88,84,36026,1,2
60,168,36226,6,0,B|72:260,1,87.9999973773957,8|10
212,316,36626,2,0,B|196:224,1,87.9999973773957,8|10
180,104,37026,2,0,B|216:44,4,43.9999986886979
408,292,37826,6,0,B|292:256|184:316,1,192.000004577637,4|8
128,272,38426,1,2
36,240,38626,2,0,B|28:124|92:48,1,192.000004577637,0|8
176,92,39226,1,2
264,56,39426,6,0,B|315:43|379:55,1,96.0000022888184,8|2
440,180,39826,2,0,B|389:193|325:181,1,96.0000022888184,8|2
288,100,40226,6,0,B|339:87|403:99,1,96.0000022888184,8|2
464,224,40626,2,0,B|413:237|349:225,1,96.0000022888184,8|2
316,308,41026,6,0,B|224:268|120:304,1,192.000004577637,0|8
56,240,41626,1,2
96,152,41826,2,0,B|164:72|280:80,1,192.000004577637,0|8
432,276,42626,5,0
340,328,42826,2,0,B|284:312|216:356,1,96.0000022888184,2|8
140,328,43226,1,2
140,328,43326,1,2
140,328,43426,2,0,B|88:328|48:296,1,96.0000022888184,8|2
32,152,43826,2,0,B|96:156|128:128,1,96.0000022888184,8|2
216,80,44226,6,0,B|309:39|409:79,1,192.000004577637,8|8
436,168,44826,1,2
400,256,45026,2,0,B|307:297|207:257,1,192.000004577637,8|8
120,276,45626,1,2
64,196,45826,6,0,B|88:96,1,96.0000022888184,0|2
264,60,46226,2,0,B|240:160,1,96.0000022888184,8|2
212,280,46626,2,0,B|312:252|412:304,1,192.000004577637,0|8
476,236,47226,1,2
476,140,47426,6,0,B|412:48|276:72,1,192.000004577637,0|8
240,136,48026,1,2
248,232,48226,2,0,B|312:324|448:300,1,192.000004577637,0|8
412,108,49026,5,0
320,84,49226,1,2
320,84,49426,2,0,B|268:68|208:88,1,96.0000022888184,8|2
272,216,49826,2,0,B|372:248|492:204,1,192.000004577637,0|8
368,344,50626,6,0,B|464:324,2,80,0|0|2
368,344,51226,1,0
216,288,51626,6,0,B|236:192,2,80,0|2|0
88,196,52426,6,0,B|56:112,2,80,0|2|0
192,48,53226,5,0
192,48,53426,2,0,B|248:40|296:52,1,80,2|0
328,160,53826,2,0,B|288:176|220:156,2,80,0|0|2
328,160,54426,1,0
356,316,54826,6,0,B|456:304,2,80,0|2|0
120,264,55826,5,0
164,112,56226,2,0,B|252:136,1,80,0|4
256,192,56526,12,0,58426
