osu file format v9

[General]
AudioFilename: livetune feat. Hatsune Miku - Tell Your World.mp3
AudioLeadIn: 1000
PreviewTime: 52769
Countdown: 0
SampleSet: Soft
StackLeniency: 0.7
Mode: 0
LetterboxInBreaks: 0

[Editor]
DistanceSpacing: 0.81
BeatDivisor: 2
GridSize: 16

[Metadata]
Title:Tell Your World
Artist:livetune feat. Hatsune Miku
Creator:Colin Hou
Version:Pokie's Easy
Source:
Tags:Nicovideo kz Google Chrome Pokie Vocaloid

[Difficulty]
HPDrainRate:2
CircleSize:3
OverallDifficulty:2
ApproachRate:3
SliderMultiplier:0.96
SliderTickRate:1

[Events]
//Background and Video events
0,0,"BG.jpg"
//Break Periods
2,85874,91235
2,154883,162844
//Storyboard Layer 0 (Background)
//Storyboard Layer 1 (Fail)
//Storyboard Layer 2 (Pass)
//Storyboard Layer 3 (Foreground)
//Storyboard Sound Samples
//Background Colour Transformations
3,100,38,152,213

[TimingPoints]
1063,400.053340445393,4,2,1,20,1,0
4263,-100,4,2,1,30,0,0
7463,-100,4,2,1,40,0,0
10664,-100,4,2,1,50,0,0
10764,-100,4,2,1,5,0,0
11464,-100,4,2,1,20,0,0
11864,-100,4,2,1,5,0,0
12264,-100,4,2,1,20,0,0
12664,-100,4,2,1,5,0,0
13064,-100,4,2,1,60,0,0
13864,-100,4,2,1,40,0,0
14464,-100,4,2,1,30,0,0
15064,-100,4,2,1,25,0,0
15664,-100,4,2,1,20,0,0
16265,-100,4,2,1,15,0,0
16665,-100,4,2,1,25,0,0
17065,-100,4,2,1,40,0,0
17665,-100,4,2,1,30,0,0
18265,-100,4,2,1,25,0,0
18865,-100,4,2,1,20,0,0
19465,-100,4,2,1,15,0,0
19865,-100,4,2,1,25,0,0
20265,-100,4,2,1,40,0,0
20865,-100,4,2,1,30,0,0
21465,-100,4,2,1,25,0,0
22065,-100,4,2,1,20,0,0
22665,-100,4,2,1,15,0,0
23065,-100,4,2,1,25,0,0
23465,-100,4,2,1,40,0,0
24066,-100,4,2,1,30,0,0
24666,-100,4,2,1,40,0,0
25866,-100,4,2,1,60,0,0
39468,-100,4,2,1,70,0,0
53469,-100,4,2,1,70,0,0
53870,-83.3333333333333,4,2,1,80,0,1
66271,-83.3333333333333,4,2,1,80,0,0
66671,-83.3333333333333,4,2,1,80,0,1
79123,-83.3333333333333,4,2,1,30,0,1
79423,-83.3333333333333,4,2,1,80,0,0
79473,-83.3333333333333,4,2,1,80,0,1
85424,-100,4,2,1,80,0,0
85474,-100,4,2,1,40,0,1
85524,-100,4,2,1,80,0,0
111477,-100,4,2,1,60,0,0
114278,-100,4,2,1,50,0,0
115278,-100,4,2,2,50,0,0
115678,-100,4,2,2,30,0,0
116078,-100,4,2,1,50,0,0
118478,-100,4,2,2,40,0,0
118878,-100,4,2,2,50,0,0
119478,-100,4,2,1,50,0,0
121079,-100,4,2,1,80,0,0
125879,-83.3333333333333,4,2,1,80,0,1
138281,-83.3333333333333,4,2,1,80,0,0
138681,-83.3333333333333,4,2,1,80,0,1
151433,-100,4,2,1,80,0,0
151483,-100,4,2,1,80,0,1
151533,-100,4,2,1,80,0,0
193088,-83.3333333333333,4,2,1,80,0,1
205490,-83.3333333333333,4,2,1,80,0,0
205890,-83.3333333333333,4,2,1,80,0,1
218642,-100,4,2,1,80,0,0
218692,-100,4,2,1,80,0,1
225292,-83.3333333333333,4,2,1,80,0,1
231493,-100,4,2,1,70,0,0
234694,-83.3333333333333,4,2,1,5,0,0

[Colours]
Combo1 : 253,243,62
Combo2 : 157,236,70
Combo3 : 55,55,251
Combo4 : 242,0,0

[HitObjects]
90,320,1063,2,0,B|74:224,1,96,2|0
362,64,3863,1,0
442,80,4263,2,0,B|457:174,1,96,2|0
138,336,7063,5,0
58,320,7463,2,0,B|42:272|58:208,1,96,2|0
122,80,8664,1,0
256,157,9464,1,0
394,80,10264,1,0
330,128,10664,6,0,B|294:120|246:82|246:82|240:161|279:216|254:286|246:316|246:316|186:342|125:318|102:248|150:221|194:214|231:251,1,576,2|0
336,336,13864,5,0
448,304,14464,1,0
352,240,15064,1,0
464,208,15664,1,0
368,144,16265,6,0,B|272:160,2,96,0|0|0
288,64,17665,1,0
176,48,18265,1,0
240,144,18865,1,0
128,128,19465,6,0,B|160:224,2,96
48,208,20865,1,0
160,224,21465,1,0
80,304,22065,1,0
192,320,22665,5,0
256,272,23065,1,0
320,320,23465,1,0
344,205,24066,1,0
432,280,24666,1,0
176,80,26666,6,0,B|80:80,2,96,0|2|0
336,112,28266,2,0,B|412:116|480:112,2,144,0|2|0
256,144,29866,5,0
288,224,30266,1,2
176,336,31067,2,0,B|80:336,2,96,0|0|2
256,304,32267,5,0
336,176,33067,2,0,B|432:160,1,96,0|2
272,96,34267,5,0
208,48,34667,2,0,B|96:32,1,96,0|2
48,80,35467,2,0,B|32:192,1,96
80,240,36267,6,0,B|144:240|224:256,2,144,0|2|0
16,192,37867,2,0,B|29:96,2,96
9,269,39068,5,2
80,304,39468,2,0,B|89:226|96:160,2,144,4|0|0
128,368,41068,5,0
240,336,41668,1,2
160,256,42268,1,0
240,224,42668,2,0,B|224:80,2,144,0|2|0
320,240,44268,5,0
416,176,44868,1,2
448,288,45468,1,0
384,336,45868,2,0,B|240:352,2,144,0|2|0
368,256,47469,5,0
256,208,48069,1,2
368,160,48669,1,0
320,96,49069,6,0,B|256:80|176:96,2,144,0|2|0
256,192,50669,12,0,52269
256,256,53469,5,4
166,227,53870,2,0,B|155:175|155:109,2,115.200002746582,0|8|0
344,281,55470,1,0
428,241,55870,1,8
452,150,56270,1,0
394,76,56670,1,8
314,124,57070,6,0,B|258:132|193:125,2,115.200002746582,0|8|0
145,42,58670,1,0
61,84,59070,1,8
40,174,59470,1,0
101,244,59870,1,8
194,248,60270,6,0,B|221:194|214:122,2,115.200002746582,0|8|0
379,224,61871,2,0,B|352:278|359:350,2,115.200002746582,0|8|0
443,157,63071,1,0
352,134,63471,2,0,B|246:194|118:136,1,230.400005493164,0|8
51,91,64671,5,0
51,91,64871,2,0,B|23:148|31:206,1,115.200002746582,2|8
94,327,65871,1,0
181,294,66271,1,4
261,341,66671,6,0,B|320:323|388:331,2,115.200002746582,0|8|0
211,161,68271,1,0
299,130,68672,1,8
392,130,69072,1,0
475,171,69472,1,8
448,260,69872,6,0,B|397:238|327:236,2,115.200002746582,0|8|0
367,91,71472,1,0
275,70,71872,1,0
182,79,72272,1,0
97,119,72672,1,0
167,180,73072,6,0,B|224:162|290:164,2,115.200002746582,0|8|0
271,334,74672,2,0,B|214:352|148:350,2,115.200002746582,0|8|0
356,296,75872,1,0
276,246,76273,2,0,B|207:215|212:145|212:77|279:50,1,230.400005493164
407,46,77673,5,2
407,46,77873,2,0,B|442:106|393:157,1,115.200002746582,0|8
322,207,78673,2,0,B|262:242|211:193,1,115.200002746582,0|12
256,192,79473,12,0,82273
256,192,82673,12,4,85474
256,240,92675,5,2
352,112,93475,1,0
272,80,93875,2,0,B|176:112,1,96,0|2
160,256,95075,5,0
240,288,95475,2,0,B|331:257,1,96,0|2
352,112,96675,1,0
272,80,97075,2,0,B|176:112,1,96,0|2
188,192,97875,6,0,B|210:259|256:259|301:259|323:192,1,192,0|12
400,160,99076,1,0
400,240,99476,1,8
272,160,100276,5,0
272,240,100676,1,0
272,320,101076,2,0,B|176:304,1,96
112,256,101876,5,0
192,224,102276,1,0
272,224,102676,1,0
224,80,103476,5,0
304,80,103876,1,0
384,80,104276,2,0,B|400:176,1,96
448,240,105076,5,0
384,288,105476,1,0
368,208,105876,1,0
224,256,106677,5,0
208,176,107077,1,0
192,96,107477,2,0,B|80:96,1,96
48,160,108277,6,0,B|80:256,2,96
208,128,109877,6,0,B|240:224,2,96
256,64,111077,1,4
336,64,111477,6,0,B|480:64,2,144,0|2|0
288,128,113077,1,0
160,336,114678,6,0,B|16:336,2,144,0|2|0
224,288,116278,1,0
336,176,117078,2,0,B|240:176,1,96,2|0
192,112,117878,6,0,B|48:112,2,144,0|2|0
256,64,119478,1,0
336,336,121079,6,0,B|480:336,2,144,0|2|0
256,192,122679,12,0,124279
256,272,125479,5,4
256,176,125879,2,0,B|256:48,2,115.200002746582,0|8|0
125,309,127479,1,0
48,255,127879,1,8
99,177,128279,1,0
176,229,128680,1,8
197,138,129080,6,0,B|316:138,2,115.200002746582,0|8|0
360,47,130680,1,0
452,60,131080,1,8
436,152,131480,1,0
343,137,131880,1,8
255,103,132280,6,0,B|256:223,2,115.200002746582,0|8|0
84,178,133880,2,0,B|83:58,2,115.200002746582,0|8|0
54,266,135080,1,8
117,334,135480,2,0,B|164:294|164:294|332:294,1,230.400005493164,0|8
366,206,136681,5,8
366,206,136881,2,0,B|248:206,1,115.200002746582,2|0
205,124,137681,1,0
205,124,137881,2,0,B|320:125,1,115.200002746582,0|4
372,47,138681,6,0,B|487:36,2,115.200002746582
261,197,140281,1,0
353,184,140681,1,8
368,275,141081,1,0
276,291,141481,1,8
185,270,141881,6,0,B|166:151,2,115.200002746582,0|8|0
60,131,143481,1,0
116,56,143882,1,8
192,110,144282,1,0
135,184,144682,1,8
190,259,145082,6,0,B|308:271,2,115.200002746582,0|8|0
315,121,146682,2,0,B|197:109,2,115.200002746582,0|8|0
407,131,147882,1,0
395,223,148282,2,0,B|218:204|218:204|164:228,1,230.400005493164,0|8
217,356,149682,5,2
217,356,149882,2,0,B|334:369,1,115.200002746582
397,302,150682,2,0,B|410:185,1,115.200002746582,0|4
256,192,151483,12,0,154683
256,192,164284,6,0,B|224:112|272:32,2,144,4|2|0
320,240,165884,1,4
416,176,166485,1,2
304,144,167085,1,0
256,208,167485,6,0,B|288:288|240:368,2,144,4|2|0
224,128,169085,1,4
112,80,169685,1,2
224,32,170285,1,0
304,64,170685,6,0,B|320:112|320:160,1,96,4|2
256,304,171885,1,2
192,256,172285,2,0,B|176:208|176:160,1,96,4|2
304,64,173485,5,2
368,112,173885,2,0,B|384:160|384:208,1,96,4|2
208,320,175086,5,2
144,272,175486,2,0,B|128:224|128:176,1,96,4|2
176,112,176286,2,0,B|224:96|272:96,1,96,0|2
320,160,177086,6,0,B|400:176|480:128,2,144,4|2|0
240,176,178686,1,4
336,240,179286,1,2
224,272,179886,1,0
144,240,180286,2,0,B|64:256|-16:208,2,144,4|2|0
208,192,181887,5,4
256,80,182487,1,2
304,192,183087,1,0
256,256,183487,2,0,B|304:288|352:256,1,96,4|2
432,128,184687,5,2
368,80,185087,2,0,B|320:48|272:80,1,96,4|2
240,144,185887,2,0,B|256:256,1,96,0|2
208,304,186687,2,0,B|165:332|117:300,1,96,4|2
48,160,187887,5,2
112,112,188287,2,0,B|176:80|240:176|304:128,2,192,0|2|0
256,192,190288,12,0,191888
256,320,192688,5,4
333,268,193088,2,0,B|363:210|345:143,2,115.200002746582,2|8|2
255,216,194288,1,8
179,161,194688,2,0,B|149:219|167:286,2,115.200002746582,0|8|2
255,108,195888,1,0
189,41,196289,6,0,B|126:31|63:42,2,115.200002746582,0|8|2
332,159,197889,2,0,B|395:169|458:158,2,115.200002746582,0|8|2
255,211,199089,1,0
169,174,199489,6,0,B|99:178|84:245,1,115.200002746582
173,268,200289,1,2
343,344,201089,2,0,B|413:340|428:273,1,115.200002746582
339,250,201889,5,2
254,210,202289,1,8
201,136,202689,2,0,B|258:112|312:136,2,115.200002746582,0|8|2
156,218,203890,5,0
156,218,204090,2,0,B|96:217|35:220,1,115.200002746582,2|0
4,305,204890,1,0
4,305,205090,2,0,B|64:306|125:303,1,115.200002746582,2|0
194,359,205890,6,0,B|255:374|316:358,2,115.200002746582,2|8|2
105,330,207090,1,0
161,255,207490,2,0,B|152:142,2,115.200002746582,0|8|2
254,259,208690,1,0
351,255,209090,6,0,B|360:142,2,115.200002746582,0|8|2
407,330,210290,1,0
318,359,210690,2,0,B|257:374|203:359,2,115.200002746582,0|8|2
228,195,212291,5,0
162,128,212691,1,8
111,206,213091,1,2
287,267,213891,5,0
353,334,214291,1,8
404,256,214691,1,2
432,167,215091,2,0,B|405:112|420:53,1,115.200002746582,8|0
281,30,216091,5,2
281,30,216291,2,0,B|164:36,1,115.200002746582,0|8
210,117,217091,2,0,B|327:123,1,115.200002746582,2|8
284,207,217891,2,0,B|167:213,1,115.200002746582,8|14
256,192,218692,12,0,221492
256,192,221892,12,2,225092
340,142,226693,21,2
256,289,227493,5,2
171,143,228293,22,0,B|208:96|272:80,1,115.200002746582,0|2
340,142,229093,6,0,B|363:198|344:261,1,115.200002746582,0|2
256,289,229893,6,0,B|196:281|151:234,1,115.200002746582,0|2
256,192,230693,5,0
256,192,231493,12,0,234694
