osu file format v9

[General]
AudioFilename: livetune feat. Hatsune Miku - Tell Your World.mp3
AudioLeadIn: 1000
PreviewTime: 52769
Countdown: 0
SampleSet: Soft
StackLeniency: 0.7
Mode: 0
LetterboxInBreaks: 0

[Editor]
DistanceSpacing: 1.1
BeatDivisor: 4
GridSize: 8

[Metadata]
Title:Tell Your World
Artist:livetune feat. Hatsune Miku
Creator:Colin Hou
Version:Normal
Source:
Tags:Nicovideo kz Google Chrome Pokie Vocaloid

[Difficulty]
HPDrainRate:2
CircleSize:4
OverallDifficulty:4
ApproachRate:5
SliderMultiplier:1.2
SliderTickRate:1

[Events]
//Background and Video events
0,0,"BG.jpg"
//Break Periods
2,85874,91075
2,154883,163084
//Storyboard Layer 0 (Background)
//Storyboard Layer 1 (Fail)
//Storyboard Layer 2 (Pass)
//Storyboard Layer 3 (Foreground)
//Storyboard Sound Samples
//Background Colour Transformations
3,100,38,152,213

[TimingPoints]
1063,400.053340445393,4,2,1,20,1,0
4263,-100,4,2,1,30,0,0
7463,-100,4,2,1,40,0,0
10664,-100,4,2,1,50,0,0
13064,-100,4,2,1,60,0,0
13864,-100,4,2,1,40,0,0
14464,-100,4,2,1,30,0,0
15064,-100,4,2,1,25,0,0
15664,-100,4,2,1,20,0,0
16265,-100,4,2,1,15,0,0
16665,-100,4,2,1,25,0,0
17065,-100,4,2,1,40,0,0
17665,-100,4,2,1,30,0,0
18265,-100,4,2,1,25,0,0
18865,-100,4,2,1,20,0,0
19465,-100,4,2,1,15,0,0
19865,-100,4,2,1,25,0,0
20265,-100,4,2,1,40,0,0
20865,-100,4,2,1,30,0,0
21465,-100,4,2,1,25,0,0
22065,-100,4,2,1,20,0,0
22665,-100,4,2,1,15,0,0
23065,-100,4,2,1,25,0,0
23465,-100,4,2,1,40,0,0
24066,-100,4,2,1,30,0,0
24666,-100,4,2,1,40,0,0
25268,-100,4,2,1,5,0,0
25368,-100,4,2,1,50,0,0
25866,-100,4,2,1,60,0,0
39468,-100,4,2,1,70,0,0
53069,-100,4,2,1,50,0,0
53469,-100,4,2,1,70,0,0
53870,-100,4,1,1,80,0,1
66271,-100,4,2,1,80,0,0
66671,-100,4,1,1,80,0,1
79423,-100,4,2,1,80,0,0
79473,-100,4,2,1,80,0,1
85424,-100,4,2,1,80,0,0
85474,-100,4,2,1,40,0,1
85524,-100,4,2,1,80,0,0
111477,-100,4,2,1,60,0,0
113878,-100,4,2,2,40,0,0
114278,-100,4,2,1,50,0,0
115278,-100,4,2,2,50,0,0
115678,-100,4,2,2,30,0,0
116078,-100,4,2,1,50,0,0
116478,-100,4,2,2,40,0,0
117078,-100,4,2,1,50,0,0
118478,-100,4,2,2,40,0,0
118878,-100,4,2,2,50,0,0
119478,-100,4,2,1,50,0,0
120078,-100,4,2,1,40,0,0
120678,-100,4,2,1,50,0,0
121079,-100,4,2,1,80,0,0
125879,-100,4,1,1,80,0,1
138281,-100,4,2,1,80,0,0
138681,-100,4,1,1,80,0,1
151433,-100,4,2,1,80,0,0
151483,-100,4,2,1,80,0,1
151533,-100,4,2,1,80,0,0
186289,-100,4,1,1,80,0,0
186589,-100,4,2,1,80,0,0
193088,-100,4,1,1,80,0,1
205490,-100,4,2,1,80,0,0
205890,-100,4,1,1,80,0,1
218642,-100,4,2,1,80,0,0
218692,-100,4,2,1,80,0,1
224692,-100,4,2,1,30,0,1
224892,-100,4,1,1,80,0,1
231493,-100,4,2,2,70,0,0
234694,-100,4,2,1,5,0,0

[Colours]
Combo1 : 253,243,62
Combo2 : 157,236,70
Combo3 : 55,55,251
Combo4 : 242,0,0

[HitObjects]
431,108,1063,2,0,B|408:171|344:183,1,120,2|0
168,176,2063,2,0,B|104:168,2,60
277,126,2863,2,0,B|315:74,2,60
266,245,3663,2,0,B|291:304,2,60
238,185,4263,6,0,B|190:224|126:211,1,120,2|0
274,81,5263,2,0,B|298:26,2,60
290,199,6063,2,0,B|325:247,2,60
179,154,6863,2,0,B|119:160,2,60
244,147,7463,6,0,B|372:136,1,120,2|0
261,306,8463,2,0,B|244:336|233:362,2,60
350,208,9264,2,0,B|350:241|355:277,2,60
368,77,10064,2,0,B|396:87|430:96,2,60
306,53,10664,6,0,B|252:85|184:78,1,120,2|0
29,193,11664,2,0,B|99:193,2,60
151,242,12464,2,0,B|221:242,2,60
80,248,13064,2,0,B|93:302|138:309|138:309|168:309,1,120
305,305,13864,5,2
456,208,14464,1,0
407,34,15064,1,0
227,26,15664,1,0
158,192,16265,1,0
276,208,16665,1,0
372,137,17065,5,2
237,17,17665,1,0
69,83,18265,1,0
99,260,18865,1,0
276,292,19465,1,0
180,219,19865,1,0
98,307,20265,5,2
105,127,20865,1,0
281,89,21465,1,0
385,235,22065,1,0
273,376,22665,1,0
180,299,23065,1,0
235,192,23465,5,2
67,125,24066,1,0
212,19,24666,1,0
212,19,24866,2,0,B|263:62|255:126,2,120
153,50,25866,2,0,B|91:50,2,60
282,76,26666,6,0,B|349:59|397:106,1,120
472,208,27466,2,0,B|500:271|462:326,1,120
333,320,28266,2,0,B|271:319|208:328,1,120
94,269,29066,2,0,B|160:239|148:163,1,120
149,172,29666,1,0
246,83,30066,6,0,B|306:72,2,60
363,142,30866,2,0,B|428:137,2,60
476,210,31667,2,0,B|542:216,2,60
410,210,32267,6,0,B|348:200|304:256,1,120
314,319,32867,2,0,B|277:369|210:372,1,120
150,346,33467,2,0,B|90:346,1,60
63,216,34067,2,0,B|3:216,2,60
125,238,34667,6,0,B|184:205|168:128,1,120
284,70,35467,2,0,B|225:103|241:180,1,120
371,166,36267,1,0
502,156,36667,1,0
445,275,37067,2,0,B|427:340|349:336,1,120
298,300,37667,1,0
298,300,37867,2,0,B|243:320|176:305,1,120
88,210,38668,6,0,B|26:222,2,60
174,110,39468,2,0,B|236:126|236:126|296:111,1,120,8|2
414,157,40268,2,0,B|352:179,1,60,2|8
288,289,40868,1,2
418,238,41268,2,0,B|356:260,1,60,0|2
231,233,41868,2,0,B|205:250|172:249,1,60,2|8
108,242,42268,2,0,B|74:243|49:222,1,60,0|2
61,159,42668,6,0,B|124:136|131:67,1,120,8|2
253,21,43468,2,0,B|270:82,1,60,2|8
275,210,44068,1,2
355,105,44468,2,0,B|388:102|425:104,1,60,8|2
499,204,45068,1,2
499,204,45268,1,2
499,204,45468,2,0,B|500:243|495:271,1,60,8|2
467,323,45868,6,0,B|420:286|351:296,1,120,8|2
242,367,46669,2,0,B|177:360,1,60,2|8
57,317,47269,1,2
105,194,47669,2,0,B|169:180,1,60,0|2
181,50,48269,2,0,B|240:60,1,60,2|8
372,58,48869,5,2
308,39,49069,2,0,B|289:111|338:156,1,120,8|2
219,218,49869,2,0,B|247:245|280:254,1,60,2|8
396,216,50469,1,2
396,216,50669,2,0,B|451:260|443:324,1,120,8|2
311,321,51469,2,0,B|289:342|249:348,1,60,2|0
203,308,51869,2,0,B|172:321|129:310,1,60,2|0
107,258,52269,2,0,B|45:248|23:181,1,120,2|0
85,65,53069,6,0,B|207:65,1,120,0|4
337,62,53870,1,8
456,117,54270,2,0,B|453:186,1,60,8|0
364,274,54870,2,0,B|392:289|427:299,2,60,2|8|0
262,190,55670,1,0
143,249,56070,5,0
143,249,56270,2,0,B|133:281|134:316,1,60,8|2
175,358,56670,2,0,B|240:351,1,60,8|0
281,305,57070,2,0,B|327:353|396:332,1,120,8|8
391,333,57670,1,0
362,204,58070,1,2
450,106,58470,2,0,B|404:58|335:79,1,120
234,157,59270,5,0
234,157,59470,2,0,B|173:157,2,60,8|2|8
336,240,60270,2,0,B|376:194|448:208,1,120,8|8
445,207,60870,1,0
418,337,61271,1,2
336,240,61671,1,0
355,109,62071,1,0
242,39,62471,6,0,B|188:64|188:64|117:59,1,120,0|2
72,96,63071,2,0,B|22:127,1,60,8|0
5,191,63471,2,0,B|75:200|84:273,1,120,8|8
80,334,64071,1,0
80,334,64271,2,0,B|112:331|159:343|208:334,1,120,8|8
315,272,65071,2,0,B|376:281,3,60,8|8|8|8
439,288,65871,2,0,B|472:290,4,30,8|0|0|0|4
328,216,66671,6,0,B|280:256|200:232,1,120,8|8
128,336,67471,2,0,B|64:312|80:224,1,120,8|8
184,152,68271,1,8
145,25,68672,1,8
35,99,69072,6,0,B|71:93|104:96,1,60,8|2
155,121,69472,2,0,B|191:115|224:118,1,60,8|0
267,77,69872,2,0,B|312:121|390:106,1,120,8|8
440,84,70472,1,0
405,211,70872,2,0,B|438:328,2,120,2|0|0
274,193,72072,5,0
274,193,72272,2,0,B|260:257,2,60,8|2|8
347,83,73072,2,0,B|295:112|228:89,1,120,8|10
230,89,73672,1,0
122,14,74072,1,2
17,94,74472,2,0,B|69:136|50:206,1,120
10,327,75272,5,0
10,327,75472,2,0,B|70:334,1,60,8|2
105,278,75872,2,0,B|165:279,1,60,8|0
189,217,76273,2,0,B|252:243|317:214,1,120,8|10
390,116,77073,2,0,B|512:135,1,120,8|10
402,213,77873,1,8
402,213,78273,5,8
402,213,78473,1,8
402,213,78673,2,0,B|384:270,2,60,8|0|0
286,149,79473,1,8
256,192,79573,12,8,81473
256,192,81873,12,4,85474
224,264,92275,6,0,B|160:280|96:280,1,120,8|2
21,178,93075,2,0,B|85:184,1,60,2|8
187,106,93675,1,2
303,167,94075,2,0,B|307:203,2,30,0|0|2
308,35,94675,2,0,B|287:65|272:94,1,60,0|2
214,202,95275,1,2
214,202,95475,6,0,B|255:246|329:235,1,120,8|2
422,147,96275,2,0,B|481:154,1,60,2|8
496,285,96875,2,0,B|377:270,1,120,2|0
376,269,97475,1,0
265,199,97875,2,0,B|201:213,2,60
388,152,98676,5,8
388,152,99076,1,8
274,84,99476,1,8
274,84,99876,1,8
153,138,100276,2,0,B|112:194|143:250,1,120,8|8
143,250,100876,1,0
143,250,101076,2,0,B|203:265,1,60,8|0
239,318,101476,2,0,B|302:306,1,60,8|0
335,252,101876,6,0,B|372:300|442:296,1,120,8|8
441,296,102476,1,0
432,164,102876,2,0,B|500:164,2,60,0|8|0
440,32,103676,2,0,B|370:28|333:76,1,120
333,75,104276,1,8
295,201,104676,6,0,B|233:201,1,60,8|0
169,204,105076,2,0,B|210:262|170:318,1,120,8|8
171,315,105676,1,0
49,265,106077,2,0,B|-27:265,2,60,0|8|0
114,265,106677,6,0,B|175:267|240:265,1,120,8|8
318,163,107477,2,0,B|381:172|448:164,1,120,8|8
508,276,108277,1,8
379,244,108677,1,8
298,348,109077,2,0,B|265:351|233:348,1,60,8|0
185,308,109477,2,0,B|150:309|121:300,1,60,8|0
98,241,109877,2,0,B|29:224|-21:274,1,120,8|8
71,367,110677,6,0,B|131:364,2,60,8|0|4
168,277,111477,2,0,B|227:299|288:276,1,120,8|0
417,279,112277,2,0,B|458:233|446:166,1,120
403,42,113077,2,0,B|324:89|223:57,1,180
229,58,113878,1,0
117,128,114278,2,0,B|50:128,2,60,2|0|0
310,168,115278,5,2
440,147,115678,1,2
468,275,116078,1,2
338,300,116478,1,2
206,315,116878,5,0
206,315,117078,2,0,B|148:335|88:314,1,120
55,256,117678,2,0,B|53:192|108:149,1,120
104,151,118278,2,0,B|169:152,1,60,0|2
296,154,118878,1,2
372,261,119278,5,0
372,261,119478,2,0,B|362:325|288:339,1,120
226,347,120078,1,2
106,290,120478,2,0,B|86:230,1,60,0|2
110,171,120878,1,0
110,171,121079,2,0,B|166:195|235:168,1,120
347,117,121879,2,0,B|403:93|472:120,1,120
453,248,122679,2,0,B|468:308,2,60
325,212,123479,2,0,B|281:258|207:254,2,120
91,89,125079,6,0,B|219:103,1,120,0|4
342,108,125879,1,8
265,215,126279,2,0,B|267:275,1,60,8|0
161,353,126879,2,0,B|103:364,2,60,2|8|0
290,326,127679,1,0
197,232,128079,5,0
197,232,128279,2,0,B|162:228|136:228,1,60,8|2
71,219,128680,2,0,B|70:156,1,60,8|0
70,93,129080,2,0,B|139:106|187:60,1,120,8|8
182,64,129680,1,0
307,104,130080,2,0,B|366:95|434:107,2,120,2|0|0
220,203,131280,6,0,B|152:208,2,60,0|8|2
285,211,131880,2,0,B|256:277|300:328,1,120,8|8
428,322,132680,1,8
428,322,132880,2,0,B|457:256|413:205,1,120,0|2
320,120,133680,2,0,B|291:186|335:237,2,120
416,32,134880,6,0,B|472:48,2,60,2|8|0
354,9,135480,2,0,B|315:57|236:42,1,120,8|8
181,23,136081,1,0
181,23,136281,2,0,B|165:84|85:84,1,120,8|8
22,81,136881,1,0
22,81,137081,2,0,B|29:145,3,60,8|8|8|8
39,205,137881,2,0,B|45:245,4,30,8|0|0|0|4
152,273,138681,6,0,B|275:257,1,120,8|8
336,249,139281,1,0
436,163,139681,1,2
372,47,140081,2,0,B|253:62,1,120
187,72,140681,2,0,B|127:79,1,60,8|0
62,89,141081,2,0,B|2:96,2,60,8|2|8
51,220,141881,6,0,B|118:204|161:259,1,120,8|8
186,315,142481,2,0,B|304:293,3,120,0|2|0|0
395,197,144082,5,0
395,197,144282,2,0,B|456:211,2,60,8|2|8
276,139,145082,2,0,B|324:98|300:20,1,120,8|10
302,29,145682,1,0
174,61,146082,1,2
276,139,146482,1,0
224,260,146882,1,0
94,236,147282,5,0
94,236,147482,2,0,B|56:188|78:121,1,120,8|8
143,115,148082,2,0,B|204:108,1,60,0|8
303,193,148682,2,0,B|244:200,1,60,10|0
182,225,149082,2,0,B|232:263|231:335,1,120,8|8
231,329,149682,1,0
231,329,149882,5,8
344,305,150282,2,0,B|373:307|404:285,1,60,8|8
465,276,150682,1,8
465,276,150882,1,0
465,276,151083,2,0,B|492:332,2,60,0|0|4
256,192,151583,12,0,154683
80,268,164284,6,0,B|136:288|202:273,1,120,10|0
257,244,164884,2,0,B|282:229|320:226,1,60,2|0
411,137,165484,2,0,B|442:139|473:145,1,60,2|0
347,194,166085,5,2
430,280,166485,1,0
430,280,166685,2,0,B|368:261|306:284,1,120,2|2
257,318,167285,1,0
257,318,167485,2,0,B|200:286|141:308,1,120,10|0
77,325,168085,2,0,B|48:278|48:278|56:212,2,120,2|8|0
186,251,169285,6,0,B|304:227,1,120,2|0
368,215,169885,1,2
436,101,170285,1,2
342,8,170685,2,0,B|297:46|228:36,1,120,10|0
165,17,171285,1,2
50,83,171685,2,0,B|50:150,1,60,8|2
235,213,172485,2,0,B|235:280,1,60,2|0
353,165,173085,6,0,B|353:232,2,60,2|0|2
382,105,173686,1,0
382,105,173886,2,0,B|425:145|495:136,1,120,10|0
493,136,174486,1,2
476,266,174886,2,0,B|476:333,1,60,0|2
356,270,175486,1,0
356,270,175686,2,0,B|285:339|180:322,1,180,2|2
125,314,176486,5,0
125,314,176686,2,0,B|108:250,1,60,2|0
148,202,177086,2,0,B|208:216|208:216|272:202,1,120,2|0
265,203,177686,1,2
376,133,178086,2,0,B|440:146,1,60,0|2
452,275,178686,2,0,B|516:288,1,60,0|2
412,205,179286,5,0
412,205,179486,2,0,B|292:231,1,120,2|2
230,245,180086,1,0
230,245,180286,2,0,B|236:180|182:140,1,120,10|0
130,101,180886,2,0,B|82:147|94:212,2,120,2|0|0
261,118,182087,6,0,B|377:90,1,120,2|0
377,89,182687,2,0,B|439:76,1,60,2|0
437,142,183087,2,0,B|498:128,1,60,2|0
497,194,183487,2,0,B|372:221,1,120,10|0
379,219,184087,1,2
250,248,184487,1,8
120,275,184887,1,0
56,159,185287,6,0,B|-3:173,1,60,2|0
128,140,185887,1,2
254,101,186287,2,0,B|244:69,2,30,2|2|2
252,166,186687,2,0,B|307:137|368:149,1,120,2|0
425,176,187287,1,2
436,307,187687,1,0
436,307,187887,2,0,B|387:343|314:329,1,120,2|0
284,276,188487,2,0,B|221:284|173:233,1,120,2|0
188,170,189088,2,0,B|167:48,2,120,2|0|0
256,192,189988,12,0,191888
348,135,192688,5,4
348,135,193088,2,0,B|363:255,1,120,8|8
372,319,193688,2,0,B|308:309|256:352,1,120,0|2
129,369,194488,1,0
43,268,194888,2,0,B|117:174,1,120
113,107,195488,6,0,B|146:111|176:104,1,60,8|2
238,99,195888,1,8
238,99,196089,1,0
238,99,196289,2,0,B|294:136|367:121,1,120,0|8
409,89,196889,2,0,B|458:203,2,120,0|2|0
294,23,198089,2,0,B|240:47|174:38,1,120
126,81,198689,6,0,B|67:91,2,60,8|2|8
220,172,199489,2,0,B|268:134|337:140,1,120,8|8
386,177,200089,2,0,B|378:245|424:290,2,120,0|2|0
470,75,201289,1,0
345,30,201689,6,0,B|293:56|293:56|229:45,1,120,0|2
167,30,202289,2,0,B|109:48,1,60,8|0
61,92,202689,2,0,B|100:140|74:208,1,120,8|8
29,253,203289,1,0
29,253,203489,2,0,B|101:238|141:296,1,120,8|8
161,350,204090,1,0
161,350,204290,6,0,B|224:350,3,60,8|8|8|8
286,354,205090,2,0,B|321:356,4,30,8|8|8|0|4
392,280,205890,6,0,B|448:248|448:176,1,120,8|8
447,180,206490,1,0
356,85,206890,2,0,B|235:100,2,120,2|0|0
421,79,207890,2,0,B|405:116|405:147,1,60,8|0
341,151,208290,2,0,B|332:185|352:216,1,60,8|2
320,268,208690,5,8
320,268,208890,1,0
320,268,209090,2,0,B|275:309|201:307,1,120,8|8
143,300,209690,1,0
54,202,210090,2,0,B|79:147|79:147|64:83,2,120,2|0|0
185,216,211291,5,0
185,216,211491,2,0,B|125:228,2,60,8|0|8
314,188,212291,2,0,B|359:230|436:223,1,120,8|8
489,209,212891,1,2
395,115,213291,1,0
362,242,213691,2,0,B|247:271,1,120
144,186,214491,5,0
144,186,214691,2,0,B|120:161|112:128,1,60,8|2
164,92,215091,2,0,B|158:58|166:27,1,60,8|0
228,15,215491,2,0,B|272:55|346:42,1,120,8|10
401,17,216091,1,0
401,17,216291,2,0,B|378:84|432:131,1,120,8|8
484,159,216891,5,0
484,159,217091,2,0,B|475:223,1,60,8|8
409,219,217491,2,0,B|395:281,1,60,8|8
330,289,217891,1,8
330,289,218091,1,0
330,289,218291,2,0,B|299:349,2,60,0|0|8
256,192,218792,12,4,224692
232,212,225092,37,8
311,317,225492,2,0,B|374:313,1,60,10|0
469,224,226093,1,2
469,224,226293,2,0,B|413:193|416:117,1,120,8|8
386,64,226893,2,0,B|330:84,2,60,0|10|0
447,39,227493,6,0,B|484:84,1,60,8|2
449,140,227893,2,0,B|486:185,1,60,8|0
469,249,228293,2,0,B|436:300|350:290,1,120,8|10
313,248,228893,2,0,B|246:241|220:180,1,120
241,118,229493,2,0,B|300:93,1,60,8|0
412,157,230093,5,0
412,157,230293,2,0,B|423:187|414:221,1,60,10|0
355,244,230693,2,0,B|346:275|358:305,1,60,8|2
413,336,231093,1,8
413,336,231493,1,2
256,192,231593,12,0,234694
