osu file format v9

[General]
AudioFilename: livetune feat. Hatsune Miku - Tell Your World.mp3
AudioLeadIn: 1000
PreviewTime: 52769
Countdown: 0
SampleSet: Soft
StackLeniency: 0.7
Mode: 0
LetterboxInBreaks: 0

[Editor]
DistanceSpacing: 1.4
BeatDivisor: 8
GridSize: 8

[Metadata]
Title:Tell Your World
Artist:livetune feat. Hatsune Miku
Creator:Colin Hou
Version:Insane
Source:
Tags:Nicovideo kz Google Chrome Pokie Vocaloid

[Difficulty]
HPDrainRate:6
CircleSize:4
OverallDifficulty:8
ApproachRate:8
SliderMultiplier:1.8
SliderTickRate:1

[Events]
//Background and Video events
0,0,"BG.jpg"
//Break Periods
2,85874,91525
//Storyboard Layer 0 (Background)
//Storyboard Layer 1 (Fail)
//Storyboard Layer 2 (Pass)
//Storyboard Layer 3 (Foreground)
//Storyboard Sound Samples
//Background Colour Transformations
3,100,38,152,213

[TimingPoints]
1063,400.053340445393,4,2,1,20,1,0
4263,-100,4,2,1,30,0,0
7463,-100,4,2,1,40,0,0
10664,-100,4,2,1,50,0,0
13064,-200,4,2,1,60,0,0
13364,-200,4,2,1,5,0,0
13864,-200,4,2,1,40,0,0
14464,-200,4,2,1,30,0,0
15064,-200,4,2,1,25,0,0
15664,-200,4,2,1,20,0,0
16265,-200,4,2,1,15,0,0
16665,-200,4,2,1,25,0,0
17065,-200,4,2,1,40,0,0
17665,-200,4,2,1,30,0,0
18265,-200,4,2,1,25,0,0
18865,-200,4,2,1,20,0,0
19465,-200,4,2,1,15,0,0
19865,-200,4,2,1,25,0,0
20265,-200,4,2,1,40,0,0
20865,-200,4,2,1,30,0,0
21465,-200,4,2,1,25,0,0
22065,-200,4,2,1,20,0,0
22665,-200,4,2,1,15,0,0
23065,-200,4,2,1,25,0,0
23465,-200,4,2,1,40,0,0
24066,-200,4,2,1,30,0,0
24666,-200,4,2,1,40,0,0
25268,-200,4,2,1,5,0,0
25368,-200,4,2,1,50,0,0
25866,-100,4,2,1,60,0,0
35767,-100,4,2,1,5,0,0
35867,-100,4,2,1,60,0,0
39468,-83.3333333333333,4,2,1,70,0,0
39868,-133.333333333333,4,2,1,70,0,0
49069,-100,4,2,1,70,0,0
53069,-100,4,2,1,50,0,0
53469,-133.333333333333,4,2,1,70,0,0
53870,-83.3333333333333,4,2,1,80,0,1
54870,-83.3333333333333,4,1,1,80,0,1
54970,-83.3333333333333,4,2,1,80,0,1
55870,-83.3333333333333,4,1,1,80,0,1
55970,-83.3333333333333,4,2,1,80,0,1
56670,-66.6666666666667,4,1,2,80,0,1
56770,-66.6666666666667,4,1,1,80,0,1
56970,-66.6666666666667,4,2,1,80,0,1
58070,-66.6666666666667,4,1,1,80,0,1
58170,-66.6666666666667,4,2,1,80,0,1
59470,-83.3333333333333,4,2,1,80,0,1
59670,-66.6666666666667,4,1,1,80,0,1
59770,-66.6666666666667,4,2,1,80,0,1
61271,-66.6666666666667,4,1,1,80,0,1
61371,-66.6666666666667,4,2,1,80,0,1
62671,-83.3333333333333,4,2,1,80,0,1
63071,-83.3333333333333,4,1,2,80,0,1
63171,-83.3333333333333,4,1,1,80,0,1
63371,-83.3333333333333,4,2,1,80,0,1
64471,-83.3333333333333,4,1,1,80,0,1
64571,-83.3333333333333,4,2,1,80,0,1
65471,-83.3333333333333,4,1,1,80,0,1
65571,-83.3333333333333,4,2,1,80,0,1
66271,-83.3333333333333,4,2,1,80,0,0
66671,-83.3333333333333,4,2,1,80,0,1
67671,-83.3333333333333,4,1,1,80,0,1
67771,-83.3333333333333,4,2,1,80,0,1
69472,-83.3333333333333,4,1,2,80,0,1
69572,-83.3333333333333,4,1,1,80,0,1
69872,-66.6666666666667,4,2,1,80,0,1
70872,-66.6666666666667,4,1,1,80,0,1
70972,-66.6666666666667,4,2,1,80,0,1
72472,-66.6666666666667,4,1,1,80,0,1
72572,-66.6666666666667,4,2,1,80,0,1
73472,-66.6666666666667,4,1,1,80,0,1
73572,-66.6666666666667,4,2,1,80,0,1
74072,-66.6666666666667,4,1,1,70,0,1
74172,-66.6666666666667,4,2,1,80,0,1
75072,-66.6666666666667,4,1,1,80,0,1
75172,-66.6666666666667,4,2,1,80,0,1
75672,-66.6666666666667,4,1,1,80,0,1
75872,-66.6666666666667,4,1,2,80,0,1
75972,-66.6666666666667,4,1,1,80,0,1
76173,-66.6666666666667,4,2,1,80,0,1
76673,-66.6666666666667,4,1,1,80,0,1
76773,-66.6666666666667,4,2,1,80,0,1
77273,-66.6666666666667,4,1,1,80,0,1
79073,-66.6666666666667,4,2,1,80,0,1
79073,-66.6666666666667,4,2,1,30,0,1
79123,-66.6666666666667,4,2,1,80,0,1
79423,-66.6666666666667,4,2,1,80,0,0
79473,-50,4,2,1,80,0,1
82073,-50,4,1,1,80,0,1
82273,-50,4,1,2,80,0,1
82373,-50,4,1,1,80,0,1
82573,-50,4,2,1,80,0,1
85424,-50,4,2,1,80,0,0
85474,-50,4,2,1,40,0,1
85524,-50,4,2,1,80,0,0
92275,-100,4,2,1,80,0,0
98676,-83.3333333333333,4,2,1,80,0,0
101078,-83.3333333333333,4,1,1,80,0,0
101178,-83.3333333333333,4,2,1,80,0,0
106677,-100,4,2,1,80,0,0
111477,-133.333333333333,4,2,1,60,0,0
113878,-133.333333333333,4,2,2,40,0,0
114278,-133.333333333333,4,2,1,50,0,0
115278,-133.333333333333,4,2,2,50,0,0
115678,-133.333333333333,4,2,2,30,0,0
116078,-133.333333333333,4,2,1,50,0,0
116478,-133.333333333333,4,2,2,40,0,0
117078,-133.333333333333,4,2,1,50,0,0
117678,-100,4,2,1,50,0,0
118478,-100,4,2,2,40,0,0
118878,-100,4,2,2,50,0,0
119478,-133.333333333333,4,2,1,50,0,0
120078,-133.333333333333,4,2,1,40,0,0
120678,-133.333333333333,4,2,1,50,0,0
121079,-100,4,2,1,80,0,0
125879,-83.3333333333333,4,2,1,80,0,1
126881,-83.3333333333333,4,1,1,80,0,1
126981,-83.3333333333333,4,2,1,80,0,1
128682,-83.3333333333333,4,1,2,80,0,1
128782,-83.3333333333333,4,1,1,80,0,1
129080,-66.6666666666667,4,2,1,80,0,1
130082,-66.6666666666667,4,1,1,80,0,1
130182,-66.6666666666667,4,2,1,80,0,1
131682,-66.6666666666667,4,1,1,80,0,1
131782,-66.6666666666667,4,2,1,80,0,1
133282,-66.6666666666667,4,1,1,80,0,1
133382,-66.6666666666667,4,2,1,80,0,1
133982,-66.6666666666667,4,2,1,10,0,1
134082,-66.6666666666667,4,2,1,80,0,1
135282,-66.6666666666667,4,1,1,80,0,1
135382,-66.6666666666667,4,2,1,80,0,1
136483,-66.6666666666667,4,1,1,80,0,1
136583,-66.6666666666667,4,2,1,80,0,1
138281,-66.6666666666667,4,2,1,80,0,0
138681,-66.6666666666667,4,2,1,80,0,1
139683,-66.6666666666667,4,1,1,80,0,1
139783,-66.6666666666667,4,2,1,80,0,1
141481,-66.6666666666667,4,1,2,80,0,1
141583,-66.6666666666667,4,1,1,80,0,1
141783,-66.6666666666667,4,2,1,80,0,1
142883,-66.6666666666667,4,1,1,80,0,1
142983,-66.6666666666667,4,2,1,80,0,1
143884,-66.6666666666667,4,1,1,80,0,1
143984,-66.6666666666667,4,2,1,80,0,1
145484,-66.6666666666667,4,1,1,80,0,1
145584,-66.6666666666667,4,2,1,80,0,1
146084,-66.6666666666667,4,1,1,80,0,1
146184,-66.6666666666667,4,2,1,80,0,1
147884,-66.6666666666667,4,1,2,80,0,1
147984,-66.6666666666667,4,1,1,80,0,1
148284,-66.6666666666667,4,2,1,80,0,1
151433,-66.6666666666667,4,2,1,80,0,0
151483,-66.6666666666667,4,2,1,80,0,1
151533,-66.6666666666667,4,2,1,80,0,0
151883,-100,4,2,1,80,0,0
163484,-133.333333333333,4,2,1,80,0,0
169687,-133.333333333333,4,1,1,80,0,0
169887,-133.333333333333,4,1,2,80,0,0
169987,-133.333333333333,4,2,1,80,0,0
172085,-111.111111111111,4,2,1,80,0,0
172685,-133.333333333333,4,2,1,80,0,0
179888,-133.333333333333,4,1,2,80,0,0
179988,-133.333333333333,4,1,1,80,0,0
180188,-133.333333333333,4,2,1,80,0,0
182489,-133.333333333333,4,1,1,60,0,0
182689,-133.333333333333,4,1,2,60,0,0
182789,-133.333333333333,4,1,1,60,0,0
183063,-100,4,2,1,80,0,0
183889,-100,4,1,1,80,0,0
184089,-100,4,2,1,80,0,0
192690,-100,4,2,1,80,0,0
193088,-83.3333333333333,4,2,1,80,0,1
194090,-83.3333333333333,4,1,1,80,0,1
194190,-83.3333333333333,4,2,1,80,0,1
195890,-83.3333333333333,4,1,2,80,0,1
195990,-83.3333333333333,4,1,1,80,0,1
196289,-66.6666666666667,4,2,1,80,0,1
197291,-66.6666666666667,4,1,1,80,0,1
197391,-66.6666666666667,4,2,1,80,0,1
198291,-66.6666666666667,4,1,1,80,0,1
198391,-66.6666666666667,4,2,1,80,0,1
200491,-66.6666666666667,4,1,1,80,0,1
200591,-66.6666666666667,4,2,1,80,0,1
203692,-66.6666666666667,4,1,1,80,0,1
203792,-66.6666666666667,4,2,1,80,0,1
205490,-66.6666666666667,4,2,1,80,0,0
205890,-66.6666666666667,4,2,1,80,0,1
206692,-66.6666666666667,4,1,1,80,0,1
207092,-66.6666666666667,4,2,1,80,0,1
208892,-66.6666666666667,4,1,1,80,0,1
208992,-66.6666666666667,4,2,1,80,0,1
210092,-66.6666666666667,4,1,1,80,0,1
210192,-66.6666666666667,4,2,1,80,0,1
212693,-66.6666666666667,4,1,1,80,0,1
212793,-66.6666666666667,4,2,1,80,0,1
213293,-66.6666666666667,4,1,1,80,0,1
213393,-66.6666666666667,4,2,1,80,0,1
214293,-66.6666666666667,4,1,1,80,0,1
214393,-66.6666666666667,4,2,1,80,0,1
214893,-66.6666666666667,4,1,1,80,0,1
215093,-66.6666666666667,4,1,2,80,0,1
215093,-66.6666666666667,4,1,1,80,0,1
215193,-66.6666666666667,4,1,1,80,0,1
215393,-66.6666666666667,4,2,1,80,0,1
215893,-66.6666666666667,4,1,1,80,0,1
215993,-66.6666666666667,4,2,1,80,0,1
216493,-66.6666666666667,4,1,1,80,0,1
216593,-66.6666666666667,4,2,1,80,0,1
218642,-66.6666666666667,4,2,1,80,0,0
218692,-50,4,2,1,80,0,1
221092,-66.6666666666667,4,2,1,80,0,1
221294,-66.6666666666667,4,1,1,80,0,1
221494,-66.6666666666667,4,1,2,80,0,1
221694,-66.6666666666667,4,2,1,80,0,1
224692,-66.6666666666667,4,2,1,30,0,1
225094,-66.6666666666667,4,2,1,80,0,1
225194,-66.6666666666667,4,1,1,80,0,1
225694,-66.6666666666667,4,2,1,80,0,1
226095,-66.6666666666667,4,1,1,80,0,1
226195,-66.6666666666667,4,2,1,80,0,1
227095,-66.6666666666667,4,1,1,80,0,1
227195,-66.6666666666667,4,2,1,80,0,1
227695,-66.6666666666667,4,1,1,80,0,1
227895,-66.6666666666667,4,1,2,80,0,1
227995,-66.6666666666667,4,1,1,80,0,1
228195,-66.6666666666667,4,2,1,80,0,1
228695,-66.6666666666667,4,1,1,80,0,1
228795,-66.6666666666667,4,2,1,80,0,1
229295,-66.6666666666667,4,1,1,80,0,1
229395,-66.6666666666667,4,2,1,80,0,1
230295,-66.6666666666667,4,1,1,80,0,1
230395,-66.6666666666667,4,2,1,80,0,1
230895,-66.6666666666667,4,1,1,80,0,1
230995,-66.6666666666667,4,2,1,80,0,1
231493,-66.6666666666667,4,2,2,70,0,0
234694,-66.6666666666667,4,2,1,5,0,0

[Colours]
Combo1 : 253,243,62
Combo2 : 157,236,70
Combo3 : 55,55,251
Combo4 : 242,0,0

[HitObjects]
164,259,1063,1,2
256,293,1263,1,0
164,259,1463,1,0
90,325,1663,6,0,B|192:336|248:247,1,180
258,155,2263,1,0
145,157,2463,6,0,B|212:235|312:192,1,180
385,131,3063,1,0
337,282,3263,6,0,B|438:270|471:178,1,180
409,100,3863,1,0
459,15,4063,1,0
317,62,4263,6,0,B|269:64|227:70,1,90,2|0
177,156,4663,1,0
410,221,4863,6,0,B|323:228|231:238,1,180
132,251,5463,1,0
21,316,5663,6,0,B|99:375|191:330,1,180
238,243,6263,1,0
451,168,6463,6,0,B|373:109|282:154,1,180
213,226,7063,2,0,B|214:272|217:315,1,90
125,181,7463,5,2
73,265,7663,1,0
13,173,7863,1,0
197,237,8063,6,0,B|276:277|376:229,1,180
370,231,8664,1,0
441,346,8864,6,0,B|496:269|451:175,1,180
356,145,9464,1,0
288,32,9664,6,0,B|233:109|278:203,1,180
282,206,10264,2,0,B|271:297,1,90
141,247,10664,5,2
46,275,10864,1,0
168,304,11064,1,0
220,189,11264,6,0,B|302:154|403:178,1,180
477,233,11864,1,0
477,233,12064,1,0
229,114,12464,5,0
141,160,12664,1,0
301,181,12864,1,0
256,266,13064,6,0,B|252:296|236:321|236:321|246:252|220:200,1,180,0|2
209,183,14064,1,0
192,168,14264,1,0
39,133,14464,5,0
36,159,14664,1,0
33,185,14864,1,0
170,296,15064,5,0
195,271,15264,1,0
213,240,15464,1,0
293,47,15664,5,0
301,86,15864,1,0
324,118,16065,1,0
451,199,16265,6,0,B|500:196,1,45
297,265,16665,2,0,B|252:267,1,45
89,94,17065,5,2
116,88,17265,1,0
143,82,17465,1,0
381,135,17665,5,0
391,164,17865,1,0
401,193,18065,1,0
300,327,18265,5,0
268,322,18465,1,0
236,318,18665,1,0
208,176,18865,5,0
221,147,19065,1,0
235,118,19265,1,0
102,50,19465,6,0,B|104:101,1,45
270,237,19865,2,0,B|314:227,1,45
385,109,20265,5,2
416,105,20465,1,0
447,101,20665,1,0
287,144,20865,5,0
256,137,21065,1,0
225,131,21265,1,0
58,250,21465,5,0
93,246,21665,1,0
128,243,21865,1,0
312,240,22065,5,0
285,264,22265,1,0
258,288,22465,1,0
124,165,22665,6,0,B|113:218,1,45,0|0
268,168,23065,2,0,B|315:157,1,45
444,109,23465,5,2
446,140,23666,1,0
448,171,23866,1,0
301,222,24066,5,0
296,253,24266,1,0
292,284,24466,1,0
151,164,24666,5,0
296,46,24866,2,0,B|349:55|392:48,2,90
472,77,25866,6,0,B|450:124|403:129,1,90
211,136,26266,1,0
308,88,26466,1,0
110,88,26666,6,0,B|14:80,1,90
148,175,27066,2,0,B|56:185,1,90
255,161,27466,1,0
208,258,27666,1,0
276,341,27866,2,0,B|320:360|368:349,1,90
499,267,28266,2,0,B|420:220|326:248,1,180
136,200,28866,1,0
241,178,29066,6,0,B|291:172|332:154,2,90
0,104,29666,2,0,B|80:48|170:106,1,180
136,200,30266,1,0
241,178,30466,1,0
254,149,30866,5,0
210,257,31067,1,0
326,241,31267,1,0
341,208,31667,5,0
286,331,31867,1,0
420,315,32067,1,0
420,315,32267,6,0,B|459:282|456:232,1,90
358,171,32667,1,0
393,59,32867,2,0,B|332:98|217:64,1,180
102,84,33467,1,0
102,84,33667,1,0
33,307,34067,5,0
33,307,34267,2,0,B|82:306|119:266,1,90
167,177,34667,2,0,B|227:248|332:240,1,180
468,75,35467,2,0,B|380:68|336:117,1,135
342,110,35867,2,0,B|307:144|300:196,1,90
257,376,36267,6,0,B|359:360|379:261,1,180
349,157,36867,1,0
319,53,37067,2,0,B|267:56|227:30,2,90
423,81,37667,1,0
245,135,37867,2,0,B|219:220|105:239,1,180
8,199,38467,5,0
114,181,38668,1,0
59,274,38868,1,0
222,162,39068,1,0
117,346,39268,1,0
165,79,39468,6,0,B|271:50|382:42,1,216.000005149841,8|2
475,88,40268,1,2
475,88,40468,1,8
402,168,40868,1,2
402,168,41068,2,0,B|398:243,1,67.4999979883433,0|8
325,284,41468,2,0,B|259:257,1,67.4999979883433,2|0
181,224,41868,5,2
95,183,42068,1,8
18,237,42268,1,0
102,278,42468,1,2
181,224,42668,2,0,B|237:182|316:200,1,134.999995976687,8|2
386,240,43468,5,2
386,240,43668,1,8
336,312,44068,2,0,B|299:373|216:368,1,134.999995976687,2|8
135,347,44668,1,2
188,277,44868,1,0
201,259,44968,1,0
214,241,45068,2,0,B|198:101,1,134.999995976687,2|0
173,22,45668,1,2
173,22,45868,2,0,B|188:156,1,134.999995976687,8|2
213,330,46669,5,2
213,330,46869,1,8
290,276,47269,1,2
290,276,47469,2,0,B|318:348|395:352,1,134.999995976687,0|0
512,236,48069,2,0,B|484:164|407:160,1,134.999995976687,2|0
319,188,48669,2,0,B|252:181,1,67.4999979883433,0|2
33,122,49069,6,0,B|121:146|208:101,1,180,8|2
284,37,49669,1,0
238,202,49869,2,0,B|329:163|415:220,1,180,2|0
476,289,50469,1,0
397,349,50669,6,0,B|352:346,3,45
313,314,51069,2,0,B|273:336|216:336,1,90,2|0
57,216,51469,2,0,B|112:253|192:253,1,135,2|0
230,247,51869,1,0
230,148,52069,5,0
252,108,52169,1,0
285,78,52269,1,0
325,59,52369,1,0
369,56,52469,2,0,B|420:63,2,45
228,34,52869,5,0
140,156,53069,2,0,B|129:205|144:252,1,90
304,308,53469,2,0,B|334:285|345:253,1,67.4999979883433,4|0
239,226,53870,6,0,B|318:255|406:215,1,162.000003862381,10|0
446,197,54270,1,8
510,110,54470,1,2
417,28,54670,6,0,B|396:93|438:136,1,108.000002574921,8|2
299,293,55070,2,0,B|358:266|359:210,1,108.000002574921,10|0
135,55,55470,1,8
241,70,55670,1,2
455,175,55870,1,10
348,166,56070,1,0
114,244,56270,6,0,B|96:299|138:345,1,108.000002574921,10|0
385,235,56670,1,10
418,217,56770,1,2
451,200,56870,2,0,B|504:152|472:72,1,134.999995976687,2|10
196,64,57270,1,0
377,127,57470,2,0,B|320:163|241:137,1,134.999995976687,8|2
208,150,57770,1,0
167,146,57870,2,0,B|121:134|96:88|105:40,1,134.999995976687,8|2
411,43,58270,2,0,B|457:55|482:101|473:149,1,134.999995976687,10|0
182,188,58670,5,8
377,127,58870,1,2
256,289,59070,1,8
256,86,59270,1,0
373,251,59470,2,0,B|400:251|428:246,1,54.0000012874604,10|0
340,292,59670,6,0,B|414:289|480:312,2,134.999995976687,2|10|0
45,221,60270,2,0,B|148:256|243:212,1,202.49999396503,10|0
273,147,60670,2,0,B|262:214|262:214|281:248|263:291,1,134.999995976687,8|2
105,363,61071,2,0,B|116:296|116:296|97:262|115:219,1,134.999995976687,8|2
354,177,61471,1,10
192,252,61671,1,0
296,110,61871,2,0,B|329:81|368:88|368:88|427:102,1,134.999995976687,8|2
168,118,62271,6,0,B|224:132|224:132|263:139|296:110,1,134.999995976687,8|0
324,93,62571,1,0
350,87,62671,2,0,B|454:113,1,108.000002574921,10|0
225,183,63071,1,10
199,190,63171,1,2
173,197,63271,1,2
147,204,63371,1,0
121,211,63471,2,0,B|16:236,2,108.000002574921,10|0|8
287,164,64071,1,2
397,296,64271,6,0,B|288:282,1,108.000002574921,8|2
115,88,64671,2,0,B|224:102,1,108.000002574921,10|0
351,105,65071,5,8
161,279,65271,1,10
371,228,65471,1,10
141,156,65671,1,8
263,24,65871,5,10
257,45,65971,1,8
251,66,66071,1,8
245,87,66171,1,0
240,108,66271,2,0,B|255:214,1,108.000002574921,4|0
140,305,66671,6,0,B|169:200,2,108.000002574921,10|0|8
91,139,67271,2,0,B|131:97|197:108,1,108.000002574921,2|8
355,282,67671,2,0,B|315:324|249:313,1,108.000002574921,2|10
168,200,68071,2,0,B|275:217,2,108.000002574921,0|8|2
41,176,68672,1,8
326,120,68872,5,0
342,148,68972,1,0
358,175,69072,2,0,B|464:191,1,108.000002574921,10|0
331,333,69472,1,10
317,304,69572,1,2
303,275,69672,1,2
289,246,69772,1,0
275,217,69872,2,0,B|142:196,1,134.999995976687,10|0
42,288,70272,1,8
175,268,70472,6,0,B|220:250|235:184|201:135,2,134.999995976687,2|8|2
93,70,71072,2,0,B|142:196,1,134.999995976687,10|0
211,342,71472,1,8
364,289,71672,2,0,B|497:238,2,134.999995976687,2|8|0
226,146,72272,5,10
422,180,72472,1,2
422,180,72572,1,0
422,180,72672,1,10
249,266,72872,1,0
336,95,73072,2,0,B|403:130|470:98,1,134.999995976687,10|0
489,86,73372,1,0
506,65,73472,6,0,B|484:111|512:152|512:152|491:207,1,134.999995976687,10|2
281,341,73872,2,0,B|233:357|195:325|195:325|153:336,1,134.999995976687,8|2
251,62,74272,2,0,B|298:46|336:78|336:78|379:66,2,134.999995976687,10|0|8
249,266,74872,5,2
282,135,75072,1,10
378,230,75272,1,0
152,170,75472,5,10
333,118,75672,1,2
284,305,75872,1,10
245,316,75972,1,2
205,327,76073,1,2
166,338,76173,1,0
127,349,76273,6,0,B|61:340|61:340|16:284,1,134.999995976687,10|0
180,53,76673,2,0,B|214:116|214:116|204:181,1,134.999995976687,10|2
419,249,77073,1,8
243,261,77273,1,2
376,146,77473,1,10
333,316,77673,1,0
265,154,77873,5,8
480,137,78073,1,10
316,277,78273,1,8
365,66,78473,1,8
445,266,78673,6,0,B|408:238,3,33.7499989941716,10|0|0|0
403,215,78873,6,0,B|367:195,3,33.7499989941716
340,192,79073,6,0,B|311:163,3,33.7499989941716,4|0|0|0
310,134,79273,6,0,B|276:112,3,33.7499989941716
281,81,79473,6,0,B|221:140|111:121,1,180,8|0
256,192,79773,12,0,81673
314,156,81873,5,10
173,327,82073,1,2
186,105,82273,1,10
186,105,82373,1,2
186,105,82473,1,2
306,292,82673,1,2
256,192,82773,12,4,85474
261,116,92275,5,0
339,97,92475,1,0
201,60,92675,2,0,B|170:97|183:146,1,90,2|0
413,239,93275,1,8
455,374,93475,2,0,B|400:360|394:317,1,90,2|0
225,193,94075,5,8
322,62,94275,2,0,B|304:150,1,90,2|0
310,171,94575,1,0
318,191,94675,2,0,B|299:278,1,90,8|0
281,358,95075,1,0
396,232,95275,1,2
225,193,95475,5,8
139,163,95675,1,0
251,278,95875,2,0,B|301:266|311:215,1,90,2|0
122,74,96475,1,8
225,192,96675,2,0,B|236:142|209:107,1,90,2|0
45,346,97275,5,8
82,155,97475,2,0,B|31:171|28:220,1,90,8|0
32,256,97775,1,0
52,285,97875,2,0,B|100:298,1,45,2|0
210,271,98075,2,0,B|166:259,1,45,2|0
128,245,98275,2,0,B|160:278|153:353|110:370,1,135
80,380,98676,6,0,B|29:367|8:283|45:239,1,162.000003862381,8|0
41,243,99076,1,8
144,213,99276,1,0
305,104,99476,2,0,B|355:116|376:200|342:239,1,162.000003862381,8|0
342,239,99876,1,8
239,270,100076,1,0
103,184,100276,6,0,B|-1:209,1,108.000002574921,8|0
277,293,100676,2,0,B|382:267,1,108.000002574921,8|0
486,239,101076,1,10
392,184,101276,1,0
481,325,101476,1,8
392,184,101676,1,0
317,36,101876,1,8
257,127,102076,5,0
317,36,102276,1,8
365,132,102476,1,0
391,133,102876,5,0
196,227,103076,2,0,B|172:174|202:123,1,108.000002574921,8|0
422,135,103476,2,0,B|446:188|414:242,1,108.000002574921,8|0
229,126,103876,1,8
307,183,104076,5,0
307,183,104276,2,8,B|318:291,1,108.000002574921,8|0
248,358,104676,1,8
396,226,104876,2,0,B|377:140|440:75,1,162.000003862381
473,63,105276,1,0
473,63,105476,2,0,B|363:54,1,108.000002574921,8|0
128,283,106077,5,0
128,283,106277,2,0,B|238:274,1,108.000002574921,8|0
326,332,106677,2,0,B|428:328|470:224,1,180,8|8
305,54,107477,2,0,B|162:66,1,135,8|0
122,74,107877,2,0,B|168:99|169:160,1,90,8|0
58,321,108277,6,0,B|11:228|80:154,1,180,8|8
375,197,109077,1,8
375,197,109277,2,0,B|283:202,1,90,0|8
177,213,109677,1,0
168,361,109877,2,0,B|269:345|285:242,1,180,8|8
344,115,110477,5,0
344,115,110577,1,0
344,115,110677,2,0,B|433:110,1,90,8|0
296,203,111077,2,0,B|206:207,1,90,4|0
25,309,111477,6,0,B|159:301,1,134.999995976687,8|0
234,333,112077,1,0
307,366,112277,2,0,B|441:358,1,134.999995976687,0|0
508,311,112877,1,0
508,311,113077,1,0
315,153,113477,6,0,B|387:149,1,67.4999979883433,0|0
323,298,113878,1,2
429,215,114078,1,2
404,292,114278,1,0
280,229,114478,2,0,B|210:249|143:204,1,134.999995976687,2|0
99,145,115078,1,0
99,145,115278,2,0,B|82:210|2:228,1,134.999995976687,2|2
241,137,116078,6,0,B|306:116|306:116|379:129,1,134.999995976687,2|2
251,346,116878,1,2
251,346,117078,2,0,B|316:311|316:233,1,134.999995976687
276,122,117678,6,0,B|361:175|457:126,1,180
483,114,118278,2,0,B|472:164|492:216,1,90,0|2
228,165,118878,5,2
228,165,119078,2,0,B|138:165,1,90
59,187,119478,2,0,B|48:147|73:114|73:114|73:56,1,134.999995976687
309,152,120078,2,0,B|319:191|294:224|294:224|294:282,1,134.999995976687,2|0
286,364,120678,2,0,B|356:359,1,67.4999979883433
215,313,121079,6,0,B|187:216|84:206,1,180
0,222,121679,1,0
181,74,121879,2,0,B|281:85|281:85|353:48,1,180
441,58,122479,1,0
389,131,122679,2,0,B|400:185,3,45
372,212,123079,2,0,B|452:255,1,90
364,311,123479,2,0,B|300:308|224:297,1,135
184,305,123879,1,0
76,167,124079,1,0
98,128,124179,1,0
134,101,124279,1,0
177,91,124379,1,0
221,93,124479,2,0,B|268:103,2,45
41,83,124879,5,0
64,261,125079,2,0,B|114:260|146:219,1,90
354,154,125479,1,4
184,129,125679,1,0
393,75,125879,6,0,B|446:91|463:175|421:212,1,162.000003862381,10|0
384,239,126279,1,8
214,214,126479,1,2
354,154,126679,1,8
245,299,126879,2,0,B|190:302|190:302|144:272,1,108.000002574921,2|10
367,197,127279,2,0,B|416:221|416:221|470:211,1,108.000002574921,0|8
302,77,127679,2,0,B|191:68,2,108.000002574921,2|8|0
427,141,128279,5,2
197,158,128479,1,0
385,274,128680,1,10
385,274,128780,1,2
385,274,128880,1,2
245,285,129080,6,0,B|175:276|175:276|117:316,1,134.999995976687,10|0
260,196,129480,2,0,B|330:205|330:205|388:165,1,134.999995976687,8|2
416,144,129780,1,0
448,120,129880,2,0,B|453:198|514:233,1,134.999995976687,8|0
353,278,130280,1,10
172,103,130480,2,0,B|306:122,2,134.999995976687,0|8|2
89,235,131080,1,8
246,195,131280,5,0
120,56,131480,1,10
89,235,131680,1,2
89,235,131780,1,0
89,235,131880,2,0,B|166:218|177:144,1,134.999995976687,10|0
291,264,132280,5,10
333,104,132480,1,0
333,104,132580,1,0
333,104,132680,2,0,B|256:121|246:195,1,134.999995976687,8|2
336,336,133080,2,0,B|401:320|401:320|470:334,2,134.999995976687,8|2|10
62,239,133680,2,0,B|148:309|252:287,1,202.49999396503
299,260,134080,2,0,B|366:269,2,67.4999979883433,2|0|8
386,135,134480,6,0,B|327:178|258:162,1,134.999995976687,0|10
219,149,134780,1,0
182,130,134880,2,0,B|182:199|182:199|209:221|207:257,1,134.999995976687,0|10
44,259,135280,1,2
149,384,135480,2,0,B|149:315|149:315|122:293|123:243,1,134.999995976687,10|0
202,83,135880,1,8
386,135,136081,1,2
206,193,136281,5,8
206,193,136381,1,0
206,193,136481,1,2
206,193,136581,1,0
206,193,136681,2,0,B|200:261|200:261|242:312,1,134.999995976687,10|0
273,138,137081,5,8
461,138,137281,1,10
460,326,137481,1,8
271,327,137681,1,8
423,214,137881,5,10
423,214,137981,1,8
423,214,138081,1,8
423,214,138181,1,0
423,214,138281,2,0,B|382:268|300:255,1,134.999995976687,4|0
55,212,138681,6,0,B|104:158|98:77|98:77|126:88|144:109,1,202.49999396503,10|0
160,122,139081,2,0,B|198:129|227:127|227:127|259:111|281:84,1,134.999995976687,8|2
281,66,139381,2,0,B|283:36|299:10|299:10|344:77|414:89,1,202.49999396503,0|2
167,232,139881,1,10
315,148,140081,2,0,B|361:280,2,134.999995976687,0|8|2
144,121,140681,5,8
61,275,140881,2,0,B|129:261,1,67.4999979883433
167,232,141081,2,0,B|225:273|225:273|294:273,1,134.999995976687,10|0
426,44,141481,1,10
393,46,141581,1,2
360,45,141681,1,2
327,45,141781,1,0
293,44,141881,6,0,B|244:95|248:166,1,134.999995976687,10|0
258,191,142181,2,0,B|327:190,1,67.4999979883433,0|8
224,334,142481,1,2
258,335,142581,1,0
292,336,142681,2,0,B|341:285|337:212,1,134.999995976687,8|2
195,120,143081,2,0,B|331:118,2,134.999995976687,10|0|8
45,124,143682,1,2
205,196,143882,1,10
295,45,144082,1,0
119,44,144282,5,10
95,217,144482,1,0
95,217,144582,1,0
95,217,144682,1,10
222,96,144882,1,0
356,97,145082,6,0,B|278:96|240:166,2,134.999995976687,10|0|10
372,308,145682,2,0,B|377:240,1,67.4999979883433,2|0
344,212,145882,2,0,B|402:334,1,134.999995976687,8|2
481,224,146282,1,10
256,288,146482,2,0,B|336:294|376:240,1,134.999995976687,0|8
298,31,146882,2,0,B|218:25|177:78,2,134.999995976687,2|8|0
277,159,147482,5,10
151,209,147682,1,0
324,232,147882,1,10
259,68,148082,1,2
151,209,148282,5,10
146,235,148382,1,0
141,261,148482,1,0
136,287,148582,1,0
131,313,148682,2,0,B|-1:354,1,134.999995976687,8|2
242,145,149082,1,8
249,119,149182,1,0
254,93,149282,1,0
259,67,149382,1,0
264,41,149482,2,0,B|396:0,1,134.999995976687,10|0
344,156,149882,5,8
161,68,150082,1,10
13,206,150282,2,0,B|82:184|82:184|141:207,1,134.999995976687,8|8
326,286,150682,6,0,B|306:254,3,33.7499989941716,2|0|0|0
292,208,150882,6,0,B|296:170,3,33.7499989941716
281,125,151083,6,0,B|263:93,3,33.7499989941716
219,72,151283,6,0,B|215:31,3,33.7499989941716
169,14,151483,6,0,B|151:64|90:115|-12:89,1,202.49999396503,4|0
0,91,151883,6,0,B|7:184,1,90
104,195,152283,2,0,B|117:244,3,45
132,285,152683,2,0,B|226:286,1,90
420,286,153283,5,2
373,93,153683,1,0
274,91,153883,1,2
175,90,154083,1,0
76,90,154283,2,0,B|56:176,1,90,2|0
29,273,154683,5,2
99,342,154883,2,0,B|147:342,2,45
124,248,155283,1,2
172,55,155683,1,0
316,189,156083,2,0,B|360:189,5,30
380,189,156483,2,0,B|420:285,1,90,2|0
456,361,156883,1,0
342,333,157083,1,2
229,364,157283,1,0
107,309,157483,1,2
49,111,157883,6,0,B|118:114|185:90,1,135,2|0
223,73,158283,1,0
223,73,158483,1,2
338,211,158884,1,0
192,317,159284,1,2
85,172,159684,2,0,B|164:212|260:220,1,180,2|0
354,246,160284,2,0,B|386:212|427:193,1,90,2|0
507,134,160684,1,2
297,0,161084,5,2
217,73,161284,1,0
310,109,161484,1,0
235,190,161684,2,0,B|253:372,2,180,2|0|0
212,190,162584,1,0
189,190,162684,1,0
120,96,162884,5,2
392,96,163084,1,0
120,96,163284,1,2
392,96,163484,6,0,B|410:163,1,67.4999979883433,0|0
353,244,163884,2,0,B|272:238,1,67.4999979883433,4|0
277,333,164284,2,0,B|138:329,1,134.999995976687,10|0
48,347,164884,1,2
48,347,165084,1,0
75,187,165484,2,0,B|144:202,1,67.4999979883433,2|0
249,247,165884,2,0,B|230:184|234:110,1,134.999995976687
272,28,166485,5,0
272,28,166685,2,0,B|406:41,1,134.999995976687,2|2
493,50,167285,1,0
342,122,167485,2,0,B|298:175|311:250,1,134.999995976687,10|0
175,345,168085,2,0,B|219:292|206:217,1,134.999995976687,2|0
155,137,168685,2,0,B|87:148,1,67.4999979883433,2|0
254,134,169085,2,0,B|399:109,1,134.999995976687
467,282,169685,5,2
467,282,169785,1,2
467,282,169885,2,0,B|333:304,1,134.999995976687,10|2
266,237,170485,1,0
122,312,170685,2,0,B|181:269|179:187,1,134.999995976687,10|0
155,103,171285,1,2
471,183,171685,2,0,B|435:182|400:197,1,67.4999979883433,0|2
496,72,172085,2,0,B|412:64|336:103,1,161.999992275238,0|2
338,101,172685,1,0
213,308,173085,5,2
92,322,173285,1,0
35,214,173485,1,2
126,134,173686,1,0
235,185,173886,2,0,B|294:219|364:215,1,134.999995976687,10|0
465,177,174486,1,2
254,93,174886,2,0,B|220:97|187:106,1,67.4999979883433,0|2
126,202,175286,2,0,B|102:131|41:103,2,134.999995976687,0|2|0
117,296,176286,5,2
192,353,176486,1,0
288,322,176686,2,0,B|361:324,1,67.4999979883433,2|0
457,328,177086,1,2
353,108,177486,5,0
437,150,177686,2,0,B|472:144|505:146,2,67.4999979883433,2|0|0
288,187,178286,2,0,B|311:188|355:198,1,67.4999979883433,2|0
383,363,178686,2,0,B|318:367|248:352,1,134.999995976687
112,267,179286,5,0
88,170,179486,2,0,B|103:105,1,67.4999979883433,2|0
180,39,179886,1,10
180,39,179986,1,2
180,39,180086,1,2
257,106,180286,2,0,B|310:68|385:75,1,134.999995976687,10|0
467,145,180886,1,2
235,214,181287,1,10
444,251,181687,2,0,B|391:290|316:283,1,134.999995976687,2|2
316,283,182287,1,0
192,343,182487,5,2
192,343,182587,1,2
192,343,182687,2,0,B|177:303|181:262,1,67.4999979883433,10|0
82,297,183087,2,0,B|79:245|111:199,1,90,2|0
258,97,183487,6,0,B|305:85,2,45,10|0|0
73,106,183887,1,2
218,213,184087,2,0,B|316:188|396:247,2,180,2|8|0
142,318,185287,5,2
142,318,185487,1,0
338,344,185887,1,2
423,165,186287,1,2
269,40,186687,2,0,B|207:96|98:75,1,180,2|0
24,140,187287,2,0,B|78:211|78:211|71:310,1,180,2|0
71,301,187887,1,2
354,67,188287,5,0
239,51,188487,1,2
158,317,188888,1,0
273,333,189088,2,0,B|252:152,2,180,2|0|0
256,192,189988,12,0,191888
336,120,192088,5,0
215,41,192288,2,0,B|188:84|208:140,1,90
276,219,192688,1,4
192,324,192888,1,0
44,248,193088,6,0,B|132:276|202:218,1,162.000003862381,10|0
204,238,193488,2,0,B|223:131,1,108.000002574921,8|2
135,22,193888,1,8
372,28,194088,2,0,B|324:65|271:53,1,108.000002574921,2|10
95,160,194488,2,0,B|126:118|191:120,1,108.000002574921,0|8
374,233,194888,2,0,B|358:349,2,108.000002574921,2|8|0
395,94,195488,5,10
232,34,195688,1,0
118,169,195888,1,10
149,161,195988,1,2
180,153,196089,1,2
211,145,196189,1,0
250,135,196289,6,0,B|243:278,1,134.999995976687,10|0
242,303,196589,1,0
241,336,196689,2,0,B|375:300,1,134.999995976687,8|2
503,268,197089,1,8
307,67,197289,2,0,B|350:92|351:169|311:198,1,134.999995976687,2|10
62,237,197689,2,0,B|19:212|18:135|58:106,2,134.999995976687,0|8|2
250,135,198289,5,10
231,336,198489,1,0
118,169,198689,1,2
146,314,198889,1,0
146,314,198989,1,0
146,314,199089,2,0,B|142:236|208:203,1,134.999995976687,2|0
482,158,199489,2,0,B|432:245|303:233,1,202.49999396503,10|0
306,233,199889,1,8
168,84,200089,2,0,B|238:110|238:110|297:99,2,134.999995976687,2|8|2
45,169,200689,2,0,B|110:178,1,67.4999979883433,10|0
152,182,200889,6,0,B|116:250|156:312,1,134.999995976687,0|8
461,286,201289,2,0,B|497:218|457:156,1,134.999995976687,2|0
353,70,201689,2,0,B|294:102|294:102|220:93,1,134.999995976687,0|10
186,84,201989,1,0
146,75,202089,2,0,B|160:130|121:127|97:154|64:104,1,134.999995976687,0|10
219,191,202489,1,0
28,266,202689,6,0,B|86:255|132:254|132:254|164:299|216:298,1,202.49999396503,10|0
242,297,203089,2,0,B|263:164,1,134.999995976687,8|2
320,11,203489,1,8
461,54,203690,1,2
270,120,203890,2,0,B|300:97|332:96|332:96|399:120,1,134.999995976687,10|0
460,284,204290,5,8
310,167,204490,1,10
156,315,204690,1,8
302,269,204890,1,8
314,92,205090,1,10
314,92,205190,1,8
314,92,205290,1,8
314,92,205390,1,0
314,92,205490,2,0,B|284:115|252:116|252:116|185:92,1,134.999995976687,4|0
61,171,205890,6,0,B|113:150|113:150|204:184|204:184|224:236,1,202.49999396503,10|0
228,277,206290,2,0,B|292:301|292:301|354:282,1,134.999995976687,8|2
400,266,206590,1,0
445,251,206690,2,0,B|478:196|478:122,1,134.999995976687,8|2
367,1,207090,1,10
232,91,207290,2,0,B|296:64|368:85,2,134.999995976687,0|8|2
109,198,207890,1,8
182,342,208090,37,0
382,170,208290,1,10
343,328,208490,1,0
343,328,208590,1,0
343,328,208690,2,0,B|301:354|236:329|225:280,1,134.999995976687,10|2
270,70,209090,2,0,B|344:84|360:185|311:233,1,202.49999396503,10|0
312,232,209490,1,8
109,198,209690,2,0,B|240:165,1,134.999995976687,2|8
474,293,210090,2,0,B|344:327,2,134.999995976687,2|10|0
406,87,210690,37,8
365,215,210890,1,2
139,125,211091,1,8
299,145,211291,1,0
336,302,211491,38,0,B|292:356|208:342,1,134.999995976687,10|0
174,315,211791,1,0
163,269,211891,2,0,B|189:131,1,134.999995976687,10|0
450,73,212291,2,0,B|380:63|328:144|369:223,1,202.49999396503,10|0
366,216,212691,1,10
208,200,212891,1,2
263,110,213091,6,0,B|185:104|141:155,1,134.999995976687,8|2
202,280,213491,22,0,B|127:264|104:195,1,134.999995976687,10|0
280,164,213891,38,0,B|301:237|255:290,2,134.999995976687,8|2|10
189,63,214491,5,0
208,200,214691,1,10
367,227,214891,1,0
435,95,215091,1,10
435,95,215191,1,2
435,95,215291,2,0,B|376:133|301:104,1,134.999995976687,2|10
146,138,215691,1,0
142,299,215891,1,10
292,359,216091,1,2
397,236,216291,2,0,B|258:246,1,134.999995976687,8|2
84,63,216691,2,0,B|218:53,1,134.999995976687,10|0
370,140,217091,5,8
142,244,217291,1,10
397,236,217491,1,8
115,148,217691,1,8
348,39,217891,6,0,B|313:68,3,33.7499989941716,2|0|0|0
305,90,218091,6,0,B|292:133,3,33.7499989941716
260,121,218291,6,0,B|229:146,3,33.7499989941716
200,152,218491,6,0,B|195:201,3,33.7499989941716
167,210,218692,6,0,B|136:304|24:296,1,180,8|0
256,192,218992,12,0,220892
368,171,221092,6,0,B|345:316,1,134.999995976687,10|2
144,213,221492,2,0,B|167:68,2,134.999995976687,10|0|10
256,192,221992,12,4,224692
398,134,225092,5,10
106,77,225492,1,10
46,213,225692,2,0,B|125:210|160:143,1,134.999995976687,2|8
312,68,226093,1,2
312,68,226193,1,0
312,68,226293,2,0,B|292:135|292:135|316:202,1,134.999995976687,10|0
233,354,226693,6,0,B|253:287|253:287|229:220,1,134.999995976687,8|2
50,235,227093,1,10
185,123,227293,1,0
143,293,227493,5,10
329,236,227693,1,2
287,51,227893,1,10
287,51,227993,1,2
287,51,228093,1,2
287,51,228193,1,0
287,51,228293,2,0,B|358:80|434:63,2,134.999995976687,10|0|10
115,130,228893,2,0,B|108:204|108:268,1,134.999995976687,2|8
268,366,229293,1,2
439,286,229493,2,0,B|446:212|446:148,2,134.999995976687,10|0|8
266,64,230093,5,2
65,143,230293,2,0,B|127:185|204:153,1,134.999995976687,10|0
395,78,230693,2,0,B|332:35|256:68,1,134.999995976687,10|2
216,275,231093,1,2
426,228,231293,1,0
266,64,231493,1,2
256,192,231593,12,0,234694
