osu file format v9

[General]
AudioFilename: Tell Your World.mp3
AudioLeadIn: 1985
PreviewTime: -1
Countdown: 1
SampleSet: Normal
StackLeniency: 0.7
Mode: 0
LetterboxInBreaks: 1

[Editor]
Bookmarks: 25854
DistanceSpacing: 0.8
BeatDivisor: 4
GridSize: 8

[Metadata]
Title:Tell Your World
Artist:livetune feat. Hatsune Miku
Creator:A i s h a
Version:Your World
Source:
Tags:google jimmy74185 vocaloid vocaloid2 chrome

[Difficulty]
HPDrainRate:4
CircleSize:3
OverallDifficulty:4
ApproachRate:4
SliderMultiplier:1.2
SliderTickRate:2

[Events]
//Background and Video events
Video,0,"livetune feat. Hatsune Miku - Tell Your World.avi"
0,0,"BG2.png"
//Break Periods
//Storyboard Layer 0 (Background)
//Storyboard Layer 1 (Fail)
//Storyboard Layer 2 (Pass)
//Storyboard Layer 3 (Foreground)
//Storyboard Sound Samples
//Background Colour Transformations
3,100,255,255,255

[TimingPoints]
0,400,4,1,0,100,1,0
26,-100,4,2,0,35,0,0
13026,-100,4,2,0,47,0,0
24026,-100,4,2,0,47,0,0
24626,-100,4,2,0,67,0,0
24726,-100,4,2,0,67,0,0
38426,-100,4,2,0,57,0,0
51826,-100,4,1,0,83,0,1
78426,-100,4,1,0,64,0,0
96026,-100,4,2,0,64,0,0
105426,-100,4,2,0,64,0,0
107026,-100,4,2,0,64,0,0
108837,-100,4,2,0,71,0,0
109426,-133.333333333333,4,2,0,64,0,0
119826,-100,4,2,0,64,0,0
123826,-100,4,1,0,83,0,0
124026,-100,4,1,0,85,0,0
124226,-100,4,1,0,87,0,0
124426,-100,4,1,0,89,0,0
124626,-100,4,1,0,91,0,0
124826,-100,4,1,0,91,0,1
150426,-133.333333333333,4,2,0,81,0,0
191026,-100,4,1,0,91,0,0
192026,-100,4,1,0,91,0,1
217626,-100,4,1,0,91,0,0
230226,-133.333333333333,4,2,0,79,0,0
252426,-133.333333333333,4,2,0,5,0,0

[Colours]
Combo1 : 252,139,190
Combo2 : 148,58,72
Combo3 : 71,128,173
Combo4 : 111,156,88
Combo5 : 157,109,87

[HitObjects]
144,96,26,2,0,B|208:64|264:72|360:104|400:256|312:352,1,420
208,256,1826,2,0,B|128:256,2,60
160,168,2626,1,0
112,168,2826,1,0
64,168,3026,1,0
72,72,3226,6,0,B|112:48|160:96|216:48|288:112|352:56|432:112,1,360
360,176,4826,2,0,B|296:192,3,60
208,168,5826,2,0,B|208:304,1,120
184,64,6426,2,0,B|128:56|80:80|72:136|96:192|48:256|128:368,1,360
176,272,8026,5,0
176,272,8226,1,0
176,272,8426,1,0
248,208,8826,5,0
248,208,9026,1,0
248,208,9226,1,0
168,152,9626,2,0,B|192:88|248:72|296:72|344:80|384:96|400:120|424:144|424:176|432:232,1,360
360,272,11226,6,0,B|216:272,1,120
176,208,12026,2,0,B|304:208,1,120
280,112,12826,1,0
88,112,13626,5,0
88,304,14426,1,0
192,200,15026,2,0,B|392:200,1,180
312,120,16026,5,0
120,120,16826,1,0
256,256,17626,1,0
432,168,18426,2,0,B|368:168,2,60
368,96,19226,1,0
176,96,20026,1,0
352,176,20826,5,0
432,224,21226,2,0,B|432:304|368:328,1,120
304,264,22026,1,0
208,264,22426,1,0
168,176,22826,2,0,B|96:224|112:296,1,120
168,344,23626,2,0,B|216:344,4,30
360,72,24426,6,0,B|224:72,1,120
240,168,25226,2,0,B|384:168,1,120
360,168,26026,1,0
448,200,26426,2,0,B|448:336,1,120
360,272,27226,1,0
280,224,27626,2,0,B|160:224,1,120
136,320,28426,5,0
96,288,28626,1,0
64,256,28826,1,0
72,160,29226,2,0,B|120:136|192:168|272:168|320:144,1,240
392,96,30426,6,0,B|464:144,1,60
368,192,31026,1,0
344,232,31226,1,0
312,272,31426,1,0
256,192,31826,2,0,B|184:192,1,60
152,280,32426,1,0
184,88,33226,5,0
280,112,33626,2,0,B|280:240,1,120
376,208,34426,2,0,B|376:336,1,120
296,280,35226,2,0,B|48:280,1,240
56,184,36426,2,0,B|120:184,2,60
80,88,37226,6,0,B|224:88,1,120
224,184,38026,2,0,B|352:184,1,120
440,184,38826,1,0
440,184,39226,2,0,B|448:264|432:328|352:328,1,180
320,328,40026,1,0
248,264,40426,6,0,B|168:264,2,60
184,192,41226,2,0,B|120:192|72:256,1,120
152,312,42026,1,0
232,264,42426,6,0,B|304:256,1,60
352,184,43026,2,0,B|416:216|416:272|408:320|376:344,1,180
248,160,44026,5,0
184,88,44426,2,0,B|128:112|144:176|160:192,1,120
240,240,45226,1,0
312,176,45626,2,0,B|432:160,1,120
424,256,46426,1,0
472,264,46626,6,0,B|464:320|424:344|368:336,1,120
344,336,47426,1,0
248,232,48026,6,0,B|152:232|112:192,1,120
136,160,48626,1,0
144,112,48826,2,0,B|224:80|272:112,1,120
344,160,49626,1,0
344,256,50026,1,0
344,352,50426,1,0
264,304,50826,6,0,B|208:280|160:312|128:296|96:288|64:296,1,180
104,200,51826,5,0
128,160,52026,1,0
152,120,52226,1,0
200,104,52426,2,0,B|264:104,2,60
296,104,53226,1,0
384,144,53626,6,0,B|384:264,1,120
296,232,54426,1,0
240,312,54826,2,0,B|384:344,1,120
440,288,55626,1,0
440,192,56026,2,0,B|440:112|424:80|392:72,1,120
360,160,56826,1,0
304,88,57226,6,0,B|232:80|208:96|208:128,1,120
200,224,58026,1,0
296,224,58426,2,0,B|296:288,4,60
392,224,59626,1,0
392,176,59826,6,0,B|392:128|344:64,1,120
296,64,60426,1,0
248,64,60626,2,0,B|64:64,1,180
104,152,61626,1,0
200,152,62026,2,0,B|200:288,1,120
280,224,62826,5,0
280,224,63026,2,0,B|360:224,1,60
424,184,63626,2,0,B|432:264|432:304,1,120
336,320,64426,2,0,B|280:320,4,30
264,256,65226,5,0
208,176,65626,2,0,B|64:176,1,120
128,88,66426,2,0,B|256:88,1,120
344,104,67226,1,0
424,160,67626,2,0,B|432:280,1,120
344,240,68426,6,0,B|272:240,2,60
312,328,69226,2,0,B|216:320|208:256,1,120
224,176,70026,2,0,B|256:128|280:112|344:120,1,120
392,176,70826,1,0
