osu file format v9

[General]
AudioFilename: Tell Your World.mp3
AudioLeadIn: 1985
PreviewTime: -1
Countdown: 1
SampleSet: Soft
StackLeniency: 0.7
Mode: 1
LetterboxInBreaks: 1

[Editor]
Bookmarks: 25854
DistanceSpacing: 0
BeatDivisor: 4
GridSize: 8

[Metadata]
Title:Tell Your World
Artist:livetune feat. Hatsune Miku
Creator:A i s h a
Version:Chaiko
Source:
Tags:google jimmy74185 vocaloid vocaloid2 chrome

[Difficulty]
HPDrainRate:5
CircleSize:5
OverallDifficulty:5
ApproachRate:5
SliderMultiplier:1.4
SliderTickRate:2

[Events]
//Background and Video events
Video,0,"livetune feat. �� �ell Your World�usic Video�€銝剜�摮�.avi"
0,0,"BG.png"
//Break Periods
2,83398,89998
2,156198,160398
2,224198,229198
//Storyboard Layer 0 (Background)
//Storyboard Layer 1 (Fail)
//Storyboard Layer 2 (Pass)
//Storyboard Layer 3 (Foreground)
//Storyboard Sound Samples
//Background Colour Transformations
3,100,255,255,255

[TimingPoints]
0,400,4,1,0,34,1,0
0,-133.333333333333,4,2,0,35,0,0
12799,-100,4,2,0,35,0,0
24000,-133.333333333333,4,2,0,47,0,0
24600,-100,4,2,0,67,0,0
51800,-83.3333333333333,4,1,0,83,0,1
78400,-100,4,1,0,64,0,0
96000,-100,4,2,0,64,0,0
105400,-100,4,2,0,64,0,0
107000,-100,4,2,0,64,0,0
108800,-100,4,2,0,71,0,0
109400,-133.333333333333,4,2,0,64,0,0
119800,-100,4,2,0,64,0,0
123800,-83.3333333333333,4,1,0,83,0,0
124000,-83.3333333333333,4,1,0,85,0,0
124200,-83.3333333333333,4,1,0,87,0,0
124400,-83.3333333333333,4,1,0,89,0,0
124600,-83.3333333333333,4,1,0,91,0,0
124800,-83.3333333333333,4,1,0,91,0,1
150400,-100,4,2,0,81,0,0
191000,-66.6666666666667,4,1,0,91,0,0
192000,-66.6666666666667,4,1,0,91,0,1
217600,-100,4,1,0,91,0,0
230200,-133.333333333333,4,2,0,79,0,0
252400,-133.333333333333,4,2,0,5,0,0

[Colours]
Combo1 : 71,128,173
Combo2 : 148,58,72

[HitObjects]
256,192,0,1,0
259,192,200,1,0
259,192,400,1,8
259,192,600,1,0
259,192,1000,1,0
256,192,1200,1,8
256,192,1400,1,0
256,192,1798,1,0
256,192,1998,1,0
256,192,2198,1,8
259,192,2598,1,0
259,192,2798,1,0
259,192,2998,1,8
259,192,3198,5,4
259,192,3398,1,0
259,192,3598,1,0
259,192,3798,1,8
259,192,4198,1,0
259,192,4398,1,0
259,192,4598,1,8
259,192,4998,1,0
259,192,5198,1,0
259,192,5398,1,0
258,193,5798,1,0
258,193,5998,1,8
258,193,6198,1,0
258,193,6398,1,4
258,193,6598,1,0
259,192,6798,1,0
258,193,6998,1,8
259,192,7398,1,8
259,192,7598,1,0
259,192,7798,1,8
259,192,8198,1,0
259,192,8398,1,0
259,192,8598,1,8
259,192,8998,1,8
259,192,9198,1,0
259,192,9398,1,0
259,192,9598,1,4
259,192,9798,1,8
259,192,9998,1,0
259,192,10198,1,0
259,192,10598,1,8
259,192,10798,1,0
259,192,10998,1,0
259,192,11398,1,8
259,192,11598,1,8
259,192,11798,1,6
256,192,11998,12,6,12398
259,192,12798,5,0
259,192,12998,1,0
259,192,13198,1,0
259,192,13398,1,8
259,192,13598,1,0
259,192,13798,1,0
259,192,13998,1,8
259,192,14198,1,0
259,192,14398,1,0
259,192,14598,1,8
259,192,14798,1,0
259,192,14998,1,6
259,192,15198,1,8
259,192,15398,1,6
259,192,15598,1,0
259,192,15798,1,4
259,192,15998,1,8
259,192,16198,1,8
259,192,16398,1,0
259,192,16598,1,0
259,192,16798,1,8
259,192,16998,1,0
259,192,17198,1,0
259,192,17400,5,8
259,192,17598,5,0
259,192,17798,1,0
259,192,17998,5,8
259,192,18200,5,0
259,192,18398,1,0
259,192,18598,1,0
259,192,18798,1,0
259,192,18998,1,0
259,192,19198,5,8
259,192,19398,5,0
259,192,19598,1,0
259,192,19798,5,8
259,192,19998,5,0
259,192,20198,1,0
259,192,20398,5,8
259,192,20598,5,0
259,192,20798,1,0
259,192,20998,5,8
259,192,21198,5,0
259,192,21398,1,0
259,192,21598,1,0
259,192,21798,1,0
259,192,21998,5,8
259,192,22198,5,4
259,192,22398,1,4
259,192,22598,5,6
259,192,22798,1,6
259,192,23000,1,8
259,192,23098,1,8
259,192,23198,5,0
259,192,23298,1,0
259,192,23398,5,0
259,192,23498,1,0
259,192,23598,1,6
259,192,24598,1,0
259,192,24798,5,0
259,192,24998,1,8
259,192,25198,5,8
259,192,25398,5,0
259,192,25598,1,0
259,192,25698,1,0
259,192,25798,5,8
257,190,25998,1,0
257,190,26198,1,8
257,190,26398,1,0
257,190,26598,1,8
257,190,26798,1,0
257,190,26898,1,0
257,190,26998,1,8
257,190,27198,1,0
257,190,27398,1,0
257,190,27598,5,0
257,190,27798,1,0
257,190,27998,5,8
257,190,28098,5,0
257,190,28198,1,0
257,190,28398,1,0
259,192,28598,5,8
259,192,28798,5,0
259,192,28998,1,0
259,192,29198,1,0
259,192,29398,5,8
259,192,29598,5,0
259,192,29798,1,0
259,192,29998,5,8
259,192,30198,1,8
259,192,31098,1,8
259,192,31198,5,0
259,192,31298,5,8
259,192,31498,5,4
259,192,31698,5,8
259,192,31798,1,8
259,192,31898,5,0
259,192,31998,1,0
259,192,32098,5,8
259,192,32298,1,8
259,192,32398,1,8
259,192,32498,5,0
259,192,32598,5,0
259,192,32698,1,8
259,192,32798,1,8
259,192,32898,5,0
259,192,32998,1,0
259,192,33098,5,8
259,192,33400,1,8
259,192,33600,5,0
259,192,33998,1,4
259,192,34398,1,4
259,192,34798,5,6
259,192,35198,1,6
259,192,35598,5,4
259,192,36098,1,0
259,192,36198,1,0
259,192,36298,1,0
259,192,36598,1,8
259,192,36798,1,8
259,192,36898,1,8
259,192,36998,1,8
259,192,37198,1,0
259,192,37398,1,0
259,192,37598,1,8
259,192,37798,1,8
259,192,37998,1,0
259,192,38198,1,0
259,192,38398,1,8
259,192,38498,1,0
259,192,38598,1,0
259,192,38798,1,8
259,192,38998,1,0
259,192,39098,1,0
259,192,39198,1,8
259,192,39398,1,8
259,192,39798,1,8
259,192,39898,1,0
259,192,39998,1,0
259,192,40098,1,0
259,192,40198,1,8
259,192,40398,1,8
259,192,40598,1,0
259,192,40798,1,0
259,192,40998,1,0
259,192,41198,1,0
259,192,41298,1,8
259,192,41398,1,8
259,192,41598,1,0
259,192,41798,1,0
259,192,41998,1,0
259,192,42098,1,0
259,192,42198,1,8
259,192,42298,1,8
259,192,42398,1,0
259,192,42498,1,0
259,192,42598,1,8
259,192,43098,1,4
259,192,43398,1,0
259,192,43598,1,8
259,192,43898,1,8
259,192,43998,1,0
259,192,44198,1,0
259,192,44398,1,8
259,192,44498,1,0
259,192,44598,1,0
259,192,44798,1,6
115,120,45198,2,0,B|411:120,1,280
259,192,46198,1,0
259,192,46398,1,8
259,192,46798,1,8
259,192,46998,1,0
259,192,47398,1,4
259,192,47798,1,6
259,192,47998,1,8
259,192,48098,1,8
259,192,48198,1,8
259,192,48298,1,0
259,192,48398,1,0
259,192,48598,1,6
259,192,48798,1,0
259,192,48898,1,0
259,192,48998,1,0
259,192,49098,1,8
259,192,49198,1,8
259,192,49398,1,8
259,192,49598,1,4
259,192,49998,1,6
259,192,50398,1,4
256,192,50798,12,0,51598
256,192,51798,5,4
256,192,51998,1,4
256,192,52198,1,6
256,192,52398,1,6
256,192,52598,1,6
256,192,52798,5,0
256,192,52898,1,0
256,192,52998,5,8
256,192,53198,1,8
256,192,53400,5,0
256,192,53498,1,0
256,192,53598,1,0
256,192,53798,1,0
256,192,54000,1,8
252,192,54198,1,0
256,192,54298,1,0
256,192,54400,1,8
256,192,54498,1,8
256,192,54598,1,8
256,192,54998,1,0
256,192,55198,1,0
256,192,55398,1,0
256,192,55598,1,0
256,192,55698,1,0
256,192,55798,1,0
256,192,55898,1,0
256,192,55998,1,8
256,192,56398,1,8
256,192,56598,1,0
256,192,56998,1,0
256,192,57398,1,0
256,192,57498,1,0
256,192,57598,1,0
256,192,57698,1,0
256,192,57798,1,0
256,192,58198,1,0
256,192,58398,1,0
256,192,58598,1,8
256,192,58798,1,8
256,192,58998,1,0
256,192,59198,1,0
256,192,59298,1,0
256,192,59398,1,8
256,192,59598,1,0
256,192,59698,1,8
256,192,59798,1,8
256,192,59998,1,0
256,192,60198,1,8
256,192,60298,1,8
256,192,60398,1,8
256,192,60598,1,0
256,192,60798,1,8
256,192,60898,1,0
256,192,60998,1,0
256,192,61098,1,8
256,192,61398,1,0
256,192,61498,1,0
256,192,61598,1,8
256,192,61798,1,0
256,192,61998,1,0
256,192,62198,1,0
256,192,62398,1,0
256,192,62498,1,8
256,192,62598,1,8
256,192,62698,1,0
256,192,62798,1,8
256,192,62998,1,8
256,192,63198,1,0
256,192,63298,1,0
256,192,63398,1,0
256,192,63598,1,8
256,192,63698,1,0
256,192,63898,1,0
256,192,63998,1,8
256,192,64198,1,0
256,192,64398,1,0
256,192,64598,1,8
256,192,64798,1,0
256,192,64998,1,0
256,192,65198,1,6
256,192,65598,1,8
256,192,65698,1,8
256,192,65798,1,0
256,192,65998,1,8
256,192,66098,1,0
256,192,66198,1,0
256,192,66398,1,8
256,192,66598,1,0
256,192,66698,1,0
256,192,66798,1,8
256,192,66998,1,8
256,192,67098,1,8
256,192,67198,1,0
256,192,67398,1,0
256,192,67798,1,0
256,192,67998,1,0
256,192,68198,1,0
256,192,68398,1,0
256,192,68598,1,0
256,192,68798,1,6
256,192,68998,1,0
256,192,69098,1,8
256,192,69298,1,8
256,192,69398,1,0
256,192,69598,1,0
256,192,69698,1,0
256,192,69798,1,0
256,192,69998,1,8
256,192,70098,1,8
256,192,70198,1,8
256,192,70298,1,0
256,192,70598,1,8
256,192,70998,1,0
256,192,71198,1,8
256,192,71398,1,8
256,192,71598,1,0
256,192,71798,1,0
256,192,71998,1,4
256,192,72398,1,8
256,192,72598,1,0
256,192,72998,1,0
256,192,73198,1,0
256,192,73398,1,8
256,192,73798,1,8
256,192,74198,1,4
256,192,74398,1,4
256,192,74598,1,6
256,192,74798,1,4
256,192,74998,1,6
256,192,75198,1,8
256,192,75298,1,0
256,192,75398,1,8
256,192,75498,1,0
256,192,75598,1,0
256,192,75698,1,0
256,192,75798,1,8
256,192,75998,1,0
256,192,76098,1,8
256,192,76198,1,0
256,192,76298,1,0
256,192,76398,1,8
256,192,76598,1,0
256,192,76798,1,8
256,192,76898,1,0
256,192,76998,1,0
256,192,77198,1,0
256,192,77298,1,8
256,192,77398,1,0
256,192,77598,1,0
256,192,77698,1,8
256,192,77798,1,8
256,192,77998,1,6
256,192,78398,12,0,80398
256,192,80798,12,0,83198
256,192,91198,5,4
256,192,91398,1,0
256,192,91598,1,0
256,192,91798,1,8
256,192,92198,1,0
256,192,92398,1,0
256,192,92598,1,8
256,192,92998,1,0
256,192,93198,1,0
256,192,93398,1,8
256,192,93798,1,8
256,192,93998,1,0
256,192,94198,1,8
256,192,94398,1,4
256,192,94598,1,0
256,192,94798,1,0
256,192,94998,1,0
256,192,95598,12,0,96898
256,192,97598,5,0
256,192,97698,1,0
256,192,97798,1,8
256,192,97998,1,8
256,192,98198,1,8
256,192,98298,1,8
256,192,98398,1,8
256,192,98598,1,8
256,192,98698,1,8
256,192,98798,1,0
256,192,98998,1,0
256,192,99198,1,0
256,192,99298,1,0
256,192,99398,1,8
256,192,99498,1,8
256,192,99598,1,0
256,192,99798,1,8
256,192,99998,1,8
256,192,100198,1,8
256,192,100398,1,0
256,192,100598,1,0
256,192,100798,1,8
256,192,100898,1,0
256,192,100998,1,0
256,192,101098,1,0
256,192,101198,1,8
256,192,101298,1,0
256,192,101398,1,0
256,192,101498,1,8
256,192,101598,1,8
256,192,101698,1,0
256,192,101798,1,0
256,192,101898,1,0
256,192,101998,1,0
256,192,102098,1,8
256,192,102198,1,8
256,192,102998,1,0
256,192,103098,1,0
256,192,103198,1,0
256,192,103398,1,8
256,192,103598,1,8
256,192,103698,1,0
256,192,103798,1,8
256,192,103998,1,0
256,192,104098,1,8
256,192,104198,1,0
256,192,104298,12,0,105198
256,192,105598,5,0
256,192,105698,1,0
256,192,105798,1,8
256,192,105998,1,0
256,192,106098,1,8
256,192,106198,1,8
256,192,106398,1,8
256,192,106498,1,8
256,192,106598,1,8
256,192,106798,1,6
256,192,107198,1,4
256,192,107998,1,8
256,192,108098,1,0
256,192,108198,1,8
256,192,108398,1,4
256,192,108598,1,8
256,192,108698,1,0
256,192,108798,1,0
256,192,109398,1,0
256,192,109598,1,0
256,192,109798,1,8
256,192,109998,1,0
256,192,110198,1,0
256,192,110398,1,0
256,192,110498,1,0
256,192,110598,1,8
256,192,110798,1,0
256,192,110998,1,0
256,192,111198,1,8
256,192,111398,1,0
256,192,111598,1,0
256,192,111798,1,8
256,192,111998,1,0
256,192,112198,1,0
256,192,112398,1,8
256,192,112598,1,8
256,192,112798,1,8
256,192,112998,1,8
256,192,113198,1,8
256,192,113398,1,0
256,192,113598,1,0
256,192,113798,1,0
256,192,113998,1,8
256,192,114198,1,0
256,192,114398,1,0
256,192,114598,1,0
256,192,114798,1,0
256,192,114998,1,8
256,192,115098,1,8
256,192,115198,1,8
256,192,115398,1,8
256,192,115498,1,8
256,192,115598,1,8
256,192,115798,1,8
256,192,115898,1,8
256,192,115998,1,8
256,192,116398,1,4
256,192,116998,1,6
256,192,117198,1,8
256,192,117298,1,8
256,192,117398,1,0
256,192,117498,1,8
256,192,117598,1,8
256,192,118198,1,0
256,192,118398,1,8
256,192,118798,1,8
256,192,118998,1,0
256,192,119398,1,8
256,192,119798,1,0
256,192,119998,1,8
256,192,120098,1,8
256,192,120198,1,0
256,192,120298,1,8
256,192,120398,1,0
257,195,120598,1,0
256,192,120798,1,8
256,192,120898,1,0
256,192,120998,1,8
256,192,121098,1,8
256,192,121198,1,8
256,192,121398,1,8
256,192,121598,1,0
256,192,121698,1,0
256,192,121798,1,8
256,192,121998,1,0
256,192,122098,1,8
256,192,122198,1,8
256,192,122398,1,8
256,192,122498,1,0
256,192,122598,1,0
256,192,122698,1,0
256,192,122798,1,8
256,192,122898,1,8
256,192,122998,1,8
256,192,123798,1,4
256,192,123998,1,4
256,192,124198,1,4
256,192,124398,1,4
256,192,124598,1,6
256,192,124798,1,6
256,192,124998,1,0
256,192,125098,1,0
256,192,125198,1,8
256,192,125398,1,0
256,192,125498,1,0
256,192,125598,1,8
256,192,125798,1,0
256,192,125898,1,0
256,192,125998,1,8
256,192,126098,1,8
256,192,126198,1,8
256,192,126398,1,0
256,192,126598,1,0
256,192,126698,1,0
256,192,126798,1,8
256,192,126998,1,8
256,192,127098,1,8
256,192,127198,1,8
256,192,127398,1,0
256,192,127598,1,8
256,192,127698,1,0
256,192,127798,1,0
256,192,127898,1,0
256,192,127998,1,0
256,192,128198,1,8
256,192,128398,1,8
256,192,128498,1,8
256,192,128598,1,0
256,192,128798,1,0
256,192,128998,1,0
256,192,129098,1,8
256,192,129198,1,0
256,192,129398,1,0
256,192,129598,1,0
256,192,129698,1,0
256,192,129798,1,8
256,192,129898,1,0
256,192,129998,1,0
256,192,130198,1,4
256,192,130398,1,4
256,192,130598,1,4
256,192,130798,1,6
256,192,130998,1,6
256,192,131198,1,6
256,192,131398,5,0
256,192,131498,1,0
256,192,131598,1,8
256,192,131798,1,0
256,192,131898,1,0
256,192,131998,1,8
256,192,132198,1,0
256,192,132298,1,8
256,192,132398,1,8
256,192,132498,1,8
256,192,132598,1,8
256,192,132798,1,0
256,192,132998,1,0
256,192,133098,1,0
256,192,133198,1,0
256,192,133398,1,0
256,192,133498,1,0
256,192,133598,1,8
256,192,133798,1,0
256,192,133998,1,8
256,192,134098,1,0
256,192,134198,1,8
256,192,134298,1,8
256,192,134398,1,0
256,192,134998,1,0
256,192,135198,1,8
256,192,135598,1,8
256,192,135798,1,0
256,192,136198,1,4
256,192,136398,1,0
256,192,136598,1,0
256,192,136798,1,8
256,192,136898,1,8
256,192,136998,1,8
256,192,137198,1,6
256,192,137598,1,0
256,192,137698,1,0
256,192,137798,1,8
256,192,137998,1,8
256,192,138198,1,8
256,192,138298,1,8
256,192,138398,1,0
256,192,138598,1,8
256,192,138698,1,0
256,192,138798,1,0
256,192,138998,1,0
256,192,139098,1,0
256,192,139198,1,8
256,192,139298,1,0
256,192,139398,1,0
256,192,139798,1,0
256,192,139998,1,0
256,192,140198,1,8
256,192,140398,1,8
256,192,140598,1,0
256,192,140698,1,8
256,192,140798,1,8
256,192,141198,1,8
256,192,141398,1,8
256,192,141798,1,0
256,192,142198,1,8
256,192,142598,1,8
256,192,142998,1,8
256,192,143198,1,0
256,192,143398,1,8
256,192,143598,1,8
256,192,143798,1,0
256,192,143998,1,8
256,192,144398,1,0
256,192,144498,1,0
256,192,144598,1,8
256,192,144798,1,0
256,192,144898,1,0
256,192,144998,1,8
256,192,145198,1,0
256,192,145298,1,8
256,192,145398,1,8
256,192,145598,1,0
256,192,145698,1,0
256,192,145798,1,0
256,192,146198,1,4
256,192,146398,1,4
256,192,146598,1,4
256,192,146798,1,4
256,192,146998,1,6
256,192,147198,1,8
256,192,147298,1,0
256,192,147398,1,0
256,192,147498,1,0
256,192,147598,1,0
256,192,147798,1,4
256,192,147998,1,6
256,192,148198,1,8
256,192,148298,1,8
256,192,148398,1,8
256,192,148598,1,8
256,192,148698,1,8
256,192,148798,1,0
256,192,149198,1,0
256,192,149598,1,0
256,192,149998,1,0
256,192,150398,12,0,152798
256,192,153498,12,0,155998
256,192,161598,5,8
256,192,161698,1,8
256,192,161798,1,8
256,192,161998,1,0
256,192,162198,1,0
256,192,162398,1,8
256,192,162598,1,0
256,192,162798,1,8
256,192,162998,1,8
256,192,163198,1,0
256,192,163298,1,0
256,192,163498,1,8
256,192,163598,1,0
256,192,163798,1,0
256,192,163898,1,0
256,192,163998,1,8
256,192,164398,1,8
256,192,164598,1,0
256,192,164798,1,8
256,192,165198,1,8
256,192,165298,1,8
256,192,165398,1,8
256,192,165598,1,0
256,192,165698,1,8
256,192,165898,1,0
256,192,165998,1,0
256,192,166198,1,8
256,192,166298,1,0
256,192,166398,1,0
256,192,166798,1,0
256,192,166998,1,8
256,192,167400,1,0
256,192,167498,1,0
256,192,167598,1,8
256,192,167798,1,0
256,192,167898,1,0
256,192,167998,1,8
256,192,168098,1,8
256,192,168798,1,8
256,192,168898,1,8
256,192,168998,1,0
256,192,169198,1,8
256,192,169398,1,0
256,192,169498,1,0
256,192,169598,1,8
256,192,169898,1,4
256,192,170131,1,4
256,192,170598,1,6
256,192,170998,1,6
256,192,171398,1,4
256,192,171598,1,4
256,192,171998,1,0
256,192,172198,1,0
256,192,172398,1,0
256,192,172598,1,8
256,192,172798,1,0
256,192,173198,1,8
256,192,173298,1,8
256,192,173398,1,0
256,192,173598,1,8
256,192,173798,1,0
256,192,173898,1,0
256,192,173998,1,8
256,192,174798,1,8
256,192,174898,1,8
256,192,174998,1,8
256,192,175198,1,0
256,192,175398,1,0
256,192,175598,1,8
256,192,175798,1,8
256,192,175998,1,0
256,192,176098,1,0
256,192,176198,1,8
256,192,176398,1,0
256,192,176598,1,0
256,192,176798,1,8
256,192,176998,1,0
256,192,177198,1,0
256,192,177398,1,0
256,192,177498,1,8
256,192,177598,1,8
256,192,177798,1,0
256,192,177998,1,0
256,192,178198,1,8
256,192,178398,1,8
256,192,178598,1,0
256,192,178798,1,0
256,192,178898,1,8
256,192,178998,1,0
256,192,179198,1,0
256,192,179598,1,8
256,192,179798,1,0
256,192,180198,1,0
256,192,180598,1,0
256,192,180698,1,0
256,192,180798,1,8
256,192,181598,1,8
256,192,181998,1,8
256,192,182398,1,8
256,192,182798,1,0
256,192,182898,1,0
256,192,182998,1,8
256,192,183098,1,0
256,192,183198,1,0
256,192,183298,1,0
256,192,183398,1,8
256,192,183498,1,8
256,192,183598,1,0
256,192,184398,1,0
256,192,184798,1,0
256,192,185198,1,8
256,192,185598,1,8
256,192,185698,1,8
256,192,185798,1,8
256,192,186198,1,8
256,192,186298,1,8
256,192,186398,1,8
256,192,186798,1,8
256,192,186898,1,8
256,192,186998,1,8
256,192,187198,1,0
256,192,187598,1,0
256,192,187698,1,0
256,192,187798,1,0
256,192,187898,1,0
256,192,187998,1,8
256,192,188098,1,0
256,192,188198,1,0
256,192,188298,1,0
256,192,188398,1,8
256,192,188498,1,8
256,192,188598,1,8
256,192,188698,1,8
256,192,188798,12,4,190998
256,192,191198,5,4
256,192,191398,1,4
256,192,191598,1,6
256,192,191798,1,6
256,192,191998,1,6
256,192,192198,1,8
256,192,192298,1,8
256,192,192398,1,0
256,192,192598,1,0
256,192,192698,1,0
256,192,192798,1,8
256,192,192998,1,0
256,192,193198,1,8
256,192,193298,1,0
256,192,193398,1,8
256,192,193498,1,0
256,192,193598,1,0
256,192,193798,1,0
256,192,193998,1,8
256,192,194098,1,8
256,192,194198,1,0
256,192,194398,1,0
256,192,194498,1,0
256,192,194598,1,8
256,192,194698,1,8
256,192,194798,1,0
256,192,194998,1,8
256,192,195198,1,8
256,192,195398,1,8
256,192,195498,1,8
256,192,195598,1,8
256,192,195798,1,8
256,192,195898,1,8
256,192,195998,1,0
256,192,196198,1,8
256,192,196298,1,0
256,192,196398,1,0
256,192,196598,1,0
256,192,196798,1,8
256,192,196898,1,0
256,192,196998,1,0
256,192,197098,1,0
256,192,197198,1,8
256,192,197398,1,0
256,192,197598,1,8
256,192,197798,1,0
256,192,197998,1,0
256,192,198198,1,8
256,192,198398,1,0
256,192,198498,1,0
256,192,198598,1,8
256,192,198798,1,0
256,192,198998,1,8
256,192,199098,1,0
256,192,199198,1,8
256,192,199298,1,8
256,192,199498,1,0
256,192,199598,1,8
256,192,199798,1,8
256,192,199998,1,0
256,192,200098,1,0
256,192,200198,1,8
256,192,200398,1,8
256,192,200498,1,8
256,192,200598,1,0
256,192,200798,1,0
256,192,200998,1,0
256,192,201198,1,0
256,192,201398,1,0
256,192,201498,1,8
256,192,201598,1,8
256,192,201698,1,0
256,192,201798,1,8
256,192,201898,1,0
256,192,201998,1,0
256,192,202198,1,4
256,192,202398,1,4
256,192,202798,1,0
256,192,202898,1,0
256,192,202998,1,8
256,192,203198,1,0
256,192,203398,1,0
256,192,203498,1,0
256,192,203598,1,8
256,192,203798,1,0
256,192,203998,1,0
256,192,204198,1,0
256,192,204398,1,6
256,192,204798,1,0
256,192,204898,1,0
256,192,204998,1,8
256,192,205198,1,0
256,192,205298,1,0
256,192,205398,1,8
256,192,205598,1,0
256,192,205698,1,0
256,192,205798,1,0
256,192,205898,1,0
256,192,205998,1,8
256,192,206198,1,8
256,192,206298,1,8
256,192,206398,1,0
256,192,206598,1,0
256,192,206798,1,0
256,192,206998,1,8
256,192,207198,1,0
256,192,207398,1,0
256,192,207598,1,8
256,192,207798,1,6
256,192,207998,1,0
256,192,208098,1,8
256,192,208298,1,8
256,192,208398,1,0
256,192,208598,1,0
256,192,208698,1,0
256,192,208798,1,0
256,192,208998,1,8
256,192,209098,1,8
256,192,209198,1,8
256,192,209298,1,0
256,192,209498,1,8
256,192,209598,1,8
256,192,209698,1,0
256,192,209798,1,8
256,192,210198,1,0
256,192,210398,1,0
256,192,210598,1,0
256,192,210798,1,8
256,192,210998,1,8
256,192,211198,1,8
256,192,211598,1,0
256,192,211798,1,0
256,192,212198,1,8
256,192,212598,1,8
256,192,212998,1,0
256,192,213398,1,8
256,192,213598,1,0
256,192,213798,1,8
256,192,213998,1,0
256,192,214198,1,8
256,192,214398,1,0
256,192,214498,1,0
256,192,214598,1,8
256,192,214698,1,8
256,192,214798,1,0
256,192,214998,1,8
256,192,215198,1,8
256,192,215298,1,0
256,192,215398,1,0
256,192,215498,1,8
256,192,215598,1,0
256,192,215698,1,0
256,192,215798,1,8
256,192,215998,1,8
256,192,216098,1,8
256,192,216198,1,0
256,192,216398,1,8
256,192,216498,1,0
256,192,216598,1,0
256,192,216798,1,8
256,192,216898,1,8
256,192,216998,1,8
256,192,217198,1,4
256,192,217598,12,6,219998
256,192,220398,5,6
256,192,220798,12,6,223998
256,192,230398,5,0
256,192,230598,1,0
256,192,230798,1,0
256,192,230998,1,8
256,192,231398,1,0
256,192,231598,1,0
256,192,231798,1,8
256,192,232198,1,0
256,192,232398,1,0
256,192,232598,1,8
256,192,232998,1,0
256,192,233198,1,0
256,192,233398,1,8
256,192,233598,1,4
256,192,233798,1,0
256,192,233998,1,0
256,192,234198,1,8
256,192,234598,1,0
256,192,234798,1,0
256,192,234998,1,8
256,192,235398,1,0
256,192,235598,1,0
256,192,235798,1,8
256,192,236198,1,8
256,192,236398,1,0
256,192,236598,1,8
256,192,236798,1,4
256,192,236998,1,0
256,192,237198,1,0
256,192,237398,1,8
256,192,237798,1,0
256,192,237998,1,0
256,192,238198,1,8
256,192,238598,1,0
256,192,238798,1,0
256,192,238998,1,0
256,192,239398,1,0
256,192,239598,1,8
256,192,239798,1,0
256,192,239998,1,4
256,192,240198,1,0
256,192,240398,1,8
256,192,240598,1,8
256,192,240998,1,0
256,192,241198,1,0
256,192,241398,1,0
256,192,241598,1,8
256,192,241798,1,8
256,192,242098,1,4
256,192,242398,1,4
256,192,242698,1,4
256,192,243098,1,6
256,192,243598,1,6
256,192,244198,1,6
256,192,245198,1,0
256,192,245264,1,0
256,192,245331,1,0
256,192,245398,1,8
256,192,245598,12,0,252398
