osu file format v14

[General]
AudioFilename: livetune feat. - Half Step.mp3
AudioLeadIn: 2000
PreviewTime: 56178
Countdown: 0
SampleSet: Soft
StackLeniency: 0.6
Mode: 0
LetterboxInBreaks: 0
WidescreenStoryboard: 0

[Editor]
DistanceSpacing: 1.4
BeatDivisor: 4
GridSize: 4
TimelineZoom: 1.6

[Metadata]
Title:Half Step
TitleUnicode:Half Step
Artist:livetune feat. Hatsune Miku
ArtistUnicode:livetune feat. 初音ミク
Creator:Z3R0Xx
Version:Hard
Source:
Tags:Tell Your World EP Vocaloid Toys Factory kz
BeatmapID:436412
BeatmapSetID:181355

[Difficulty]
HPDrainRate:5
CircleSize:3.8
OverallDifficulty:6
ApproachRate:7.5
SliderMultiplier:1.2
SliderTickRate:1

[Events]
//Background and Video events
0,0,"Hatsune Miku - Half Step BG.png",0,0
//Break Periods
2,79494,89765
//Storyboard Layer 0 (Background)
//Storyboard Layer 1 (Fail)
//Storyboard Layer 2 (Pass)
//Storyboard Layer 3 (Foreground)
//Storyboard Sound Samples

[TimingPoints]
237,352.941176470588,4,2,3,60,1,0
44707,-100,4,2,1,60,0,0
50707,-100,4,1,2,55,0,0
51060,-100,4,2,1,55,0,0
52295,-100,4,2,1,85,0,0
53354,-100,4,1,2,60,0,0
55207,-100,4,2,1,60,0,0
56002,-100,4,2,1,20,0,0
56619,-100,4,2,1,15,0,0
56707,-100,4,1,2,60,0,1
77884,-100,4,2,3,60,0,0
79295,-100,4,2,1,60,0,0
90590,-100,4,2,3,45,0,0
118472,-100,4,1,2,60,0,0
118736,-100,4,2,1,55,0,0
120060,-100,4,2,1,85,0,0
121119,-100,4,1,2,60,0,0
122972,-100,4,2,1,55,0,0
124472,-100,4,1,2,60,0,1
145648,-100,4,2,1,55,0,0
147060,-100,4,2,1,55,0,0

[Colours]
Combo1 : 255,120,55
Combo2 : 83,255,83
Combo3 : 0,255,255
Combo4 : 255,91,91

[HitObjects]
72,48,237,6,0,P|67:106|97:157,1,120
168,200,766,2,0,P|208:204|248:220,1,60
268,284,1119,2,0,P|300:252|295:164,1,120
212,40,1825,2,0,P|184:28|140:36,1,60
72,48,2178,1,0,0:0:0:0:
64,132,2354,2,0,P|101:178|159:187,1,120
244,200,2884,1,0,0:0:0:0:
280,124,3060,6,0,P|312:96|356:92,2,60
244,200,3589,2,0,P|252:241|233:281,2,60
196,128,4119,1,0,0:0:0:0:
196,128,4295,2,0,P|148:108|116:48,1,120
16,188,5001,1,0,0:0:0:0:
28,272,5178,2,0,P|84:236|100:176,1,120
292,160,5884,6,0,P|320:104|284:32,1,120,0|8,0:0|0:0,0:0:0:0:
235,97,6413,1,0,0:0:0:0:
164,144,6590,2,0,P|148:88|176:36,1,120,0|8,0:0|0:0,0:0:0:0:
235,97,7119,2,0,P|251:153|223:204,1,120
152,248,7649,1,8,0:0:0:0:
92,192,7825,1,0,0:0:0:0:
92,192,8001,2,0,P|76:136|104:85,1,120,0|8,0:0|0:0,0:0:0:0:
172,36,8531,1,0,0:0:0:0:
272,168,8884,6,8,L|303:220,1,60,0|8,0:0|0:0,0:0:0:0:
220,240,9237,2,8,L|189:188,1,60,0|0,0:0|0:0,0:0:0:0:
208,108,9590,1,0,0:0:0:0:
288,84,9766,1,0,0:0:0:0:
272,168,9943,1,4,0:0:0:0:
132,260,10296,2,0,P|162:310|217:328,1,120
288,280,10825,2,0,B|320:256|320:256|360:240|360:240|396:192,1,120,0|8,0:0|0:0,0:0:0:0:
390,45,11531,6,0,P|332:45|288:84,1,120,4|8,0:0|0:0,0:0:0:0:
244,156,12059,1,0,0:0:0:0:
208,232,12236,2,0,P|164:271|105:271,1,120,0|8,0:0|0:0,0:0:0:0:
32,232,12766,2,0,P|75:192|134:192,1,120
208,232,13295,2,0,P|265:237|313:202,1,120,8|0,0:0|0:0,0:0:0:0:
220,60,14001,6,0,L|144:104,1,60,8|0,0:0|0:0,0:0:0:0:
92,128,14355,2,0,P|176:156|200:192,1,120,0|8,0:0|0:0,0:0:0:0:
216,260,14884,1,0,0:0:0:0:
144,304,15060,2,0,P|184:340|264:328,1,120,0|8,0:0|0:0,0:0:0:0:
320,300,15589,2,0,L|376:264,1,60
324,196,15942,2,0,L|349:134,1,60,0|8,0:0|0:0,0:0:0:0:
276,96,16296,1,0,0:0:0:0:
195,76,16472,2,0,P|201:134|244:173,1,120,0|8,0:0|0:0,0:0:0:0:
400,108,17178,5,4,0:0:0:0:
245,174,17531,2,0,L|193:230,1,60,8|0,0:0|0:0,0:0:0:0:
120,220,17884,2,0,L|109:295,1,60
180,328,18236,1,8,0:0:0:0:
252,368,18413,2,0,P|308:376|364:336,1,120
288,292,18942,1,8,0:0:0:0:
324,216,19119,2,0,P|272:208|212:248,1,120
156,296,19648,1,8,0:0:0:0:
120,220,19825,2,0,P|100:164|47:141,1,120
52,56,20354,6,0,P|100:64|172:128,1,120,8|0,0:0|0:0,0:0:0:0:
196,180,20884,2,0,P|220:212|252:228,1,60,0|8,0:0|0:0,0:0:0:0:
296,280,21237,2,0,P|320:228|296:168,2,120
232,224,22119,2,0,P|207:170|228:115,1,120
296,280,22825,5,4,0:0:0:0:
412,280,23178,6,0,P|452:228|456:212,1,60,8|0,0:0|0:0,0:0:0:0:
448,152,23531,1,0,0:0:0:0:
408,80,23707,1,0,0:0:0:0:
324,80,23884,1,8,0:0:0:0:
364,152,24060,2,0,P|340:204|276:220,1,120
200,224,24589,1,8,0:0:0:0:
200,224,24766,6,0,L|132:224,1,60
56,227,25119,2,0,P|24:179|28:155,2,60,0|8|0,0:0|0:0|0:0,0:0:0:0:
124,279,25649,2,0,P|140:211|104:155,1,120,0|8,0:0|0:0,0:0:0:0:
64,100,26178,2,0,P|112:80|188:116,1,120
228,164,26707,1,8,0:0:0:0:
280,228,26884,2,0,L|340:292,1,60
404,252,27237,2,0,L|344:188,1,60,0|8,0:0|0:0,0:0:0:0:
304,148,27590,1,0,0:0:0:0:
252,81,27766,2,0,P|307:62|360:88,2,120,0|8|4,0:0|0:0|0:0,0:0:0:0:
100,152,28825,6,0,P|55:191|51:249,1,120,8|0,0:0|0:0,0:0:0:0:
112,308,29354,2,0,L|170:322,1,60,0|8,0:0|0:0,0:0:0:0:
204,244,29707,2,0,L|140:228,1,60
100,152,30060,2,0,P|117:127|144:115,1,60,0|8,0:0|0:0,0:0:0:0:
225,142,30413,1,0,0:0:0:0:
292,196,30589,1,0,0:0:0:0:
360,148,30766,1,0,0:0:0:0:
364,64,30942,1,8,0:0:0:0:
292,20,31119,1,8,0:0:0:0:
208,32,31296,6,0,P|235:84|225:142,1,120,0|8,0:0|0:0,0:0:0:0:
164,200,31825,2,0,L|196:272,1,60
228,332,32178,2,0,P|248:372|280:388,2,60,0|8|0,0:0|0:0|0:0,0:0:0:0:
312,312,32707,2,0,P|356:288|376:240,2,90
292,228,33413,2,0,L|228:116,2,120,0|8|4,0:0|0:0|0:0,0:0:0:0:
128,212,34472,6,0,P|64:232|36:300,1,120,8|0,0:0|0:0,0:0:0:0:
116,292,35002,1,0,0:0:0:0:
116,292,35178,2,0,P|180:272|208:204,1,120,8|0,0:0|0:0,0:0:0:0:
176,148,35707,2,0,P|204:140|252:160,1,60,0|8,0:0|0:0,0:0:0:0:
296,88,36060,1,0,0:0:0:0:
360,140,36237,1,0,0:0:0:0:
344,220,36413,2,0,P|312:256|312:292,2,60,0|8|0,0:0|0:0|0:0,0:0:0:0:
284,164,36942,6,0,P|208:172|168:136,1,120,0|8,0:0|0:0,0:0:0:0:
240,92,37472,1,0,0:0:0:0:
240,92,37649,2,0,P|196:60|172:56,2,60,0|0|8,0:0|0:0|0:0,0:0:0:0:
284,164,38178,2,0,P|278:218|286:240,1,60
328,96,38531,2,0,P|377:73|393:55,1,60,0|8,0:0|0:0,0:0:0:0:
452,28,38884,1,0,0:0:0:0:
472,108,39060,2,0,P|496:140|472:228,1,120,0|8,0:0|0:0,0:0:0:0:
412,328,39766,1,4,0:0:0:0:
324,168,40119,5,8,0:0:0:0:
184,264,40472,2,0,L|256:216,2,60,0|0|8,0:0|0:0|0:0,0:0:0:0:
156,344,41002,2,0,P|110:307|101:247,1,120
124,168,41531,2,0,L|152:100,1,60,8|0,0:0|0:0,0:0:0:0:
228,136,41884,2,0,L|289:96,1,60
328,172,42236,2,0,L|401:175,1,60,8|0,0:0|0:0,0:0:0:0:
472,176,42589,1,0,0:0:0:0:
332,268,42942,6,0,L|273:266,1,60,8|0,0:0|0:0,0:0:0:0:
188,252,43295,1,0,0:0:0:0:
188,252,43472,2,0,L|144:296,1,60,0|8,0:0|0:0,0:0:0:0:
92,360,43825,2,0,P|146:382|200:360,1,120
256,116,44707,5,0,0:0:0:0:
184,156,44884,1,0,0:0:0:0:
256,200,45060,2,0,L|256:280,1,60
220,336,45413,2,0,P|278:340|332:292,1,120,4|0,0:0|0:0,0:0:0:0:
388,244,45942,2,0,P|392:156|360:120,1,120
316,192,46472,1,0,0:0:0:0:
256,254,46648,2,0,P|231:201|244:144,1,120
212,64,47178,6,0,L|132:64,1,60
68,76,47531,1,8,0:0:0:0:
48,156,47707,2,0,L|48:240,1,60
96,284,48060,1,0,0:0:0:0:
168,328,48236,2,0,P|224:352|292:308,2,120,0|0|8,0:0|0:0|0:0,0:0:0:0:
96,284,49119,1,0,0:0:0:0:
260,252,49472,2,0,P|320:260|360:324,1,120
432,268,50001,1,0,0:0:0:0:
472,192,50178,2,0,L|408:136,1,60,0|8,0:0|0:0,0:0:0:0:
312,28,50707,6,0,L|270:71,1,60
208,128,51060,1,4,0:0:0:0:
88,244,51413,1,4,0:0:0:0:
48,80,51766,1,2,0:0:0:0:
208,128,52119,1,4,0:0:0:0:
88,244,52472,1,4,0:0:0:0:
248,292,52825,1,4,0:0:0:0:
208,128,53178,1,2,0:0:0:0:
356,52,53531,6,0,P|372:108|368:132,1,60
452,132,53884,2,0,P|419:180|398:192,1,60
456,256,54236,2,0,P|398:262|375:253,1,60
364,340,54589,2,0,P|322:299|314:276,1,60
240,324,54942,2,0,P|244:265|257:244,1,60
288,192,55296,6,0,L|308:160,7,30
328,132,56001,6,0,B|336:84|312:64|312:64|264:72|228:96|228:96|180:84,1,210
140,80,56707,6,0,P|84:104|80:180,1,120,4|8,0:0|0:0,0:0:0:0:
100,236,57237,1,0,0:0:0:0:
172,280,57413,2,0,L|232:316,1,60
276,248,57766,2,0,L|342:225,1,60,8|0,0:0|0:0,0:0:0:0:
380,156,58119,1,0,0:0:0:0:
380,156,58295,2,0,P|376:112|288:84,1,120
236,108,58825,2,0,L|169:130,1,60
100,152,59178,1,8,0:0:0:0:
104,320,59531,6,0,P|148:268|148:204,1,120,4|8,0:0|0:0,0:0:0:0:
100,152,60060,1,0,0:0:0:0:
20,128,60236,2,0,P|64:76|136:76,1,120,0|8,0:0|0:0,0:0:0:0:
100,152,60766,2,0,P|157:139|192:92,1,120
184,176,61295,1,8,0:0:0:0:
124,232,61472,1,0,0:0:0:0:
160,308,61648,2,0,P|228:332|284:320,1,120,0|8,0:0|0:0,0:0:0:0:
388,204,62354,5,4,0:0:0:0:
384,120,62531,2,0,P|336:136|320:156,1,60,0|8,0:0|0:0,0:0:0:0:
268,196,62884,1,0,0:0:0:0:
228,272,63060,2,0,P|192:236|184:204,2,60,0|0|8,0:0|0:0|0:0,0:0:0:0:
300,312,63590,1,0,0:0:0:0:
380,336,63766,6,0,P|377:278|332:236,1,120,0|8,0:0|0:0,0:0:0:0:
252,216,64296,1,0,0:0:0:0:
168,200,64472,2,0,P|120:188|96:164,1,60
76,108,64825,1,8,0:0:0:0:
8,156,65002,1,0,0:0:0:0:
8,156,65178,6,0,P|-8:100|28:40,1,120,4|0,0:0|0:0,0:0:0:0:
138,42,65707,6,0,P|166:94|150:158,1,120
76,108,66237,6,0,L|216:92,1,120
280,84,66766,6,0,P|320:124|312:196,1,120
260,244,67296,2,0,L|192:296,1,60
140,240,67649,2,0,L|188:204,1,60,8|0,0:0|0:0,0:0:0:0:
120,156,68001,2,0,P|60:204|56:264,1,120,4|8,0:0|0:0,0:0:0:0:
92,320,68531,6,0,L|164:344,1,60
232,344,68884,1,0,0:0:0:0:
316,340,69060,2,0,L|372:321,1,60,8|0,0:0|0:0,0:0:0:0:
448,288,69413,1,0,0:0:0:0:
404,216,69589,2,0,L|328:244,1,60,0|8,0:0|0:0,0:0:0:0:
268,260,69942,1,0,0:0:0:0:
268,260,70119,2,0,P|232:224|236:152,2,120,0|8|4,0:0|0:0|0:0,0:0:0:0:
288,92,71178,5,8,0:0:0:0:
140,16,71531,2,0,P|111:9|68:25,1,60
112,96,71884,1,8,0:0:0:0:
142,176,72060,2,0,P|113:182|85:176,1,60
112,96,72413,2,0,P|171:96|220:136,1,120
245,212,72943,6,0,P|187:213|141:175,1,120,0|8,0:0|0:0,0:0:0:0:
148,260,73472,1,0,0:0:0:0:
224,296,73648,2,0,L|192:347,1,60,4|0,0:0|0:0,0:0:0:0:
304,288,74001,2,0,L|352:220,1,60,8|0,0:0|0:0,0:0:0:0:
392,172,74355,6,0,P|447:191|502:170,2,120,0|8|0,0:0|0:0|0:0,0:0:0:0:
320,132,75237,1,0,0:0:0:0:
244,96,75413,2,0,P|212:124|192:164,1,60,8|0,0:0|0:0,0:0:0:0:
124,108,75766,2,0,P|120:156|132:184,1,60
64,228,76119,2,0,P|100:248|128:248,1,60,8|0,0:0|0:0,0:0:0:0:
148,328,76472,2,0,P|184:304|200:280,1,60
184,208,76825,6,0,L|120:160,2,60,8|0|0,0:0|0:0|0:0,0:0:0:0:
256,252,77355,2,0,P|268:196|224:136,1,120
48,84,78060,5,0,0:0:0:0:
36,160,78237,1,0,0:0:0:0:
72,228,78413,5,0,0:0:0:0:
140,268,78589,1,0,0:0:0:0:
220,252,78766,5,0,0:0:0:0:
198,174,78942,2,0,P|152:210|140:268,1,120,0|4,0:0|0:0,0:0:0:0:
341,235,90590,5,4,0:0:0:0:
256,88,90943,6,0,P|208:60|136:96,1,120,8|0,0:0|0:0,0:0:0:0:
84,132,91472,1,0,0:0:0:0:
152,180,91649,2,0,P|148:232|128:256,1,60,8|0,0:0|0:0,0:0:0:0:
100,308,92001,1,0,0:0:0:0:
100,308,92178,2,0,P|156:321|212:288,1,120
268,232,92707,6,0,L|316:180,1,60
368,128,93060,1,8,0:0:0:0:
340,44,93237,1,0,0:0:0:0:
276,96,93413,2,0,B|212:160|212:160|176:172,1,120,0|8,0:0|0:0,0:0:0:0:
100,180,93942,2,0,P|44:228|52:288,1,120
108,324,94472,6,0,L|180:344,1,60,8|0,0:0|0:0,0:0:0:0:
248,360,94825,1,0,0:0:0:0:
220,280,95001,2,0,P|284:284|328:332,1,120
380,260,95531,2,0,P|424:298|482:300,1,120,0|8,0:0|0:0,0:0:0:0:
472,132,96237,1,4,0:0:0:0:
328,44,96590,6,0,P|292:76|200:88,1,120,8|0,0:0|0:0,0:0:0:0:
140,100,97119,1,0,0:0:0:0:
87,168,97296,2,0,P|65:148|56:120,2,60,8|0|0,0:0|0:0|0:0,0:0:0:0:
168,188,97825,2,0,P|144:228|64:248,1,120
36,324,98355,2,0,L|104:360,1,60
164,312,98707,2,0,L|235:283,1,60,8|0,0:0|0:0,0:0:0:0:
304,280,99060,2,0,P|248:252|232:192,1,120,0|8,0:0|0:0,0:0:0:0:
244,116,99589,6,0,L|252:48,2,60
232,200,100119,1,8,0:0:0:0:
316,196,100295,2,0,P|296:141|236:116,1,120
76,100,101002,2,0,L|-8:88,2,60
160,116,101531,2,0,P|131:167|73:186,1,120,8|4,0:0|0:0,0:0:0:0:
240,144,102236,6,0,P|220:192|200:216,1,60,8|0,0:0|0:0,0:0:0:0:
264,268,102589,2,0,P|214:283|183:283,1,60
188,368,102942,2,0,P|144:339|124:316,1,60,8|0,0:0|0:0,0:0:0:0:
128,252,103295,1,0,0:0:0:0:
100,172,103472,2,0,P|161:171|213:233,1,120
264,268,104002,6,0,L|300:204,1,60
260,140,104355,2,0,L|304:68,1,60,8|0,0:0|0:0,0:0:0:0:
224,40,104707,2,0,P|168:20|108:44,1,120
32,60,105236,2,0,P|65:108|128:124,1,120
140,292,105943,6,0,P|68:304|16:280,1,120
164,192,106649,2,0,L|244:192,1,60
384,140,107178,2,0,P|356:192|380:252,1,120,8|4,0:0|0:0,0:0:0:0:
504,352,107884,6,0,P|464:336|440:300,1,60,8|0,0:0|0:0,0:0:0:0:
388,272,108237,1,0,0:0:0:0:
320,228,108413,1,0,0:0:0:0:
236,240,108589,1,8,0:0:0:0:
320,228,108766,2,0,P|344:174|323:119,1,120
160,80,109472,5,0,0:0:0:0:
148,164,109648,2,0,P|119:158|96:140,1,60
20,176,110001,2,0,P|28:220|16:240,1,60,8|0,0:0|0:0,0:0:0:0:
72,300,110354,2,0,P|116:252|176:248,1,120,0|8,0:0|0:0,0:0:0:0:
244,280,110884,1,0,0:0:0:0:
256,364,111060,2,0,P|304:340|328:268,1,120,0|8,0:0|0:0,0:0:0:0:
244,280,111589,6,0,P|348:200|400:328,1,300
416,148,112825,6,0,L|352:112,1,60
288,80,113178,2,0,P|236:52|164:84,1,120,4|0,0:0|0:0,0:0:0:0:
116,124,113707,2,0,P|167:152|236:132,1,120
288,80,114237,1,0,0:0:0:0:
316,160,114413,1,0,0:0:0:0:
368,228,114589,2,0,P|400:260|480:264,2,120,0|0|8,0:0|0:0|0:0,0:0:0:0:
200,248,115648,5,0,0:0:0:0:
76,132,116001,2,0,P|136:108|200:136,2,120,0|0|8,0:0|0:0|0:0,0:0:0:0:
200,248,117060,2,0,P|256:263|310:240,2,120
236,84,118119,1,8,0:0:0:0:
392,148,118472,6,0,P|376:176|344:200,1,60
280,232,118825,1,4,0:0:0:0:
124,292,119178,1,4,0:0:0:0:
68,132,119531,1,2,0:0:0:0:
232,104,119884,1,4,0:0:0:0:
244,272,120237,1,4,0:0:0:0:
76,268,120590,1,4,0:0:0:0:
112,104,120943,1,2,0:0:0:0:
133,277,121296,6,0,P|103:279|76:268,1,60
111,195,121648,2,0,P|91:174|82:146,1,60
164,132,122001,2,0,P|166:102|182:77,1,60
248,127,122354,2,0,P|272:110|302:107,1,60
303,191,122707,2,0,P|331:199|354:220,1,60
220,208,123060,6,0,L|180:236,7,30
160,252,123766,6,0,B|112:284|112:284|64:268|48:200|88:136,1,210
104,120,124472,6,0,P|152:124|208:72,1,120,4|8,0:0|0:0,0:0:0:0:
272,32,125002,1,0,0:0:0:0:
344,76,125178,2,0,L|332:148,1,60
396,192,125531,1,8,0:0:0:0:
380,276,125707,2,0,L|324:340,1,60
284,260,126060,2,0,L|192:360,1,120
120,344,126590,2,0,P|76:344|43:317,1,60
96,260,126942,2,0,L|172:144,1,120,8|4,0:0|0:0,0:0:0:0:
84,128,127472,6,0,L|132:60,1,60,0|8,0:0|0:0,0:0:0:0:
172,16,127825,1,0,0:0:0:0:
244,60,128001,2,0,L|308:104,1,60
364,144,128354,1,8,0:0:0:0:
363,143,128531,2,0,P|306:130|254:157,1,120
192,216,129060,2,0,L|136:268,2,60,8|0|0,0:0|0:0|0:0,0:0:0:0:
254,158,129589,1,0,0:0:0:0:
258,71,129766,2,0,P|201:83|168:132,1,120,8|4,0:0|0:0,0:0:0:0:
112,292,130472,5,8,0:0:0:0:
112,292,130648,2,0,L|140:212,1,60
84,164,131001,2,0,L|117:91,1,60,0|8,0:0|0:0,0:0:0:0:
172,52,131354,1,0,0:0:0:0:
204,128,131531,2,0,P|260:152|324:120,1,120,0|8,0:0|0:0,0:0:0:0:
388,96,132060,1,0,0:0:0:0:
388,180,132236,2,0,P|368:237|406:298,1,120,0|8,0:0|0:0,0:0:0:0:
224,292,132942,6,0,P|248:238|229:183,1,120,4|0,0:0|0:0,0:0:0:0:
172,120,133472,6,0,P|228:136|288:100,1,120
328,40,134001,6,0,P|272:24|212:60,1,120
172,120,134531,6,0,P|116:148|48:116,1,120
112,60,135060,6,0,L|112:-4,1,60
172,120,135413,2,0,L|172:180,1,60,8|0,0:0|0:0,0:0:0:0:
172,264,135766,1,4,0:0:0:0:
324,336,136119,5,8,0:0:0:0:
388,284,136295,2,0,L|444:232,2,60
308,256,136825,1,8,0:0:0:0:
264,184,137001,2,0,P|228:228|232:292,1,120
308,256,137531,2,0,L|372:280,1,60,8|0,0:0|0:0,0:0:0:0:
264,184,137884,2,0,P|239:166|140:160,2,120,0|8|4,0:0|0:0|0:0,0:0:0:0:
100,220,138942,5,8,0:0:0:0:
96,304,139119,2,0,P|125:300|152:286,2,60
100,220,139649,1,8,0:0:0:0:
180,200,139825,2,0,P|232:240|240:308,1,120
304,348,140354,2,0,L|360:320,1,60,8|0,0:0|0:0,0:0:0:0:
432,280,140707,2,0,P|479:241|485:177,1,120,0|8,0:0|0:0,0:0:0:0:
436,120,141236,6,0,L|380:76,1,60,0|4,0:0|0:0,0:0:0:0:
324,140,141589,2,0,L|254:154,1,60,0|8,0:0|0:0,0:0:0:0:
260,236,141942,2,0,L|226:298,1,60
164,240,142295,2,0,L|191:186,1,60,0|8,0:0|0:0,0:0:0:0:
196,104,142648,1,0,0:0:0:0:
140,40,142825,2,0,P|112:84|128:156,1,120,0|8,0:0|0:0,0:0:0:0:
192,187,143354,2,0,P|249:175|300:204,1,120
364,260,143884,6,0,P|384:208|360:144,1,120,8|4,0:0|0:0,0:0:0:0:
296,96,144413,1,0,0:0:0:0:
212,96,144589,2,0,L|152:96,1,60,8|0,0:0|0:0,0:0:0:0:
112,168,144943,1,0,0:0:0:0:
192,188,145119,2,0,L|160:260,1,60,0|8,0:0|0:0,0:0:0:0:
236,296,145472,2,0,L|176:344,1,60
104,336,145825,5,0,0:0:0:0:
49,276,146001,1,0,0:0:0:0:
63,196,146177,5,0,0:0:0:0:
128,140,146354,1,0,0:0:0:0:
212,144,146531,5,0,0:0:0:0:
284,188,146707,2,0,P|336:208|396:180,1,120,0|4,0:0|0:0,0:0:0:0:
