osu file format v13

[General]
AudioFilename: FLAT.mp3
AudioLeadIn: 1500
PreviewTime: 48210
Countdown: 0
SampleSet: Soft
StackLeniency: 0.3
Mode: 0
LetterboxInBreaks: 0
WidescreenStoryboard: 0

[Editor]
DistanceSpacing: 0.8
BeatDivisor: 4
GridSize: 8
TimelineZoom: 1

[Metadata]
Title:FLAT TV size edit.
TitleUnicode:FLAT TV size edit.
Artist:livetune adding Yuuki Ozaki(from Galileo Galilei)
ArtistUnicode:livetune adding Yuuki Ozaki(from Galileo Galilei)
Creator:No_Gu
Version:Insane
Source:Hamatora THE ANIMATION
Tags:ハマトラ kz ガリレオ ガリレイ 尾崎雄貴 mintong89 KantoKun
BeatmapID:355694
BeatmapSetID:142915

[Difficulty]
HPDrainRate:7
CircleSize:4
OverallDifficulty:8
ApproachRate:9
SliderMultiplier:1.6
SliderTickRate:1

[Events]
//Background and Video events
0,0,"BGT1.png",0,0
Video,479,"video.avi"
//Break Periods
//Storyboard Layer 0 (Background)
//Storyboard Layer 1 (Fail)
//Storyboard Layer 2 (Pass)
//Storyboard Layer 3 (Foreground)
//Storyboard Sound Samples
//Background Colour Transformations
3,100,163,162,255

[TimingPoints]
211,333.333333333333,4,2,1,50,1,0
211,-200,4,2,1,50,0,0
5544,-90.9090909090909,4,1,1,70,0,0
5627,-90.9090909090909,4,2,1,70,0,0
6377,-90.9090909090909,4,1,1,70,0,0
6460,-90.9090909090909,4,2,1,70,0,0
6710,-90.9090909090909,4,1,1,70,0,0
7127,-90.9090909090909,4,2,1,70,0,0
7377,-90.9090909090909,4,1,1,70,0,0
7460,-90.9090909090909,4,2,1,70,0,0
7710,-90.9090909090909,4,1,1,70,0,0
7877,-90.9090909090909,4,2,1,70,0,0
8210,-90.9090909090909,4,1,1,70,0,0
8293,-90.9090909090909,4,2,1,70,0,0
9043,-90.9090909090909,4,1,1,70,0,0
9126,-90.9090909090909,4,2,1,70,0,0
9376,-90.9090909090909,4,1,1,70,0,0
9793,-90.9090909090909,4,2,1,70,0,0
10043,-90.9090909090909,4,1,1,70,0,0
10126,-90.9090909090909,4,2,1,70,0,0
10376,-90.9090909090909,4,1,1,70,0,0
10543,-90.9090909090909,4,2,1,70,0,0
10877,-90.9090909090909,4,1,1,70,0,0
10960,-90.9090909090909,4,2,1,70,0,0
11710,-90.9090909090909,4,1,1,70,0,0
11793,-90.9090909090909,4,2,1,70,0,0
12043,-90.9090909090909,4,1,1,70,0,0
12460,-90.9090909090909,4,2,1,70,0,0
12710,-90.9090909090909,4,1,1,70,0,0
12793,-90.9090909090909,4,2,1,70,0,0
13043,-90.9090909090909,4,1,1,70,0,0
13210,-90.9090909090909,4,2,1,70,0,0
13543,-90.9090909090909,4,1,1,70,0,0
13626,-90.9090909090909,4,2,1,70,0,0
14376,-90.9090909090909,4,1,1,70,0,0
14459,-90.9090909090909,4,2,1,70,0,0
14709,-90.9090909090909,4,1,1,70,0,0
14877,-200,4,1,1,70,0,0
15210,-200,4,2,1,50,0,0
16210,-100,4,1,1,70,0,0
16294,-100,4,2,1,70,0,0
17044,-100,4,1,1,70,0,0
17127,-100,4,2,1,70,0,0
17377,-100,4,1,1,70,0,0
17460,-100,4,2,1,70,0,0
17710,-100,4,1,1,70,0,0
17794,-100,4,2,1,70,0,0
18044,-100,4,1,1,70,0,0
18127,-100,4,2,1,70,0,0
18377,-100,4,1,1,70,0,0
18460,-100,4,2,1,70,0,0
18877,-100,4,1,1,70,0,0
18961,-100,4,2,1,70,0,0
19711,-100,4,1,1,70,0,0
19794,-100,4,2,1,70,0,0
20044,-100,4,1,1,70,0,0
20127,-100,4,2,1,70,0,0
20377,-100,4,1,1,70,0,0
20461,-100,4,2,1,70,0,0
20711,-100,4,1,1,70,0,0
20794,-100,4,2,1,70,0,0
21044,-100,4,1,1,70,0,0
21127,-100,4,2,1,70,0,0
21544,-100,4,1,1,70,0,0
21628,-100,4,2,1,70,0,0
22378,-100,4,1,1,70,0,0
22461,-100,4,2,1,70,0,0
22711,-100,4,1,1,70,0,0
22794,-100,4,2,1,70,0,0
23044,-100,4,1,1,70,0,0
23128,-100,4,2,1,70,0,0
23378,-100,4,1,1,70,0,0
23461,-100,4,2,1,70,0,0
23711,-100,4,1,1,70,0,0
23794,-100,4,2,1,70,0,0
24211,-100,4,1,1,70,0,0
24295,-100,4,2,1,70,0,0
25045,-100,4,1,1,70,0,0
25128,-100,4,2,1,70,0,0
25378,-100,4,1,1,70,0,0
25461,-100,4,2,1,70,0,0
25711,-100,4,1,1,70,0,0
25795,-100,4,2,1,70,0,0
26045,-100,4,1,1,70,0,0
26128,-100,4,2,1,70,0,0
26378,-100,4,1,1,70,0,0
26461,-100,4,2,1,70,0,0
26877,-100,4,1,1,70,0,0
26961,-100,4,2,1,70,0,0
27711,-100,4,1,1,70,0,0
27794,-100,4,2,1,70,0,0
28044,-100,4,1,1,70,0,0
28127,-100,4,2,1,70,0,0
28377,-100,4,1,1,70,0,0
28461,-100,4,2,1,70,0,0
28711,-100,4,1,1,70,0,0
28794,-100,4,2,1,70,0,0
29044,-100,4,1,1,70,0,0
29127,-100,4,2,1,70,0,0
29544,-100,4,1,1,70,0,0
29628,-100,4,2,1,70,0,0
30378,-100,4,1,1,70,0,0
30461,-100,4,2,1,70,0,0
30711,-100,4,1,1,70,0,0
30794,-100,4,2,1,70,0,0
31044,-100,4,1,1,70,0,0
31128,-100,4,2,1,70,0,0
31378,-100,4,1,1,70,0,0
31461,-100,4,2,1,70,0,0
31711,-100,4,1,1,70,0,0
31794,-100,4,2,1,70,0,0
32211,-100,4,1,1,70,0,0
32295,-100,4,2,1,70,0,0
33045,-100,4,1,1,70,0,0
33128,-100,4,2,1,70,0,0
33378,-100,4,1,1,70,0,0
33461,-100,4,2,1,70,0,0
33711,-100,4,1,1,70,0,0
33795,-100,4,2,1,70,0,0
34045,-100,4,1,1,70,0,0
34128,-100,4,2,1,70,0,0
34378,-100,4,1,1,70,0,0
34461,-100,4,2,1,70,0,0
34878,-100,4,1,1,70,0,0
34960,-100,4,2,1,70,0,0
35710,-100,4,1,1,70,0,0
35793,-100,4,2,1,70,0,0
36376,-100,4,1,1,70,0,0
36460,-100,4,2,1,70,0,0
36710,-100,4,1,1,70,0,0
36793,-100,4,2,1,70,0,0
37043,-100,4,1,1,70,0,0
37126,-100,4,2,1,70,0,0
37544,-200,4,2,1,70,0,0
38044,-133.333333333333,4,2,1,70,0,0
38544,-100,4,2,1,70,0,0
40710,-133.333333333333,4,2,1,70,0,0
41210,-200,4,2,1,70,0,0
41710,-100,4,2,1,70,0,0
42877,-100,4,1,1,70,0,0
46710,-200,4,2,1,70,0,0
48210,-100,4,2,1,50,0,0
49044,-66.6666666666667,4,2,1,50,0,0
49544,-90.9090909090909,4,1,1,70,0,1
49628,-90.9090909090909,4,2,1,70,0,1
50378,-90.9090909090909,4,1,1,70,0,1
50461,-90.9090909090909,4,2,1,70,0,1
50711,-90.9090909090909,4,1,1,70,0,1
50794,-90.9090909090909,4,2,1,70,0,1
51044,-90.9090909090909,4,1,1,70,0,1
51128,-90.9090909090909,4,2,1,70,0,1
51378,-90.9090909090909,4,1,1,70,0,1
51461,-90.9090909090909,4,2,1,70,0,1
51711,-90.9090909090909,4,1,1,70,0,1
51794,-90.9090909090909,4,2,1,70,0,1
52211,-90.9090909090909,4,1,1,70,0,1
52295,-90.9090909090909,4,2,1,70,0,1
53045,-90.9090909090909,4,1,1,70,0,1
53128,-90.9090909090909,4,2,1,70,0,1
53378,-90.9090909090909,4,1,1,70,0,1
53461,-90.9090909090909,4,2,1,70,0,1
53711,-90.9090909090909,4,1,1,70,0,1
53795,-90.9090909090909,4,2,1,70,0,1
54045,-90.9090909090909,4,1,1,70,0,1
54128,-90.9090909090909,4,2,1,70,0,1
54378,-90.9090909090909,4,1,1,70,0,1
54461,-90.9090909090909,4,2,1,70,0,1
54878,-90.9090909090909,4,1,1,70,0,1
54960,-90.9090909090909,4,2,1,70,0,1
55710,-90.9090909090909,4,1,1,70,0,1
55793,-90.9090909090909,4,2,1,70,0,1
56043,-90.9090909090909,4,1,1,70,0,1
56126,-90.9090909090909,4,2,1,70,0,1
56376,-90.9090909090909,4,1,1,70,0,1
56460,-90.9090909090909,4,2,1,70,0,1
56710,-90.9090909090909,4,1,1,70,0,1
56793,-90.9090909090909,4,2,1,70,0,1
57043,-90.9090909090909,4,1,1,70,0,1
57126,-90.9090909090909,4,2,1,70,0,1
57543,-90.9090909090909,4,1,1,70,0,1
57627,-90.9090909090909,4,2,1,70,0,1
58377,-90.9090909090909,4,1,1,70,0,1
58460,-90.9090909090909,4,2,1,70,0,1
58710,-90.9090909090909,4,1,1,70,0,1
58793,-90.9090909090909,4,2,1,70,0,1
59043,-90.9090909090909,4,1,1,70,0,1
59127,-90.9090909090909,4,2,1,70,0,1
59377,-90.9090909090909,4,1,1,70,0,1
59460,-90.9090909090909,4,2,1,70,0,1
59710,-90.9090909090909,4,1,1,70,0,1
59793,-90.9090909090909,4,2,1,70,0,1
60209,-90.9090909090909,4,1,1,70,0,1
60293,-90.9090909090909,4,2,1,70,0,1
61043,-90.9090909090909,4,1,1,70,0,1
61126,-90.9090909090909,4,2,1,70,0,1
61376,-90.9090909090909,4,1,1,70,0,1
61459,-90.9090909090909,4,2,1,70,0,1
61709,-90.9090909090909,4,1,1,70,0,1
61793,-90.9090909090909,4,2,1,70,0,1
62043,-90.9090909090909,4,1,1,70,0,1
62126,-90.9090909090909,4,2,1,70,0,1
62376,-90.9090909090909,4,1,1,70,0,1
62459,-90.9090909090909,4,2,1,70,0,1
62876,-90.9090909090909,4,1,1,70,0,1
62960,-90.9090909090909,4,2,1,70,0,1
63710,-90.9090909090909,4,1,1,70,0,1
63793,-90.9090909090909,4,2,1,70,0,1
64043,-90.9090909090909,4,1,1,70,0,1
64126,-90.9090909090909,4,2,1,70,0,1
64376,-90.9090909090909,4,1,1,70,0,1
64460,-90.9090909090909,4,2,1,70,0,1
64710,-90.9090909090909,4,1,1,70,0,1
64793,-90.9090909090909,4,2,1,70,0,1
65043,-90.9090909090909,4,1,1,70,0,1
65126,-90.9090909090909,4,2,1,70,0,1
65543,-90.9090909090909,4,1,1,70,0,1
65627,-90.9090909090909,4,2,1,70,0,1
66377,-90.9090909090909,4,1,1,70,0,1
66460,-90.9090909090909,4,2,1,70,0,1
66710,-90.9090909090909,4,1,1,70,0,1
66793,-90.9090909090909,4,2,1,70,0,1
67043,-90.9090909090909,4,1,1,70,0,1
67127,-90.9090909090909,4,2,1,70,0,1
67377,-90.9090909090909,4,1,1,70,0,1
67460,-90.9090909090909,4,2,1,70,0,1
67710,-90.9090909090909,4,1,1,70,0,1
67793,-90.9090909090909,4,2,1,70,0,1
68210,-90.9090909090909,4,1,1,70,0,1
68294,-90.9090909090909,4,2,1,70,0,1
69044,-90.9090909090909,4,1,1,70,0,1
69127,-90.9090909090909,4,2,1,70,0,1
69377,-90.9090909090909,4,1,1,70,0,1
69460,-90.9090909090909,4,2,1,70,0,1
69710,-90.9090909090909,4,1,1,70,0,1
69794,-90.9090909090909,4,2,1,70,0,1
70044,-90.9090909090909,4,1,1,70,0,1
70127,-90.9090909090909,4,2,1,70,0,1
70377,-90.9090909090909,4,1,1,70,0,1
70460,-90.9090909090909,4,2,1,70,0,1
70877,-90.9090909090909,4,1,1,70,0,1
70961,-90.9090909090909,4,2,1,70,0,1
71711,-90.9090909090909,4,1,1,70,0,1
71794,-90.9090909090909,4,2,1,70,0,1
72044,-90.9090909090909,4,1,1,70,0,1
72127,-90.9090909090909,4,2,1,70,0,1
72377,-90.9090909090909,4,1,1,70,0,1
72461,-90.9090909090909,4,2,1,70,0,1
72711,-90.9090909090909,4,1,1,70,0,1
72794,-90.9090909090909,4,2,1,70,0,1
73044,-90.9090909090909,4,1,1,70,0,1
73127,-90.9090909090909,4,2,1,70,0,1
73544,-90.9090909090909,4,1,1,70,0,1
73627,-90.9090909090909,4,2,1,70,0,1
74377,-90.9090909090909,4,1,1,70,0,1
74460,-90.9090909090909,4,2,1,70,0,1
74711,-90.9090909090909,4,1,1,70,0,1
74794,-90.9090909090909,4,2,1,50,0,1
76210,-90.9090909090909,4,1,1,70,0,0
76295,-90.9090909090909,4,2,1,70,0,0
77045,-90.9090909090909,4,1,1,70,0,0
77128,-90.9090909090909,4,2,1,70,0,0
77378,-90.9090909090909,4,1,1,70,0,0
77795,-90.9090909090909,4,2,1,70,0,0
78045,-90.9090909090909,4,1,1,70,0,0
78128,-90.9090909090909,4,2,1,70,0,0
78378,-90.9090909090909,4,1,1,70,0,0
78545,-90.9090909090909,4,2,1,70,0,0
78878,-90.9090909090909,4,1,1,70,0,0
78961,-90.9090909090909,4,2,1,70,0,0
79711,-90.9090909090909,4,1,1,70,0,0
79794,-90.9090909090909,4,2,1,70,0,0
80044,-90.9090909090909,4,1,1,70,0,0
80461,-90.9090909090909,4,2,1,70,0,0
80711,-90.9090909090909,4,1,1,70,0,0
80794,-90.9090909090909,4,2,1,70,0,0
81044,-90.9090909090909,4,1,1,70,0,0
81211,-90.9090909090909,4,2,1,70,0,0
81545,-90.9090909090909,4,1,1,70,0,0
81628,-90.9090909090909,4,2,1,70,0,0
82378,-90.9090909090909,4,1,1,70,0,0
82461,-90.9090909090909,4,2,1,70,0,0
82711,-90.9090909090909,4,1,1,70,0,0
83128,-90.9090909090909,4,2,1,70,0,0
83378,-90.9090909090909,4,1,1,70,0,0
83461,-90.9090909090909,4,2,1,70,0,0
83711,-90.9090909090909,4,1,1,70,0,0
83878,-90.9090909090909,4,2,1,70,0,0
84211,-90.9090909090909,4,1,1,70,0,0
84294,-90.9090909090909,4,2,1,70,0,0
85044,-90.9090909090909,4,1,1,70,0,0
85127,-90.9090909090909,4,2,1,70,0,0
85377,-90.9090909090909,4,1,1,70,0,0
86544,-90.9090909090909,4,2,1,70,0,0
86877,-100,4,2,1,50,0,0
88044,-200,4,2,1,50,0,0
88210,-100,4,2,1,5,0,0

[Colours]
Combo1 : 128,255,128
Combo2 : 255,255,128
Combo3 : 128,255,255
Combo4 : 255,128,128

[HitObjects]
80,96,211,5,2,0:0:0:0:
70,113,377,1,2,0:0:0:0:
240,184,544,1,0,0:0:0:0:
249,201,710,1,2,0:0:0:0:
376,80,877,2,0,L|416:96,1,40,0|0,0:0|0:0,0:0:0:0:
232,32,1210,2,0,L|269:17,1,40,2|0,0:0|0:0,0:0:0:0:
392,184,1544,5,0,0:0:0:0:
392,264,1710,2,0,P|368:264|352:256,1,40,2|0,0:0|0:0,0:0:0:0:
288,176,2044,1,0,0:0:0:0:
480,224,2210,1,2,0:0:0:0:
504,304,2377,1,2,0:0:0:0:
264,264,2544,1,2,0:0:0:0:
240,344,2711,1,2,0:0:0:0:
40,112,2877,5,2,0:0:0:0:
56,104,3044,1,2,0:0:0:0:
152,232,3210,1,0,0:0:0:0:
161,215,3377,1,2,0:0:0:0:
336,248,3544,1,0,0:0:0:0:
336,226,3711,1,0,0:0:0:0:
507,172,3877,1,2,0:0:0:0:
496,152,4044,1,0,0:0:0:0:
184,80,4210,5,12,0:1:0:0:
272,272,4377,1,0,1:0:0:0:
272,272,4460,1,8,0:0:0:0:
272,272,4544,1,0,1:0:0:0:
192,48,4710,1,12,0:1:0:0:
48,216,4877,1,0,1:0:0:0:
304,144,5044,2,0,L|352:152,1,40,0|8,1:0|0:0,0:0:0:0:
352,160,5294,1,0,0:0:0:0:
360,168,5377,1,0,0:0:0:0:
368,176,5460,1,0,0:0:0:0:
376,184,5544,6,0,L|392:32,1,132,4|0,1:0|0:0,0:0:0:0:
312,72,5877,2,0,L|216:64,1,88,8|0,0:0|0:0,0:0:0:0:
168,136,6127,1,8,0:0:0:0:
168,136,6210,2,0,P|208:152|255:143,1,88,0|0,0:0|1:0,0:0:0:0:
392,16,6544,1,8,0:0:0:0:
440,272,6710,6,0,P|352:288|288:232,1,176,2|0,1:0|1:0,0:0:0:0:
336,144,7210,1,8,0:0:0:0:
192,272,7377,1,0,1:0:0:0:
192,272,7460,1,8,0:0:0:0:
192,272,7544,2,0,L|104:264,1,88,0|0,2:0|0:0,0:0:0:0:
80,72,7877,1,8,0:0:0:0:
111,63,7960,1,0,0:0:0:0:
144,68,8043,1,0,0:0:0:0:
171,86,8126,1,0,0:0:0:0:
189,113,8210,6,0,B|320:104,1,132,2|0,0:0|0:0,0:0:0:0:
384,152,8544,2,0,P|400:200|384:240,1,88,8|0,0:0|0:0,0:0:0:0:
336,288,8794,1,8,0:0:0:0:
336,288,8877,2,0,P|320:336|336:376,1,88,0|0,0:0|0:0,0:0:0:0:
416,336,9210,1,8,0:0:0:0:
256,224,9377,6,0,P|168:208|104:272,1,176,2|0,0:0|0:0,0:0:0:0:
200,296,9877,1,8,0:0:0:0:
248,120,10044,1,0,0:0:0:0:
248,120,10127,1,8,0:0:0:0:
248,120,10210,2,0,P|192:112|144:120,1,88,2|0,0:0|0:0,0:0:0:0:
344,168,10544,2,0,L|360:80,1,88,8|0,0:0|0:0,0:0:0:0:
256,224,10877,6,0,P|312:264|376:264,1,132,2|0,0:0|0:0,0:0:0:0:
432,216,11210,2,0,L|448:128,1,88,8|0,0:0|0:0,0:0:0:0:
408,64,11460,1,8,0:0:0:0:
408,64,11544,2,0,P|352:48|312:56,1,88,0|0,0:0|0:0,0:0:0:0:
176,152,11877,1,8,0:0:0:0:
328,240,12044,1,0,0:0:0:0:
328,240,12377,5,0,0:0:0:0:
496,184,12544,2,0,L|400:176,1,88,8|0,0:0|0:0,0:0:0:0:
408,176,12794,1,8,0:0:0:0:
408,176,12877,1,2,0:0:0:0:
304,344,13044,1,0,0:0:0:0:
232,88,13210,1,8,0:0:0:0:
96,168,13377,1,0,0:0:0:0:
96,168,13460,1,0,0:0:0:0:
96,168,13544,6,0,P|56:232|80:304,1,132,2|0,0:0|0:0,0:0:0:0:
128,344,13877,2,0,L|216:352,1,88,8|0,0:0|0:0,0:0:0:0:
216,352,14127,1,8,0:0:0:0:
216,352,14210,1,0,0:0:0:0:
184,144,14377,1,0,0:0:0:0:
304,232,14544,2,0,P|313:274|299:315,1,88,8|0,0:0|0:0,0:0:0:0:
184,280,14877,6,0,L|223:273,1,40,0|0,0:0|0:0,0:0:0:0:
152,200,15210,2,0,L|200:192,1,40,2|0,0:0|1:0,0:0:0:0:
200,185,15460,1,0,1:0:0:0:
208,177,15544,1,2,0:0:0:0:
216,168,15627,1,0,1:0:0:0:
224,160,15710,1,0,1:0:0:0:
48,176,15877,2,0,L|56:168,7,10,8|2|0|2|0|2|0|2,0:0|0:0|0:0|0:0|0:0|0:0|0:0|0:0,0:0:0:0:
24,184,16210,6,0,B|56:216|56:216|40:336,1,160,4|8,0:0|0:0,0:0:0:0:
136,304,16710,1,2,0:0:0:0:
136,304,16794,1,8,0:0:0:0:
136,304,16877,2,0,P|184:312|216:344,1,80,0|0,0:0|0:0,0:0:0:0:
352,232,17210,2,0,P|369:277|357:321,1,80,8|2,0:0|0:0,0:0:0:0:
280,280,17544,5,0,0:0:0:0:
392,152,17710,2,0,L|472:160,1,80,2|8,0:0|0:0,0:0:0:0:
416,24,18044,1,0,0:0:0:0:
455,20,18127,1,8,0:0:0:0:
495,16,18210,1,2,0:0:0:0:
336,88,18377,1,0,0:0:0:0:
192,40,18544,2,0,P|128:40|112:48,1,80,8|0,0:0|0:0,0:0:0:0:
152,272,18877,6,0,B|176:232|176:232|160:112,1,160,2|8,0:0|0:0,0:0:0:0:
256,176,19377,1,2,0:0:0:0:
256,176,19460,1,8,0:0:0:0:
256,176,19544,2,0,L|336:168,1,80,0|0,0:0|0:0,0:0:0:0:
400,320,19877,2,0,L|320:328,1,80,8|0,0:0|0:0,0:0:0:0:
168,200,20210,6,0,P|168:144|184:120,1,80,0|0,0:0|0:0,0:0:0:0:
312,96,20544,2,0,P|360:68|389:69,1,80,8|0,0:0|0:0,0:0:0:0:
432,128,20794,1,8,0:0:0:0:
432,128,20877,2,0,P|480:156|493:181,1,80,2|0,0:0|0:0,0:0:0:0:
400,320,21210,2,0,L|320:312,1,80,8|0,0:0|0:0,0:0:0:0:
96,240,21544,6,0,P|72:160|104:88,1,160,0|8,0:0|0:0,0:0:0:0:
273,185,22044,1,0,0:0:0:0:
249,180,22127,1,8,0:0:0:0:
224,176,22210,1,0,0:0:0:0:
199,173,22294,1,0,0:0:0:0:
173,169,22377,1,0,0:0:0:0:
224,320,22544,2,0,P|272:336|312:328,1,80,8|0,0:0|0:0,0:0:0:0:
424,296,22877,6,0,P|461:262|474:223,1,80,0|2,0:0|0:0,0:0:0:0:
400,88,23210,2,0,L|408:176,1,80,8|0,0:0|0:0,0:0:0:0:
360,224,23460,1,8,0:0:0:0:
360,224,23544,2,0,P|312:232|272:216,1,80,0|0,0:0|0:0,0:0:0:0:
280,8,23877,1,8,0:0:0:0:
120,144,24044,1,0,0:0:0:0:
120,144,24127,1,0,0:0:0:0:
120,144,24210,6,0,P|168:136|208:152,1,80,2|0,0:0|0:0,0:0:0:0:
312,312,24544,2,0,L|224:304,1,80,8|2,0:0|0:0,0:0:0:0:
168,264,24794,1,8,0:0:0:0:
168,264,24877,2,0,P|163:244|162:219,2,40,0|0|0,0:0|0:0|0:0,0:0:0:0:
376,248,25210,1,8,0:0:0:0:
224,352,25377,2,0,L|136:344,1,80,2|0,0:0|0:0,0:0:0:0:
176,184,25710,6,0,L|88:192,1,80,2|8,0:0|0:0,0:0:0:0:
256,112,26044,1,0,0:0:0:0:
256,112,26127,1,8,0:0:0:0:
256,112,26210,1,2,0:0:0:0:
224,24,26377,1,2,0:0:0:0:
440,96,26544,1,10,0:0:0:0:
472,8,26711,1,2,0:0:0:0:
368,176,26877,6,0,P|368:216|392:256,1,80,2|0,0:0|0:0,0:0:0:0:
456,192,27210,1,8,0:0:0:0:
312,312,27377,1,2,0:0:0:0:
312,312,27460,1,8,0:0:0:0:
312,312,27544,2,0,L|216:304,1,80,0|0,0:0|0:0,0:0:0:0:
144,144,27877,2,0,L|223:150,1,80,8|0,0:0|0:0,0:0:0:0:
72,88,28210,6,0,P|64:48|72:8,1,80,0|2,0:0|0:0,0:0:0:0:
56,176,28544,2,0,P|64:216|56:256,1,80,8|0,0:0|0:0,0:0:0:0:
0,296,28794,1,8,0:0:0:0:
0,296,28877,2,2,L|80:288,1,80,2|2,0:0|0:0,0:0:0:0:
224,360,29210,1,8,0:0:0:0:
360,320,29377,1,2,0:0:0:0:
368,312,29460,1,0,0:0:0:0:
376,304,29544,6,0,B|384:248|384:248|368:208|368:208|376:144,1,160,2|8,0:0|0:0,0:0:0:0:
456,200,30044,1,2,0:0:0:0:
456,200,30127,1,10,0:0:0:0:
456,200,30210,2,0,L|464:104,1,80,0|0,0:0|0:0,0:0:0:0:
304,32,30544,2,0,P|256:32|216:56,1,80,8|0,0:0|0:0,0:0:0:0:
88,64,30877,6,0,P|64:105|64:152,1,80,0|2,0:0|0:0,0:0:0:0:
128,264,31210,1,8,0:0:0:0:
336,224,31377,1,0,0:0:0:0:
336,224,31460,1,8,0:0:0:0:
336,224,31544,2,0,L|256:216,1,80,0|0,0:0|0:0,0:0:0:0:
408,168,31877,1,8,0:0:0:0:
424,192,31960,1,0,0:0:0:0:
431,221,32043,1,0,0:0:0:0:
429,251,32126,1,0,0:0:0:0:
417,278,32210,6,0,P|368:320|264:312,1,160,0|8,0:0|0:0,0:0:0:0:
192,200,32710,1,0,0:0:0:0:
192,200,32794,1,8,0:0:0:0:
192,200,32877,2,0,L|200:112,1,80,0|0,0:0|0:0,0:0:0:0:
56,32,33210,2,0,L|64:120,1,80,8|0,0:0|0:0,0:0:0:0:
144,288,33544,5,0,0:0:0:0:
336,272,33710,2,0,P|368:264|416:280,1,80,2|8,0:0|0:0,0:0:0:0:
369,352,34044,1,0,0:0:0:0:
369,352,34127,1,8,0:0:0:0:
369,352,34210,1,0,0:0:0:0:
304,192,34377,1,0,0:0:0:0:
480,224,34544,1,8,0:0:0:0:
480,224,34877,6,0,P|512:160|496:72,1,160,0|8,0:0|0:0,0:0:0:0:
408,32,35377,1,0,0:0:0:0:
408,32,35460,1,8,0:0:0:0:
408,32,35544,2,0,L|328:40,1,80,0|0,0:0|0:0,0:0:0:0:
288,176,35877,1,8,0:0:0:0:
200,16,36044,1,8,0:0:0:0:
200,16,36377,5,0,0:0:0:0:
288,176,36544,1,8,0:0:0:0:
192,128,36710,1,0,0:0:0:0:
192,128,36794,1,8,0:0:0:0:
192,128,36877,2,0,P|144:120|104:136,1,80,2|2,0:0|0:0,0:0:0:0:
56,288,37210,2,0,P|104:296|144:280,1,80,10|2,0:0|0:0,0:0:0:0:
320,16,37544,6,0,L|304:104,1,80,4|0,1:0|0:0,0:0:0:0:
336,184,38044,6,0,P|384:224|456:208,1,120,0|0,1:0|0:0,0:0:0:0:
248,176,38544,6,0,P|192:144|104:168,1,160,0|0,1:0|0:0,0:0:0:0:
64,256,39044,1,0,0:0:0:0:
152,328,39210,2,0,L|160:248,1,80,8|8,0:0|0:0,0:0:0:0:
352,296,39544,2,0,L|344:216,1,80,0|0,1:0|0:0,0:0:0:0:
304,72,39877,1,0,1:0:0:0:
176,56,40044,1,0,0:0:0:0:
104,168,40210,6,0,P|177:193|247:159,1,160,0|0,1:0|0:0,0:0:0:0:
438,116,40710,6,0,P|379:112|335:151,1,120,0|0,1:0|0:0,0:0:0:0:
305,241,41210,6,0,L|319:319,1,80,0|0,1:0|0:0,0:0:0:0:
400,360,41710,5,8,0:0:0:0:
232,184,41877,1,8,0:0:0:0:
144,288,42044,1,0,1:0:0:0:
144,288,42127,1,0,0:0:0:0:
144,288,42210,2,0,L|88:280,1,40,8|2,0:0|0:0,0:0:0:0:
224,272,42377,2,0,L|280:280,1,40,0|2,1:0|0:0,0:0:0:0:
88,264,42544,2,0,L|32:256,1,40,8|2,0:0|0:0,0:0:0:0:
280,264,42711,2,0,L|336:272,1,40,0|2,0:0|0:0,0:0:0:0:
456,296,42877,5,0,0:0:0:0:
392,88,43210,1,0,0:0:0:0:
120,88,43544,1,0,0:0:0:0:
56,296,43877,1,0,0:0:0:0:
256,192,44210,5,0,0:0:0:0:
256,192,44544,1,0,0:0:0:0:
256,192,44877,1,0,0:0:0:0:
256,192,45210,1,0,0:0:0:0:
256,192,45544,6,0,L|264:104,1,80,8|0,2:0|0:0,0:0:0:0:
336,56,45877,1,0,0:0:0:0:
176,240,46044,2,0,P|136:248|96:224,1,80,8|0,2:0|2:0,0:0:0:0:
72,152,46377,1,0,0:0:0:0:
152,160,46544,1,8,2:0:0:0:
200,320,46710,6,0,B|128:344|56:304|56:304|96:368|208:368,1,320,4|0,1:0|0:0,0:0:0:0:
336,320,48210,5,12,0:1:0:0:
272,96,48377,1,0,1:0:0:0:
272,96,48460,1,8,0:0:0:0:
272,96,48544,1,0,1:0:0:0:
112,264,48710,1,12,0:1:0:0:
112,264,48793,1,8,0:0:0:0:
112,264,48877,1,0,1:0:0:0:
336,320,49044,2,0,L|456:312,1,120,0|12,1:0|0:1,0:0:0:0:
272,96,49544,6,0,P|184:120|104:64,1,176,4|8,0:0|0:0,0:0:0:0:
264,224,50044,1,0,0:0:0:0:
264,224,50127,2,0,P|312:240|392:200,1,132,8|0,0:0|0:0,0:0:0:0:
496,112,50544,2,0,L|488:200,1,88,8|0,0:0|0:0,0:0:0:0:
392,344,50877,5,0,0:0:0:0:
232,304,51044,2,0,P|184:296|136:320,1,88,0|8,0:0|0:0,0:0:0:0:
344,184,51377,1,0,0:0:0:0:
344,184,51460,2,0,P|376:128|368:64,1,132,8|0,0:0|0:0,0:0:0:0:
208,8,51877,1,8,0:0:0:0:
96,136,52044,1,0,0:0:0:0:
96,136,52127,1,0,0:0:0:0:
96,136,52210,6,0,L|184:128,1,88,2|0,0:0|0:0,0:0:0:0:
400,136,52544,1,8,0:0:0:0:
272,304,52710,1,0,0:0:0:0:
272,304,52794,1,8,0:0:0:0:
272,304,52877,2,0,P|256:256|264:216,1,88,0|0,0:0|0:0,0:0:0:0:
352,256,53210,1,8,0:0:0:0:
200,352,53377,6,0,B|136:368|96:320|96:320|56:320|40:352,1,176,2|0,0:0|0:0,0:0:0:0:
176,264,53877,1,8,0:0:0:0:
160,104,54044,1,0,0:0:0:0:
160,104,54127,1,8,0:0:0:0:
160,104,54210,2,0,L|152:16,1,88,0|0,0:0|0:0,0:0:0:0:
304,80,54544,2,0,L|296:168,1,88,8|0,0:0|0:0,0:0:0:0:
352,304,54877,6,0,P|392:336|440:336,1,88,2|0,0:0|0:0,0:0:0:0:
424,248,55210,1,8,0:0:0:0:
264,312,55377,1,0,0:0:0:0:
248,320,55460,1,8,0:0:0:0:
232,328,55544,2,0,L|136:320,1,88,0|0,0:0|0:0,0:0:0:0:
64,240,55877,1,8,0:0:0:0:
128,32,56044,6,0,P|176:88|152:184,1,176,2|0,0:0|0:0,0:0:0:0:
88,112,56544,1,8,0:0:0:0:
272,144,56710,2,0,L|328:136,1,44.0000013427735,0|8,0:0|0:0,0:0:0:0:
343,146,56877,1,2,0:0:0:0:
363,165,56960,1,0,0:0:0:0:
377,189,57044,1,0,0:0:0:0:
384,215,57127,1,0,0:0:0:0:
384,242,57210,1,8,1:0:0:0:
377,269,57294,1,0,0:0:0:0:
363,292,57377,1,0,0:0:0:0:
344,312,57460,1,0,0:0:0:0:
320,320,57544,6,0,P|272:320|232:296,1,88,2|0,0:0|0:0,0:0:0:0:
296,232,57877,1,8,0:0:0:0:
144,320,58044,1,0,0:0:0:0:
144,320,58127,1,8,0:0:0:0:
144,320,58210,2,0,L|152:232,1,88,0|0,0:0|0:0,0:0:0:0:
256,96,58544,1,8,0:0:0:0:
496,248,58710,6,0,B|424:240|424:240|400:256|400:256|320:248,1,176,2|0,0:0|0:0,0:0:0:0:
208,120,59210,1,8,0:0:0:0:
376,72,59377,2,0,L|368:24,2,44,0|8|0,0:0|0:0|0:0,0:0:0:0:
232,208,59710,2,0,P|184:208|144:184,1,88,0|8,0:0|0:0,0:0:0:0:
256,56,60044,1,0,0:0:0:0:
360,200,60210,6,0,P|352:280|272:320,1,176,0|8,0:0|0:2,0:0:0:0:
136,160,60710,1,0,0:0:0:0:
144,144,60794,1,8,0:0:0:0:
152,128,60877,2,0,L|144:40,1,88,0|0,0:0|0:0,0:0:0:0:
56,16,61210,1,8,0:2:0:0:
240,56,61377,6,0,P|328:80|400:32,1,176,0|0,0:0|0:0,0:0:0:0:
496,160,61877,1,8,0:0:0:0:
328,248,62044,1,0,0:0:0:0:
328,248,62127,1,8,0:0:0:0:
328,248,62210,2,0,P|288:256|240:240,1,88,0|0,0:0|0:0,0:0:0:0:
200,152,62544,1,8,0:0:0:0:
424,184,62710,1,2,0:0:0:0:
424,184,62794,1,2,0:0:0:0:
424,184,62877,6,0,L|432:288,1,88,2|0,0:0|0:0,0:0:0:0:
352,120,63210,1,8,0:0:0:0:
448,200,63377,1,0,0:0:0:0:
448,200,63460,1,8,0:0:0:0:
448,200,63544,2,0,L|456:304,1,88,2|0,0:0|0:0,0:0:0:0:
352,120,63877,1,8,0:0:0:0:
480,216,64044,2,0,L|488:320,1,88,2|0,0:0|0:0,0:0:0:0:
352,352,64377,5,0,0:0:0:0:
152,304,64544,2,0,P|192:288|240:296,1,88,8|0,0:0|0:0,0:0:0:0:
304,255,64794,2,0,L|312:119,1,132,8|0,0:0|0:0,0:0:0:0:
320,8,65210,1,8,0:0:0:0:
240,104,65377,1,0,0:0:0:0:
112,112,65544,6,0,P|72:112|32:80,1,88,0|0,0:0|0:0,0:0:0:0:
104,24,65877,1,8,0:0:0:0:
176,176,66044,1,0,0:0:0:0:
176,176,66127,1,8,0:0:0:0:
176,176,66210,2,0,L|168:264,1,88,0|0,0:0|0:0,0:0:0:0:
232,336,66544,1,8,0:0:0:0:
400,304,66710,2,0,P|360:288|312:296,1,88,0|0,0:0|0:0,0:0:0:0:
472,216,67044,6,0,P|465:173|434:135,1,88,0|8,0:0|0:0,0:0:0:0:
304,48,67377,1,0,0:0:0:0:
288,64,67460,1,8,0:0:0:0:
272,80,67544,2,0,L|184:72,1,88,2|0,0:0|0:0,0:0:0:0:
88,112,67877,1,8,0:2:0:0:
64,216,68044,1,0,0:0:0:0:
120,312,68210,6,0,P|208:320|256:248,1,176,0|8,0:0|0:0,0:0:0:0:
168,240,68710,1,0,0:0:0:0:
168,240,68794,1,8,0:0:0:0:
168,240,68877,1,0,0:0:0:0:
320,320,69044,2,0,L|416:312,1,88,0|8,0:0|0:0,0:0:0:0:
464,176,69377,2,0,P|472:120|456:88,1,88,0|0,0:0|0:0,0:0:0:0:
320,64,69710,6,0,P|275:29|239:26,1,88,0|8,0:0|0:0,0:0:0:0:
72,88,70044,1,0,0:0:0:0:
72,88,70127,1,8,0:0:0:0:
72,88,70210,2,0,L|168:96,1,88,0|0,0:0|0:0,0:0:0:0:
272,240,70544,2,0,L|184:232,1,88,8|0,0:0|0:0,0:0:0:0:
344,184,70877,6,0,P|368:264|312:328,1,176,0|8,0:0|0:0,0:0:0:0:
256,152,71377,1,0,0:0:0:0:
256,152,71460,1,8,0:0:0:0:
256,152,71544,2,0,P|288:112|328:104,1,88.000002685547,0|0,0:0|0:0,0:0:0:0:
400,216,71877,1,8,0:0:0:0:
264,304,72044,6,0,B|208:320|168:280|168:280|128:280|112:320,1,176,0|0,0:0|0:0,0:0:0:0:
240,224,72544,1,8,0:0:0:0:
144,104,72710,1,0,0:0:0:0:
144,104,72794,1,8,0:0:0:0:
144,104,72877,2,0,L|56:112,1,88,2|0,0:0|0:0,0:0:0:0:
208,24,73210,2,0,L|296:32,1,88,8|0,0:0|0:0,0:0:0:0:
440,160,73544,6,0,P|368:208|288:176,1,176,2|8,0:0|0:0,0:0:0:0:
360,112,74044,1,0,0:0:0:0:
360,112,74127,1,8,0:0:0:0:
360,112,74210,1,0,0:0:0:0:
488,240,74377,2,0,L|480:328,1,88,0|8,0:0|0:0,0:0:0:0:
248,344,74710,2,0,L|256:256,1,88,0|12,0:0|0:1,0:0:0:0:
112,80,75044,5,0,1:0:0:0:
112,80,75127,1,8,0:0:0:0:
112,80,75210,1,8,1:0:0:0:
48,296,75377,2,0,P|88:304|136:288,1,88,8|0,0:0|1:0,0:0:0:0:
192,128,75710,1,0,1:0:0:0:
416,232,75877,1,8,0:0:0:0:
400,224,75960,1,0,0:0:0:0:
384,216,76044,1,0,0:0:0:0:
368,208,76127,1,0,0:0:0:0:
352,200,76210,6,0,L|488:208,1,132,4|0,0:0|0:0,0:0:0:0:
472,128,76544,2,0,P|464:88|472:40,1,88,8|0,0:0|0:0,0:0:0:0:
400,8,76794,1,8,0:0:0:0:
400,8,76877,2,0,L|312:16,1,88,0|0,0:0|0:0,0:0:0:0:
192,128,77210,1,8,0:0:0:0:
304,232,77377,6,0,B|328:256|328:256|384:200|352:120,1,176,2|0,0:0|0:0,0:0:0:0:
224,56,77877,1,8,0:0:0:0:
112,152,78044,1,0,0:0:0:0:
112,152,78127,1,8,0:0:0:0:
112,152,78210,2,0,L|16:144,1,88,0|0,0:0|0:0,0:0:0:0:
112,240,78544,1,8,0:0:0:0:
144,240,78627,1,0,0:0:0:0:
174,225,78710,1,0,0:0:0:0:
194,199,78793,1,0,0:0:0:0:
200,167,78877,6,0,L|208:304,1,132,2|0,0:0|0:0,0:0:0:0:
280,256,79210,2,0,L|285:358,1,88,8|0,0:0|0:0,0:0:0:0:
360,368,79460,1,8,0:0:0:0:
360,368,79544,2,0,P|408:368|440:344,1,88,0|0,0:0|0:0,0:0:0:0:
416,200,79877,1,8,0:0:0:0:
232,224,80044,6,0,P|280:288|376:272,1,176,2|0,0:0|0:0,0:0:0:0:
320,120,80544,2,0,P|312:160|320:208,1,88,8|0,0:0|0:0,0:0:0:0:
392,192,80794,1,8,0:0:0:0:
392,192,80877,2,0,L|480:200,1,88,2|0,0:0|0:0,0:0:0:0:
248,96,81210,2,0,L|160:104,1,88,8|0,0:0|0:0,0:0:0:0:
64,296,81544,6,0,P|128:320|192:280,1,132,2|0,0:0|0:0,0:0:0:0:
256,288,81877,2,0,L|344:296,1,88,8|0,0:0|0:0,0:0:0:0:
408,256,82127,1,8,0:0:0:0:
408,256,82210,2,0,P|424:216|416:160,1,88,0|0,0:0|0:0,0:0:0:0:
352,112,82544,1,8,0:0:0:0:
184,168,82710,1,0,0:0:0:0:
184,168,83044,5,0,0:0:0:0:
352,112,83210,1,8,0:0:0:0:
312,288,83377,1,0,0:0:0:0:
312,288,83460,1,8,0:0:0:0:
312,288,83544,2,0,P|264:304|224:296,1,88,2|0,0:0|0:0,0:0:0:0:
352,208,83877,1,8,0:0:0:0:
160,352,84044,1,0,0:0:0:0:
160,352,84127,1,0,0:0:0:0:
160,352,84210,6,0,P|136:296|160:232,1,132,2|0,0:0|0:0,0:0:0:0:
224,192,84544,2,0,P|240:152|224:104,1,88,8|0,0:0|0:0,0:0:0:0:
168,64,84794,1,8,0:0:0:0:
168,64,84877,2,0,L|80:72,1,88,0|0,0:0|0:0,0:0:0:0:
32,248,85210,2,0,L|120:240,1,88,8|0,0:0|0:0,0:0:0:0:
208,304,85544,5,0,2:0:0:0:
312,272,85710,2,0,P|320:240|320:184,1,88,0|8,0:0|2:0,0:0:0:0:
208,32,86044,1,0,0:0:0:0:
208,32,86127,1,0,0:0:0:0:
208,32,86210,2,0,L|144:24,1,44,0|0,2:0|0:0,0:0:0:0:
112,88,86377,2,0,L|48:80,1,44,0|0,1:0|2:0,0:0:0:0:
24,144,86544,2,0,L|-8:140,7,22.0000006713867,8|2|0|2|0|2|0|2,0:0|0:0|0:0|0:0|0:0|0:0|0:0|0:0,0:0:0:0:
32,152,86877,6,0,P|40:192|32:232,1,80,2|0,0:0|0:0,0:0:0:0:
160,328,87210,2,0,P|152:288|160:248,1,80,0|2,0:0|0:0,0:0:0:0:
226,78,87544,1,0,0:0:0:0:
401,136,87711,1,2,0:0:0:0:
348,311,87877,1,0,0:0:0:0:
160,152,88044,6,0,P|128:102|133:41,1,120,2|0,0:0|0:0,0:0:0:0:
