osu file format v13

[General]
AudioFilename: All Over.mp3
AudioLeadIn: 2000
PreviewTime: 30120
Countdown: 0
SampleSet: Soft
StackLeniency: 0.3
Mode: 0
LetterboxInBreaks: 0
WidescreenStoryboard: 1

[Editor]
DistanceSpacing: 1.4
BeatDivisor: 4
GridSize: 8
TimelineZoom: 1

[Metadata]
Title:All Over
TitleUnicode:オール・オーヴァー
Artist:livetune adding Yano Anna
ArtistUnicode:livetune adding やのあんな
Creator:No_Gu
Version:Normal
Source:Mahou Shoujo Taisen
Tags:魔法少女大戦 Magica Wars kz Azure TV Size
BeatmapID:408779
BeatmapSetID:165468

[Difficulty]
HPDrainRate:4
CircleSize:4
OverallDifficulty:3
ApproachRate:5
SliderMultiplier:1.12
SliderTickRate:1

[Events]
//Background and Video events
0,0,"magica wars.png",0,0
Video,210,"video.avi"
//Break Periods
//Storyboard Layer 0 (Background)
//Storyboard Layer 1 (Fail)
//Storyboard Layer 2 (Pass)
//Storyboard Layer 3 (Foreground)
//Storyboard Sound Samples
//Background Colour Transformations
3,100,163,162,255

[TimingPoints]
120,428.571428571429,4,2,1,50,1,0
227,-100,4,2,1,35,0,0
762,-100,4,2,1,70,0,0
870,-100,4,2,1,30,0,0
1512,-100,4,2,1,70,0,0
1834,-100,4,2,1,70,0,0
1941,-100,4,2,1,25,0,0
2905,-100,4,2,1,70,0,0
3012,-100,4,2,1,30,0,0
3548,-100,4,1,1,50,0,0
9548,-100,4,2,1,15,0,0
9977,-100,4,2,2,70,0,0
10405,-100,4,2,3,50,0,0
16834,-100,4,2,3,70,0,0
17155,-100,4,2,1,5,0,0
17262,-100,4,2,3,70,0,0
24334,-100,4,2,3,25,0,0
25834,-100,4,2,3,70,0,0
26048,-100,4,2,3,25,0,0
27548,-100,4,2,3,70,0,0
28834,-100,4,2,2,100,0,0
29155,-100,4,2,1,5,0,0
29262,-100,4,2,1,50,0,0
29584,-100,4,2,1,5,0,0
30120,-100,4,2,2,70,0,0
30548,-100,4,2,1,5,0,0
30977,-100,4,2,1,70,0,1
42548,-100,4,2,2,100,0,1
42655,-100,4,2,1,70,0,1
42977,-100,4,2,1,70,0,0
43084,-100,4,2,1,5,0,0

[Colours]
Combo1 : 128,255,255
Combo2 : 255,255,128
Combo3 : 255,128,128
Combo4 : 128,255,128

[HitObjects]
64,72,120,6,0,P|72:136|40:176,1,112,4|2,0:1|0:0,0:0:0:0:
104,224,762,2,0,P|155:185|206:192,1,112,2|2,0:0|0:0,0:0:0:0:
264,232,1405,1,4,0:0:0:0:
256,192,1620,12,2,3120,0:0:0:0:
96,48,3548,6,0,L|88:160,1,112,4|0,1:0|1:0,0:0:0:0:
136,224,4191,1,0,2:0:0:0:
200,184,4405,2,0,P|248:176|320:192,1,112
360,248,5048,2,0,L|352:312,1,56,0|0,2:0|0:0,0:0:0:0:
424,160,5691,2,0,L|416:96,1,56,0|0,0:0|2:0,0:0:0:0:
368,40,6120,2,0,P|320:24|264:48,1,112
216,112,6762,1,0,2:0:0:0:
152,64,6977,6,0,L|40:72,1,112
32,232,7834,2,0,L|144:224,1,112
208,272,8477,2,0,P|224:216|216:160,1,112
264,104,9120,2,0,L|376:96,1,112,0|2,2:0|0:0,0:0:0:0:
440,48,9762,1,2,0:0:0:0:
448,128,9977,1,8,0:0:0:0:
368,264,10405,5,4,1:0:0:0:
216,216,10834,2,0,L|160:224,1,56,8|0,0:0|0:0,0:0:0:0:
88,200,11262,2,0,P|80:152|96:88,1,112,0|8,1:0|0:0,0:0:0:0:
232,24,12120,2,0,P|240:72|224:136,1,112,0|8,1:0|0:0,0:0:0:0:
272,192,12762,1,0,0:0:0:0:
344,160,12977,2,0,L|456:168,1,112,0|8,1:0|0:0,0:0:0:0:
448,328,13834,6,0,L|336:320,1,112,0|8,1:0|0:0,0:0:0:0:
176,320,14691,2,0,L|64:328,1,112,0|8,1:0|0:0,0:0:0:0:
48,248,15334,2,0,L|160:240,1,112,0|0,1:0|1:0,0:0:0:0:
224,192,15977,1,8,0:0:0:0:
152,160,16191,2,0,B|120:112|144:48|144:48|168:104,1,168,0|8,1:0|0:0,0:0:0:0:
240,232,17262,6,0,P|288:248|352:240,1,112,4|8,1:0|0:0,0:0:0:0:
440,120,18120,1,0,1:0:0:0:
312,24,18548,2,0,L|304:80,2,56,8|0|0,0:0|0:0|1:0,0:0:0:0:
208,136,19405,2,0,L|192:24,1,112,8|0,0:0|1:0,0:0:0:0:
40,48,20262,2,0,L|56:160,1,112,8|0,0:0|1:0,0:0:0:0:
24,232,20905,5,0,0:0:0:0:
104,224,21120,2,0,P|168:216|224:232,1,112,8|0,0:0|1:0,0:0:0:0:
344,312,21977,1,8,0:0:0:0:
392,248,22191,2,0,L|384:192,1,56,0|0,0:0|1:0,0:0:0:0:
312,168,22620,2,0,L|320:112,1,56,0|8,0:0|0:0,0:0:0:0:
176,56,23262,2,0,L|160:166,1,112,0|0,1:0|1:0,0:0:0:0:
128,320,24120,5,4,1:0:0:0:
256,192,24334,12,4,25834,1:0:0:0:
256,192,26048,12,4,27548,1:0:0:0:
256,192,27762,12,8,28834,0:0:0:0:
256,192,29262,5,0,1:0:0:0:
256,192,30120,5,8,0:0:0:0:
256,192,30977,6,0,P|192:176|144:192,1,112,4|8,1:0|0:0,0:0:0:0:
88,240,31620,1,0,0:0:0:0:
72,160,31834,2,0,L|80:40,1,112,0|8,1:0|0:0,0:0:0:0:
232,24,32691,2,0,L|224:144,1,112,0|8,1:0|0:0,0:0:0:0:
264,200,33334,1,0,0:0:0:0:
304,136,33548,2,0,L|416:144,1,112,0|8,1:0|0:0,0:0:0:0:
325,272,34405,5,0,1:0:0:0:
175,223,34834,1,8,0:0:0:0:
175,66,35262,1,0,1:0:0:0:
325,18,35691,1,8,0:0:0:0:
417,145,36120,1,0,1:0:0:0:
360,192,36334,1,0,0:0:0:0:
280,184,36548,2,0,P|264:120|280:64,2,112,8|0|8,0:0|1:0|0:0,0:0:0:0:
128,216,37834,6,0,P|144:280|128:336,1,112,0|8,1:0|0:0,0:0:0:0:
64,360,38477,1,0,0:0:0:0:
64,280,38691,1,0,1:0:0:0:
216,232,39120,2,0,L|272:240,1,56,8|0,0:0|0:0,0:0:0:0:
344,208,39548,2,0,P|352:152|344:96,1,112,0|8,1:0|0:0,0:0:0:0:
408,48,40191,2,0,L|464:40,1,56,0|0,0:0|1:0,0:0:0:0:
304,32,40834,6,0,L|248:40,2,56,8|0|0,0:0|0:0|1:0,0:0:0:0:
396,158,41691,1,8,0:0:0:0:
303,285,42120,1,0,1:0:0:0:
154,237,42548,1,8,0:0:0:0:
154,80,42977,5,4,1:0:0:0:
256,192,43191,12,0,44262,0:0:0:0:
