osu file format v13

[General]
AudioFilename: All Over.mp3
AudioLeadIn: 2000
PreviewTime: 30120
Countdown: 0
SampleSet: Soft
StackLeniency: 0.3
Mode: 0
LetterboxInBreaks: 0
WidescreenStoryboard: 1

[Editor]
DistanceSpacing: 1.2
BeatDivisor: 4
GridSize: 8
TimelineZoom: 1

[Metadata]
Title:All Over
TitleUnicode:オール・オーヴァー
Artist:livetune adding Yano Anna
ArtistUnicode:livetune adding やのあんな
Creator:No_Gu
Version:Insane
Source:Mahou Shoujo Taisen
Tags:魔法少女大戦 Magica Wars kz Azure TV Size
BeatmapID:402573
BeatmapSetID:165468

[Difficulty]
HPDrainRate:8
CircleSize:4
OverallDifficulty:8
ApproachRate:9
SliderMultiplier:1.6
SliderTickRate:1

[Events]
//Background and Video events
0,0,"magica wars.png",0,0
Video,210,"video.avi"
//Break Periods
//Storyboard Layer 0 (Background)
//Storyboard Layer 1 (Fail)
//Storyboard Layer 2 (Pass)
//Storyboard Layer 3 (Foreground)
//Storyboard Sound Samples
//Background Colour Transformations
3,100,163,162,255

[TimingPoints]
120,428.571428571429,4,2,1,70,1,0
227,-100,4,2,1,35,0,0
762,-100,4,2,1,70,0,0
870,-100,4,2,1,30,0,0
1512,-100,4,2,1,70,0,0
1834,-100,4,2,1,70,0,0
1941,-100,4,2,1,25,0,0
2905,-100,4,2,1,70,0,0
3012,-100,4,2,1,30,0,0
3548,-100,4,2,1,50,0,0
9120,-100,4,2,1,25,0,0
9334,-100,4,2,1,50,0,0
9548,-100,4,2,1,15,0,0
9977,-200,4,2,2,70,0,0
10405,-100,4,2,3,50,0,0
16834,-83.3333333333333,4,2,3,70,0,0
17155,-83.3333333333333,4,2,1,5,0,0
17262,-100,4,2,3,70,0,0
24334,-100,4,2,3,25,0,0
25834,-100,4,2,3,70,0,0
26048,-100,4,2,3,25,0,0
27548,-100,4,2,3,70,0,0
28834,-83.3333333333333,4,2,2,100,0,0
29155,-83.3333333333333,4,2,1,5,0,0
29262,-200,4,2,1,50,0,0
29584,-200,4,2,1,5,0,0
30120,-200,4,2,2,70,0,0
30548,-200,4,2,1,5,0,0
30977,-90.9090909090909,4,2,1,70,0,1
42548,-90.9090909090909,4,2,2,100,0,1
42655,-90.9090909090909,4,2,1,70,0,1
42977,-90.9090909090909,4,2,1,70,0,0
43084,-90.9090909090909,4,2,1,5,0,0

[Colours]
Combo1 : 128,255,255
Combo2 : 255,255,128
Combo3 : 255,128,128
Combo4 : 128,255,128

[HitObjects]
184,48,120,5,4,0:1:0:0:
200,84,227,1,0,0:0:0:0:
199,123,334,1,2,0:0:0:0:
181,159,441,1,0,0:0:0:0:
150,183,548,1,2,0:0:0:0:
111,192,655,1,0,0:0:0:0:
72,184,762,5,2,0:0:0:0:
112,180,869,1,0,0:0:0:0:
149,194,976,1,2,0:0:0:0:
176,222,1083,1,0,0:0:0:0:
189,260,1190,1,2,0:0:0:0:
184,299,1297,1,0,0:0:0:0:
163,332,1405,2,0,P|144:352|128:360,1,40,4|0,0:0|0:0,0:0:0:0:
264,312,1620,2,0,P|270:338|269:356,1,40,2|0,0:0|0:0,0:0:0:0:
304,208,1834,5,2,0:0:0:0:
304,194,1941,1,2,0:0:0:0:
305,181,2048,1,2,0:0:0:0:
305,168,2155,1,2,0:0:0:0:
306,154,2262,1,2,0:0:0:0:
307,141,2369,1,2,0:0:0:0:
307,128,2476,1,2,0:0:0:0:
308,114,2584,1,2,0:0:0:0:
309,101,2691,1,2,0:0:0:0:
309,88,2798,1,2,0:0:0:0:
224,96,2905,5,2,0:0:0:0:
205,78,3012,1,0,0:0:0:0:
183,64,3119,1,2,0:0:0:0:
157,56,3226,1,0,0:0:0:0:
131,54,3333,1,2,0:0:0:0:
104,58,3440,1,0,0:0:0:0:
80,68,3547,5,4,1:0:0:0:
88,264,3762,1,2,0:0:0:0:
88,264,3870,1,0,0:0:0:0:
88,264,3977,1,0,1:0:0:0:
272,200,4191,1,2,0:0:0:0:
272,200,4298,1,0,0:0:0:0:
272,200,4405,2,0,P|280:176|280:120,1,80,0|2,1:0|0:0,0:0:0:0:
176,152,4834,1,0,1:0:0:0:
288,312,5048,1,2,0:0:0:0:
288,312,5155,1,0,0:0:0:0:
288,312,5262,6,0,L|368:304,1,80,0|2,1:0|0:0,0:0:0:0:
480,352,5691,1,0,1:0:0:0:
512,232,5905,1,2,0:0:0:0:
512,232,6012,1,0,0:0:0:0:
512,232,6120,1,0,1:0:0:0:
352,152,6334,1,2,0:0:0:0:
512,232,6548,2,0,L|504:144,1,80,0|2,1:0|0:0,0:0:0:0:
456,88,6870,5,0,0:0:0:0:
456,88,6977,2,0,P|416:64|376:64,1,80,0|2,1:0|0:0,0:0:0:0:
192,160,7405,2,0,P|232:184|272:184,1,80,0|2,1:0|0:0,0:0:0:0:
256,96,7834,1,0,1:0:0:0:
256,96,7941,1,0,0:0:0:0:
256,96,8048,1,2,0:0:0:0:
120,216,8262,1,0,1:0:0:0:
320,176,8477,2,0,L|400:184,1,80,0|0,1:0|0:0,0:0:0:0:
80,128,8905,6,0,L|0:120,1,80,2|8,0:0|0:0,0:0:0:0:
224,224,9334,2,0,L|232:192,3,20
232,192,9548,2,0,L|240:272,1,80,2|2,0:0|0:0,0:0:0:0:
432,352,9977,6,0,L|424:272,1,80,8|4,0:0|1:0,0:0:0:0:
280,128,10620,5,2,0:0:0:0:
280,128,10727,1,0,0:0:0:0:
280,128,10834,1,8,0:0:0:0:
248,328,11048,1,2,0:0:0:0:
248,328,11155,1,0,0:0:0:0:
248,328,11262,1,0,1:0:0:0:
392,168,11477,2,0,P|408:120|400:72,1,80,2|8,0:0|0:0,0:0:0:0:
296,240,11905,5,2,0:0:0:0:
296,240,12012,1,0,0:0:0:0:
296,240,12120,2,0,L|304:320,1,80,0|2,1:0|0:0,0:0:0:0:
184,184,12548,2,0,L|192:104,1,80,8|2,0:0|0:0,0:0:0:0:
152,40,12870,1,0,0:0:0:0:
152,40,12977,2,0,P|104:16|48:24,1,80,0|2,1:0|0:0,0:0:0:0:
24,160,13405,2,0,P|68:130|89:77,1,80,8|2,0:0|0:0,0:0:0:0:
72,248,13834,6,0,L|88:328,1,80,0|2,1:0|0:0,0:0:0:0:
192,368,14262,1,8,0:0:0:0:
360,320,14477,1,2,0:0:0:0:
360,320,14584,1,0,0:0:0:0:
360,320,14691,2,0,P|320:312|280:312,1,80,0|2,1:0|0:0,0:0:0:0:
192,368,15120,1,8,0:0:0:0:
416,240,15334,6,0,P|336:224|256:224,1,160,0|0,1:0|1:0,0:0:0:0:
112,320,15977,1,8,0:0:0:0:
176,160,16191,1,0,0:0:0:0:
176,160,16298,1,8,0:0:0:0:
176,160,16405,2,0,P|184:104|168:64,1,80,0|0,1:0|0:0,0:0:0:0:
120,240,16834,6,0,P|184:256|248:214,1,143.999995605469,8|0,0:0|0:0,0:0:0:0:
320,256,17262,6,0,L|328:176,1,80,4|0,1:0|0:0,0:0:0:0:
376,112,17584,1,2,0:0:0:0:
376,112,17691,2,0,P|424:96|472:104,1,80,8|0,0:0|0:0,0:0:0:0:
432,192,18120,1,0,1:0:0:0:
304,56,18334,1,0,0:0:0:0:
304,56,18441,1,2,0:0:0:0:
304,56,18548,1,8,0:0:0:0:
256,240,18762,2,0,L|264:320,1,80,2|0,0:0|1:0,0:0:0:0:
144,192,19191,6,0,L|152:112,1,80,2|8,0:0|0:0,0:0:0:0:
80,264,19620,1,0,0:0:0:0:
80,264,19727,1,0,0:0:0:0:
80,264,19834,2,0,P|40:280|0:272,1,80,0|0,1:0|0:0,0:0:0:0:
32,192,20262,1,8,0:0:0:0:
176,280,20477,2,0,L|288:272,1,80,2|0,0:0|1:0,0:0:0:0:
384,328,20905,5,2,0:0:0:0:
384,328,21012,1,0,0:0:0:0:
384,328,21120,2,0,P|400:288|392:248,1,80,8|0,0:0|0:0,0:0:0:0:
336,80,21548,2,0,L|320:200,1,120,0|0,1:0|0:0,0:0:0:0:
248,160,21977,2,0,L|160:168,1,80,8|0,0:0|0:0,0:0:0:0:
152,160,22298,1,2,0:0:0:0:
136,152,22405,5,0,1:0:0:0:
72,256,22620,1,0,0:0:0:0:
64,240,22727,1,2,0:0:0:0:
56,224,22834,1,8,0:0:0:0:
160,304,23048,1,0,0:0:0:0:
320,264,23262,2,0,P|296:256|240:256,1,80,0|0,1:0|0:0,0:0:0:0:
88,360,23691,1,0,1:0:0:0:
68,358,23798,1,0,0:0:0:0:
48,356,23905,1,0,0:0:0:0:
28,354,24012,1,0,0:0:0:0:
8,352,24119,5,4,1:0:0:0:
24,232,24334,2,8,L|32:272,2,40
136,192,24762,2,8,L|122:230,2,40
248,232,25191,2,8,L|217:258,2,40
338,308,25619,2,8,L|298:316,1,40
192,336,25834,5,4,1:0:0:0:
24,232,26048,2,8,L|32:192,2,40
136,192,26477,2,8,L|162:161,2,40
248,232,26905,2,8,L|288:240,2,40
288,345,27334,2,8,L|318:371,1,40
216,312,27548,6,0,P|176:304|128:312,1,80,4|0,1:0|0:0,0:0:0:0:
8,216,27977,2,0,P|48:224|96:216,1,80,2|0,0:0|0:0,0:0:0:0:
152,168,28298,1,2,0:0:0:0:
152,168,28405,2,0,L|144:88,1,80,0|2,0:0|0:0,0:0:0:0:
280,40,28834,6,0,L|296:200,1,143.999995605469,8|0,0:0|0:0,0:0:0:0:
272,264,29262,6,0,P|216:296|144:264,1,140,0|0,1:0|0:0,0:0:0:0:
149,270,30120,6,0,P|184:264|232:272,1,80,8|0,0:0|0:0,0:0:0:0:
228,270,30977,6,0,L|224:128,1,132.00000402832,4|0,1:0|0:0,0:0:0:0:
168,80,31405,2,0,P|120:72|72:88,1,88.000002685547,8|0,0:0|0:0,0:0:0:0:
48,160,31727,1,8,0:0:0:0:
48,160,31834,2,0,P|96:168|144:152,1,88.000002685547,0|0,1:0|0:0,0:0:0:0:
272,24,32262,1,8,0:0:0:0:
280,48,32370,1,2,0:0:0:0:
288,72,32477,1,0,0:0:0:0:
296,96,32584,1,2,0:0:0:0:
304,120,32691,6,0,L|288:208,1,88.000002685547,0|0,1:0|0:0,0:0:0:0:
104,264,33120,2,0,L|120:176,1,88.000002685547,8|2,0:0|0:0,0:0:0:0:
176,304,33548,1,0,1:0:0:0:
155,329,33655,1,2,0:0:0:0:
127,345,33762,1,2,0:0:0:0:
94,349,33869,1,2,0:0:0:0:
63,339,33976,1,8,0:0:0:0:
38,318,34083,1,2,0:0:0:0:
22,289,34190,1,2,0:0:0:0:
20,257,34297,1,2,0:0:0:0:
30,226,34405,5,0,1:0:0:0:
168,144,34620,1,0,0:0:0:0:
180,136,34727,1,2,0:0:0:0:
192,128,34834,2,0,L|240:120,1,44.0000013427735,8|0,0:0|0:0,0:0:0:0:
352,48,35048,2,0,L|304:56,1,44.0000013427735,2|0,0:0|0:0,0:0:0:0:
408,224,35262,2,0,P|432:168|416:96,1,132.00000402832,0|2,1:0|0:0,0:0:0:0:
352,48,35691,2,0,L|256:64,1,88.000002685547,8|2,0:0|0:0,0:0:0:0:
128,224,36120,6,0,L|224:208,1,88.000002685547,0|2,1:0|0:0,0:0:0:0:
416,104,36548,2,0,P|432:64|424:8,1,88.000002685547,8|0,0:0|0:0,0:0:0:0:
336,144,36977,1,0,1:0:0:0:
354,164,37084,1,2,0:0:0:0:
377,178,37191,1,2,0:0:0:0:
404,185,37298,1,2,0:0:0:0:
431,184,37405,1,8,0:0:0:0:
457,174,37512,1,2,0:0:0:0:
478,157,37619,1,2,0:0:0:0:
494,135,37726,1,2,0:0:0:0:
503,109,37834,5,0,1:0:0:0:
384,272,38048,1,2,0:0:0:0:
384,272,38155,1,0,0:0:0:0:
384,272,38262,2,0,P|376:328|392:368,1,88.000002685547,8|0,0:0|0:0,0:0:0:0:
464,312,38691,2,0,L|288:312,1,176.000005371094,0|8,1:0|0:0,0:0:0:0:
184,256,39334,1,0,0:0:0:0:
280,104,39548,6,0,P|288:160|272:200,1,88.000002685547,0|2,1:0|0:0,0:0:0:0:
88,192,39977,2,0,L|-8:184,1,88.000002685547,8|0,0:0|0:0,0:0:0:0:
104,280,40405,1,0,1:0:0:0:
125,273,40512,1,2,0:0:0:0:
143,262,40619,1,0,0:0:0:0:
159,246,40726,1,2,0:0:0:0:
169,227,40833,1,8,0:0:0:0:
175,206,40940,1,0,0:0:0:0:
175,184,41047,1,2,0:0:0:0:
170,163,41154,1,0,1:0:0:0:
159,144,41262,5,0,1:0:0:0:
320,336,41477,1,2,0:0:0:0:
353,349,41584,1,0,0:0:0:0:
390,350,41691,1,8,0:0:0:0:
424,339,41798,1,0,0:0:0:0:
453,317,41905,1,2,0:0:0:0:
472,286,42012,1,0,0:0:0:0:
480,250,42119,1,0,1:0:0:0:
256,96,42334,5,0,0:0:0:0:
249,125,42441,1,2,0:0:0:0:
250,154,42548,1,8,0:0:0:0:
256,183,42655,1,2,0:0:0:0:
261,212,42762,1,0,0:0:0:0:
262,241,42869,1,2,0:0:0:0:
256,270,42976,1,4,1:0:0:0:
256,192,43084,12,0,44262,0:0:0:0:
