osu file format v13

[General]
AudioFilename: Sen no Tsubasa.mp3
AudioLeadIn: 2000
PreviewTime: 51005
Countdown: 0
SampleSet: Soft
StackLeniency: 0.3
Mode: 0
LetterboxInBreaks: 0
WidescreenStoryboard: 0

[Editor]
DistanceSpacing: 1.4
BeatDivisor: 4
GridSize: 8
TimelineZoom: 1

[Metadata]
Title:SEN NO TSUBASA
TitleUnicode:千の翼
Artist:livetune adding Takuro Sugawara(from 9mm Parabellum Bullet)
ArtistUnicode:livetune adding Takuro Sugawara(from 9mm Parabellum Bullet)
Creator:No_Gu
Version:Normal
Source:Re:␣ ハマトラ
Tags:リプライハマトラ REPLY HAMATORA kz 菅原卓郎 Pokie KantoKun opening
BeatmapID:471200
BeatmapSetID:191241

[Difficulty]
HPDrainRate:3
CircleSize:3
OverallDifficulty:3
ApproachRate:5
SliderMultiplier:1.28
SliderTickRate:1

[Events]
//Background and Video events
0,0,"bg_top.png",0,0
Video,44,"video.avi"
//Break Periods
//Storyboard Layer 0 (Background)
//Storyboard Layer 1 (Fail)
//Storyboard Layer 2 (Pass)
//Storyboard Layer 3 (Foreground)
//Storyboard Sound Samples
//Background Colour Transformations
3,100,163,162,255

[TimingPoints]
182,352.941176470588,4,1,1,50,1,0
5123,-100,4,2,1,50,0,0
5829,-100,4,1,1,40,0,0
16770,-100,4,1,1,50,0,0
17123,-100,4,3,1,50,0,0
39711,-100,4,1,1,50,0,0
51005,-100,4,1,1,50,0,1
62211,-100,4,1,1,50,0,0
62299,-100,4,1,1,50,0,1
76417,-100,4,1,1,50,0,0
87711,-100,4,1,1,50,0,0
87799,-100,4,2,1,5,0,0

[Colours]
Combo1 : 128,255,128
Combo2 : 255,255,128
Combo3 : 128,255,255
Combo4 : 255,128,128

[HitObjects]
59,162,182,6,0,P|123:114|227:154,1,192
363,258,1064,2,0,L|355:178,1,64
347,370,1593,2,0,P|273:338|256:228,1,192
278,58,2475,2,0,L|212:104,1,64
382,18,3005,6,0,P|391:97|304:167,1,192
146,233,3887,2,0,L|219:266,1,64
384,240,4417,2,0,P|400:192|384:128,2,96,0|0|0,0:0|0:0|0:0,0:0:0:0:
320,304,5123,2,0,L|456:296,1,128,0|8,1:0|1:0,0:0:0:0:
448,120,5829,6,0,L|312:112,1,128,4|8,0:0|0:0,0:0:0:0:
184,0,6534,2,8,L|176:136,1,128
64,264,7240,2,8,L|200:272,1,128
328,384,7946,2,8,L|336:248,1,128
272,88,8652,5,8,0:0:0:0:
160,224,9005,2,8,P|96:232|40:200,1,128
154,66,9711,2,8,P|216:57|272:88,1,128
384,224,10417,2,8,L|376:360,1,128
208,288,11123,1,8,0:0:0:0:
40,352,11476,6,8,P|24:296|40:224,1,128
200,144,12181,2,8,B|208:96|208:96|200:56|160:24,1,128
345,29,12887,2,8,B|312:56|304:96|304:96|312:144,1,128
474,228,13593,2,8,P|488:290|472:352,1,128
296,352,14299,5,8,0:0:0:0:
125,296,14652,1,8,0:0:0:0:
125,117,15005,1,8,0:0:0:0:
296,62,15358,1,8,0:0:0:0:
401,207,15711,1,0,0:0:0:0:
401,207,16770,1,8,0:0:0:0:
240,280,17123,6,0,L|128:272,2,96,4|0|0,0:1|0:0|0:0,0:0:0:0:
304,216,17829,2,8,P|320:160|296:88,1,128
128,40,18534,2,8,P|112:96|136:168,1,128
216,192,19064,1,0,0:0:0:0:
296,152,19240,2,8,L|424:160,1,128
368,328,19946,6,0,L|466:321,2,96,8|0|0,0:0|0:0|0:0,0:0:0:0:
280,360,20652,2,8,L|264:232,1,128
192,176,21181,1,0,0:0:0:0:
232,96,21358,2,0,P|264:80|336:88,2,96,8|0|0,0:0|0:0|0:0,0:0:0:0:
144,104,22064,2,8,P|80:112|24:80,1,128
0,168,22593,1,8,1:0:0:0:
40,248,22770,6,0,L|32:344,2,96,8|0|0,0:0|0:0|0:0,0:0:0:0:
112,192,23476,2,8,P|176:176|240:192,1,128
400,120,24181,2,8,P|447:131|494:120,2,96,8|0|0,0:0|0:0|0:0,0:0:0:0:
344,48,24887,1,8,0:0:0:0:
408,216,25240,1,8,0:0:0:0:
232,184,25593,6,0,L|128:192,2,96,8|0|0,0:0|0:0|0:0,0:0:0:0:
312,224,26299,2,8,P|328:280|312:352,1,128
136,320,27005,1,8,0:0:0:0:
160,144,27358,1,8,0:0:0:0:
336,176,27711,2,0,L|416:168,1,64,8|8,0:0|1:0,0:0:0:0:
432,256,28064,2,0,L|352:264,1,64,8|8,0:0|1:0,0:0:0:0:
296,320,28417,6,0,P|256:312|184:344,2,96,4|0|0,0:1|0:0|0:0,0:0:0:0:
376,368,29123,1,8,0:0:0:0:
464,208,29476,1,8,0:0:0:0:
368,56,29829,2,8,L|352:192,1,128
288,240,30358,2,0,P|224:264|128:200,1,192,0|8,0:0|0:0,0:0:0:0:
224,48,31240,6,0,L|232:144,2,96,8|0|0,0:0|0:0|0:0,0:0:0:0:
136,72,31946,2,8,P|72:64|8:104,1,128
40,272,32652,2,8,P|104:280|168:240,1,128
240,288,33181,2,0,P|296:224|280:120,1,192,0|8,0:0|0:0,0:0:0:0:
200,88,33887,1,8,1:0:0:0:
120,128,34064,6,0,L|8:120,2,96,8|0|0,0:0|0:0|0:0,0:0:0:0:
192,176,34770,2,8,L|340:165,1,128,0|0,0:0|0:0,0:0:0:0:
440,304,35476,2,0,P|448:256|440:208,2,96,8|0|0,0:0|0:0|0:0,0:0:0:0:
360,344,36181,2,8,P|296:328|224:344,1,128
80,256,36887,6,0,L|72:360,2,96,8|0|0,0:0|0:0|0:0,0:0:0:0:
144,192,37593,2,8,P|208:176|264:200,1,128
320,272,38123,1,0,0:0:0:0:
400,232,38299,2,8,L|416:96,1,128
256,24,39005,2,0,P|232:48|224:80,1,64,0|8,1:0|1:0,0:0:0:0:
184,152,39358,2,0,P|216:162|248:155,1,64,8|8,1:0|1:0,0:0:0:0:
308,96,39711,6,0,L|448:88,1,128,4|8,0:0|0:0,0:0:0:0:
352,244,40417,2,8,L|360:384,1,128
204,288,41123,2,8,L|64:296,1,128
160,140,41829,2,8,L|152:0,1,128
320,88,42534,6,0,P|376:72|416:80,2,96,0|8|0,0:0|0:0|0:0,0:0:0:0:
256,152,43240,2,0,L|240:280,1,128,0|8,0:0|0:0,0:0:0:0:
80,200,43946,2,0,L|67:97,2,96,0|8|8,0:0|0:0|0:0,0:0:0:0:
152,256,44652,1,0,0:0:0:0:
232,216,44829,2,8,L|296:224,1,64
256,192,45358,12,0,49593,0:0:0:0:
256,192,50652,5,8,0:0:0:0:
88,120,51005,6,0,L|72:16,2,96,4|8|8,0:0|0:0|0:0,0:0:0:0:
152,184,51711,2,0,P|176:240|152:304,1,128,0|0,0:0|0:0,0:0:0:0:
232,344,52240,1,8,0:0:0:0:
312,304,52417,2,0,L|408:312,2,96,0|8|8,0:0|0:0|0:0,0:0:0:0:
264,232,53123,2,0,P|256:192|272:128,2,96,0|8|8,0:0|0:0|0:0,0:0:0:0:
224,312,53829,6,0,L|128:320,2,96,0|8|8,0:0|0:0|0:0,0:0:0:0:
312,304,54534,1,0,0:0:0:0:
336,128,54887,1,0,0:0:0:0:
280,56,55064,1,8,0:0:0:0:
248,136,55240,2,0,L|152:136,2,96,0|8|8,0:0|0:0|0:0,0:0:0:0:
336,128,55946,2,0,L|408:128,1,64,0|8,0:0|0:0,0:0:0:0:
361,209,56299,2,8,L|423:245,1,64
341,290,56652,6,0,L|388:372,2,96,0|8|8,0:0|0:0|0:0,0:0:0:0:
256,304,57358,2,0,P|200:280|128:288,1,128
56,328,57887,1,8,0:0:0:0:
0,256,58064,2,0,L|8:160,2,96,0|8|8,0:0|0:0|0:0,0:0:0:0:
56,328,58770,1,0,0:0:0:0:
216,248,59123,2,0,P|264:240|296:248,1,64,0|8,0:0|0:0,0:0:0:0:
360,280,59476,6,0,L|352:184,2,96,0|8|8,0:0|0:0|0:0,0:0:0:0:
448,304,60181,2,0,L|456:208,2,96,0|8|8,0:0|0:0|0:0,0:0:0:0:
376,360,60887,2,0,P|320:368|256:328,1,128
216,256,61417,1,8,0:0:0:0:
248,176,61593,2,0,L|232:48,1,128
120,192,62299,6,0,P|72:184|24:192,2,96,4|8|8,0:0|0:0|0:0,0:0:0:0:
200,240,63005,2,0,P|264:256|336:240,1,128,0|0,0:0|0:0,0:0:0:0:
392,192,63534,1,8,0:0:0:0:
344,120,63711,2,0,L|352:24,2,96,0|8|8,0:0|0:0|0:0,0:0:0:0:
256,144,64417,2,0,L|248:48,2,96,0|8|8,0:0|0:0|0:0,0:0:0:0:
184,200,65123,6,0,P|128:192|80:200,2,96,0|8|8,0:0|0:0|0:0,0:0:0:0:
248,264,65829,2,0,P|304:248|376:264,1,128
448,312,66358,1,8,0:0:0:0:
488,232,66534,2,0,L|480:128,2,96,0|8|8,0:0|0:0|0:0,0:0:0:0:
448,312,67240,2,0,L|453:382,1,64,0|8,0:0|0:0,0:0:0:0:
368,360,67593,2,8,L|362:289,1,64,8|8,0:0|0:0,0:0:0:0:
296,240,67946,6,0,P|248:224|192:240,2,96,0|8|8,0:0|0:0|0:0,0:0:0:0:
376,200,68652,2,0,P|392:144|376:72,1,128
296,40,69181,1,8,0:0:0:0:
216,80,69358,2,0,L|112:72,2,96,0|8|8,0:0|0:0|0:0,0:0:0:0:
296,128,70064,2,0,L|400:120,2,96,0|8|8,0:0|0:0|0:0,0:0:0:0:
216,168,70770,6,0,P|200:240|216:296,1,128
288,336,71299,1,8,0:0:0:0:
368,296,71476,2,0,L|496:304,1,128
440,136,72181,2,0,L|312:144,1,128
240,200,72711,1,8,0:0:0:0:
160,160,72887,2,0,P|144:96|160:32,1,128
256,192,73593,12,4,76417,0:0:0:0:
256,192,77123,5,8,0:0:0:0:
88,136,77476,1,8,0:0:0:0:
120,312,77829,2,8,L|256:304,1,128
400,208,78534,2,8,L|264:216,1,128
120,128,79240,6,8,P|120:64|144:0,1,128
320,56,79946,2,8,P|384:56|448:80,1,128
392,256,80652,2,8,P|392:320|368:384,1,128
192,328,81358,2,8,P|128:328|64:304,1,128
32,128,82064,5,8,0:0:0:0:
208,176,82417,2,8,L|336:168,1,128
472,48,83123,2,8,L|344:40,1,128
168,16,83829,1,8,0:0:0:0:
32,128,84181,2,8,P|8:208|24:272,1,128
184,320,84887,5,8,0:0:0:0:
355,264,85240,1,8,0:0:0:0:
354,85,85593,1,8,0:0:0:0:
184,30,85946,1,8,0:0:0:0:
78,175,86299,2,0,L|208:168,1,128
144,336,87005,2,0,L|274:329,1,128,0|8,0:0|0:0,0:0:0:0:
384,192,87711,5,4,0:0:0:0:
