osu file format v14

[General]
AudioFilename: audio.mp3
AudioLeadIn: 0
PreviewTime: 122656
Countdown: 1
SampleSet: Soft
StackLeniency: 0.6
Mode: 0
LetterboxInBreaks: 0
WidescreenStoryboard: 0

[Editor]
Bookmarks: 1627,34541,45513,67456,89398,101741,123684,145627,167570,179913,201856
DistanceSpacing: 1
BeatDivisor: 4
GridSize: 8
TimelineZoom: 2.5

[Metadata]
Title:Transfer (Asterisk DnB Remix)
TitleUnicode:Transfer (Asterisk DnB Remix)
Artist:livetune adding Nakajima Megumi
ArtistUnicode:livetune adding 中島愛
Creator:EscapeReality
Version:z
Source:
Tags:
BeatmapID:1359270
BeatmapSetID:640959

[Difficulty]
HPDrainRate:5.6
CircleSize:4
OverallDifficulty:8
ApproachRate:9.2
SliderMultiplier:1.6
SliderTickRate:1

[Events]
//Background and Video events
//Break Periods
2,23770,33971
//Storyboard Layer 0 (Background)
//Storyboard Layer 1 (Fail)
//Storyboard Layer 2 (Pass)
//Storyboard Layer 3 (Foreground)
//Storyboard Sound Samples

[TimingPoints]
256,342.857142857143,4,2,0,60,1,0
1970,-125,4,2,0,60,0,0
2313,-166.666666666667,4,2,0,60,0,0
2656,-200,4,2,0,60,0,0
2998,-250,4,2,0,60,0,0
3341,-333.333333333333,4,2,0,60,0,0
3684,-500,4,2,0,60,0,0
4027,-1000,4,2,0,60,0,0
4370,-100,4,2,0,60,0,0
7456,-125,4,2,0,60,0,0
7798,-166.666666666667,4,2,0,60,0,0
8141,-200,4,2,0,60,0,0
8484,-250,4,2,0,60,0,0
8827,-333.333333333333,4,2,0,60,0,0
9170,-500,4,2,0,60,0,0
9513,-1000,4,2,0,60,0,0
9856,-100,4,2,0,60,0,0
12598,-100,4,2,0,60,0,0
12941,-125,4,2,0,60,0,0
13284,-166.666666666667,4,2,0,60,0,0
13627,-200,4,2,0,60,0,0
13970,-250,4,2,0,60,0,0
14313,-333.333333333333,4,2,0,60,0,0
14656,-500,4,2,0,60,0,0
14998,-1000,4,2,0,60,0,0
15341,-80,4,2,0,60,0,0
34541,-100,4,2,0,60,0,0
34884,-111.111111111111,4,2,0,60,0,0
35227,-125,4,2,0,60,0,0
35570,-142.857142857143,4,2,0,60,0,0
35913,-100,4,2,0,60,0,0
37284,-90.9090909090909,4,2,0,60,0,0
38656,-83.3333333333333,4,2,0,60,0,0
43970,-66.6666666666667,4,2,0,60,0,0
45170,-80,4,2,0,60,0,0
61970,-100,4,2,0,60,0,0
62484,-80,4,2,0,60,0,0
63170,-66.6666666666667,4,2,0,60,0,0
64370,-100,4,2,0,60,0,0
68827,-200,4,2,0,20,0,0
70198,-166.666666666667,4,2,0,27,0,0
71570,-142.857142857143,4,2,0,34,0,0
72941,-125,4,2,0,44,0,0
74313,-111.111111111111,4,2,0,54,0,0
75684,-100,4,2,0,64,0,0
76713,-100,4,2,0,77,0,0
77741,-100,4,2,0,90,0,0
78427,-80,4,2,0,100,0,0
78770,-100,4,2,0,100,0,0
87856,-133.333333333333,4,2,0,100,0,0
89056,-80,4,2,0,100,0,0
93341,-100,4,2,0,100,0,0
94198,-80,4,2,0,100,0,0
96084,-133.333333333333,4,2,0,100,0,0
96598,-80,4,2,0,100,0,0
97970,-74.0740740740741,4,2,0,100,0,0
98313,-68.9655172413793,4,2,0,100,0,0
98656,-64.5161290322581,4,2,0,100,0,0
100970,-133.333333333333,4,2,0,20,0,0
101398,-50,4,2,0,90,0,0
101741,-71.4285714285714,4,2,0,100,0,1
107227,-100,4,2,0,90,0,1
107570,-71.4285714285714,4,2,0,90,0,1
109113,-80,4,2,0,70,0,1
109456,-90.9090909090909,4,2,0,50,0,1
109798,-100,4,2,0,70,0,1
109970,-71.4285714285714,4,2,0,90,0,1
117170,-100,4,2,0,90,0,1
117513,-71.4285714285714,4,2,0,90,0,1
118198,-80,4,2,0,90,0,1
118713,-86.9565217391304,4,2,0,90,0,1
119398,-100,4,2,0,90,0,1
120084,-117.647058823529,4,2,0,90,0,1
120598,-133.333333333333,4,2,0,90,0,1
120941,-100,4,2,0,90,0,1
121284,-83.3333333333333,4,2,0,90,0,1
121627,-71.4285714285714,4,2,0,90,0,1
122141,-71.4285714285714,4,2,0,90,0,0
122656,-133.333333333333,4,2,0,90,0,0
122998,-100,4,2,0,90,0,0
123684,-66.6666666666667,4,2,0,90,0,1
124713,-100,4,2,0,90,0,1
125056,-66.6666666666667,4,2,0,90,0,1
125570,-80,4,2,0,90,0,1
126427,-66.6666666666667,4,2,0,90,0,1
128827,-100,4,2,0,90,0,1
129170,-66.6666666666667,4,2,0,90,0,1
131913,-66.6666666666667,4,2,0,90,0,1
135684,-100,4,2,0,90,0,1
136027,-66.6666666666667,4,2,0,90,0,1
136541,-80,4,2,0,90,0,1
137398,-66.6666666666667,4,2,0,90,0,1
139798,-100,4,2,0,90,0,1
140827,-66.6666666666667,4,2,0,90,0,1
141341,-100,4,2,0,90,0,1
141684,-66.6666666666667,4,2,0,90,0,1
145627,-100,4,2,0,90,0,0
156256,-133.333333333333,4,2,0,90,0,0
156598,-100,4,2,0,90,0,0
156941,-80,4,2,0,90,0,0
166027,-133.333333333333,4,2,0,90,0,0
167227,-80,4,2,0,90,0,0
174256,-133.333333333333,4,2,0,90,0,0
174770,-80,4,2,0,90,0,0
176141,-71.4285714285714,4,2,0,90,0,0
176484,-64.5161290322581,4,2,0,90,0,0
176827,-58.8235294117647,4,2,0,90,0,0
177856,-58.8235294117647,4,2,0,90,0,0
179056,-133.333333333333,4,2,0,20,0,0
179570,-50,4,2,0,90,0,0
179913,-71.4285714285714,4,2,0,90,0,1
185913,-71.4285714285714,4,2,0,90,0,1
187284,-83.3333333333333,4,2,0,70,0,1
187627,-100,4,2,0,50,0,1
187970,-125,4,2,0,70,0,1
188141,-71.4285714285714,4,2,0,90,0,1
196370,-80,4,2,0,90,0,1
196884,-86.9565217391304,4,2,0,90,0,1
197570,-100,4,2,0,90,0,1
198256,-117.647058823529,4,2,0,90,0,1
198770,-133.333333333333,4,2,0,90,0,1
199113,-100,4,2,0,90,0,1
199456,-83.3333333333333,4,2,0,90,0,1
199798,-71.4285714285714,4,2,0,90,0,1
200827,-133.333333333333,4,2,0,90,0,1
201513,-66.6666666666667,4,2,0,90,0,1
201856,-58.8235294117647,4,2,0,90,0,0
204598,-100,4,2,0,90,0,0
215570,-80,4,2,0,90,0,0
226541,-58.8235294117647,4,2,0,90,0,1
248484,-58.8235294117647,4,2,0,90,0,0

[Colours]
Combo1 : 217,0,217
Combo2 : 255,255,255
Combo3 : 128,0,128
Combo4 : 255,198,255
Combo5 : 255,151,203
Combo6 : 255,0,255
Combo7 : 208,133,241
Combo8 : 255,132,193

[HitObjects]
80,144,1627,6,0,L|74:105,3,40,2|0|0|0,0:0|0:0|0:0|0:0,0:0:0:0:
152,184,1970,2,0,L|144:224,3,32,0|0|0|0,1:0|0:0|0:0|0:0,0:0:0:0:
224,144,2313,2,0,L|216:112,3,23.9999992675781,0|0|0|0,0:0|0:0|3:0|0:0,0:0:0:0:
248,184,2656,2,0,L|248:208,3,20,0|0|0|0,1:0|0:0|0:0|0:0,0:0:0:0:
288,200,2998,2,0,L|296:184,3,16,0|0|0|0,3:0|0:0|0:0|0:0,0:0:0:0:
312,216,3341,2,0,L|320:232,3,11.9999996337891,0|0|0|0,1:0|0:0|0:0|0:0,0:0:0:0:
368,208,3684,2,0,L|368:200,3,8,0|0|0|0,0:0|0:0|3:0|0:0,0:0:0:0:
400,224,4027,2,0,L|400:228,3,4,0|0|0|0,1:0|0:0|0:0|0:0,0:0:0:0:
312,304,4370,6,0,L|224:296,1,80,0|0,3:0|0:0,0:0:0:0:
40,128,4713,2,0,B|88:120|88:120|136:136|136:136|208:120,1,160,0|2,1:0|0:0,0:0:0:0:
216,200,5227,1,0,3:0:0:0:
400,224,5398,2,0,P|344:232|296:128,1,160,0|0,1:0|3:0,0:0:0:0:
392,48,6084,6,0,L|384:136,1,80,0|0,1:0|0:0,0:0:0:0:
400,144,6341,1,0,0:0:0:0:
400,144,6427,1,2,0:0:0:0:
240,32,6598,1,0,3:0:0:0:
288,272,6770,2,0,B|282:236|282:236|294:200|294:200|284:155,1,120,0|0,1:0|0:0,0:0:0:0:
312,40,7113,6,0,L|320:80,3,40,2|0|0|0,0:0|0:0|0:0|0:0,0:0:0:0:
232,128,7456,2,0,L|240:88,3,32,0|0|0|0,1:0|0:0|0:0|0:0,0:0:0:0:
304,160,7798,2,0,L|309:188,3,23.9999992675781,0|0|0|0,0:0|0:0|3:0|0:0,0:0:0:0:
248,216,8141,2,0,L|253:187,3,20,0|0|0|0,1:0|0:0|0:0|0:0,0:0:0:0:
288,248,8484,2,0,L|293:276,3,16,0|0|0|0,3:0|0:0|0:0|0:0,0:0:0:0:
240,296,8827,2,0,L|243:279,3,11.9999996337891,0|0|0|0,1:0|0:0|0:0|0:0,0:0:0:0:
288,328,9170,2,0,L|290:339,3,8,0|0|0|0,0:0|0:0|3:0|0:0,0:0:0:0:
256,368,9513,2,0,L|257:362,3,4,0|0|0|0,1:0|0:0|0:0|0:0,0:0:0:0:
144,264,9856,6,0,P|192:280|168:328,1,80,0|0,3:0|0:0,3:0:0:0:
256,72,10198,2,0,B|304:64|304:64|352:72|352:72|432:56,1,160,0|2,1:0|0:0,0:0:0:0:
488,88,10713,1,0,3:0:0:0:
408,264,10884,2,0,P|346:274|373:308,1,120,0|0,1:0|0:0,0:0:0:0:
472,344,11227,6,0,L|304:336,1,160,0|0,3:0|1:0,0:0:0:0:
216,304,11741,1,0,0:0:0:0:
196,291,11827,1,0,0:0:0:0:
171,285,11913,1,2,0:0:0:0:
145,291,11998,1,0,0:0:0:0:
119,304,12084,1,0,3:0:0:0:
208,112,12256,2,0,B|244:106|244:106|280:118|280:118|334:106,1,120,0|0,1:0|0:0,0:0:0:0:
424,96,12598,6,0,L|472:104,3,40,2|0|0|0,0:0|0:0|0:0|0:0,0:0:0:0:
344,160,12941,2,0,L|382:153,3,32,0|0|0|0,1:0|0:0|0:0|0:0,0:0:0:0:
256,112,13284,2,0,L|284:116,3,23.9999992675781,0|0|0|0,0:0|0:0|3:0|0:0,0:0:0:0:
208,136,13627,2,0,L|232:132,3,20,0|0|0|0,1:0|0:0|0:0|0:0,0:0:0:0:
168,168,13970,2,0,L|176:192,3,16,0|0|0|0,3:0|0:0|0:0|0:0,0:0:0:0:
184,232,14313,2,0,L|189:248,3,11.9999996337891,0|0|0|0,1:0|0:0|0:0|0:0,0:0:0:0:
200,288,14656,2,0,L|203:298,3,8,0|0|0|0,0:0|0:0|3:0|0:0,0:0:0:0:
216,344,14998,2,0,L|217:347,3,4,0|0|0|0,1:0|0:0|0:0|0:0,0:0:0:0:
344,128,15341,6,0,B|344:104|344:104|339:80|339:80|353:72|353:72|350:60|350:60|364:29,1,100,6|0,0:0|0:0,0:0:0:0:
184,232,15684,2,0,P|182:292|150:304,1,100,0|0,1:0|0:0,0:0:0:0:
128,296,15941,1,0,0:0:0:0:
128,296,16027,1,2,0:0:0:0:
64,160,16198,1,0,3:0:0:0:
272,232,16370,2,0,L|432:248,1,150,0|0,1:0|0:0,0:0:0:0:
472,232,16713,6,0,L|367:221,1,100,0|0,3:0|0:0,0:0:0:0:
216,344,17056,1,0,1:0:0:0:
184,192,17227,1,2,0:0:0:0:
200,169,17313,1,0,0:0:0:0:
217,147,17398,1,2,0:0:0:0:
211,119,17484,1,0,0:0:0:0:
200,96,17570,1,0,3:0:0:0:
64,32,17741,2,0,L|168:24,1,100,0|0,1:0|0:0,0:0:0:0:
48,256,18084,5,4,0:0:0:0:
312,120,18770,5,0,1:0:0:0:
232,328,19456,5,4,0:0:0:0:
312,96,20141,5,0,1:0:0:0:
288,72,20827,5,4,1:0:0:0:
328,168,21170,1,4,1:0:0:0:
296,264,21513,1,4,1:0:0:0:
368,328,21856,1,4,1:0:0:0:
368,328,22198,5,0,1:0:0:0:
360,248,22369,1,0,1:0:0:0:
352,168,22541,1,0,1:0:0:0:
344,88,22713,1,0,1:0:0:0:
232,48,22884,5,2,0:0:0:0:
192,40,22970,1,0,0:0:0:0:
152,48,23056,1,0,1:0:0:0:
120,32,23141,1,0,0:0:0:0:
96,64,23227,1,8,0:0:0:0:
112,344,23570,5,4,0:0:0:0:
140,124,34541,6,0,L|150:67,3,40,0|0|0|0,3:0|0:0|0:0|0:0,0:0:0:0:
192,248,34884,2,0,L|199:290,3,35.9999989013672,0|0|0|0,3:0|0:0|0:0|0:0,0:0:0:0:
264,160,35227,2,0,L|271:113,3,32,0|0|0|0,3:0|0:0|0:0|0:0,0:0:0:0:
336,216,35570,2,0,L|341:250,3,27.9999991455078,0|0|2|0,3:0|0:0|0:0|0:0,0:0:0:0:
416,144,35913,6,0,L|408:56,1,80,0|0,3:0|0:0,0:0:0:0:
224,216,36256,2,0,L|232:304,1,80,0|0,3:0|0:0,0:0:0:0:
320,184,36598,2,0,L|312:96,1,80,0|0,3:0|0:0,0:0:0:0:
128,256,36941,2,0,L|136:344,1,80,0|0,3:0|0:0,0:0:0:0:
120,80,37284,6,0,P|176:88|200:128,1,88.000002685547,0|0,3:0|0:0,0:0:0:0:
128,344,37627,2,0,P|106:291|129:250,1,88.000002685547,0|0,3:0|0:0,0:0:0:0:
328,240,37970,2,0,P|293:284|246:285,1,88.000002685547,0|0,3:0|0:0,0:0:0:0:
144,192,38313,2,0,L|240:200,1,88.000002685547,0|0,3:0|0:0,0:0:0:0:
384,160,38656,6,0,L|285:151,1,95.9999970703126,0|0,3:0|0:0,0:0:0:0:
437,264,38999,2,0,P|487:247|515:202,1,95.9999970703126,0|0,3:0|0:0,0:0:0:0:
252,234,39342,2,0,P|240:285|267:331,1,95.9999970703126,0|0,3:0|0:0,0:0:0:0:
350,42,39685,2,0,P|310:5|257:4,1,95.9999970703126,0|0,3:0|0:0,0:0:0:0:
32,64,40027,6,0,L|88:56,3,47.9999985351563,2|0|2|0,3:0|0:0|0:0|0:0,0:0:0:0:
72,96,40370,2,0,L|128:104,3,47.9999985351563,2|0|2|0,3:0|0:0|0:0|0:0,0:0:0:0:
144,80,40713,2,0,L|200:72,3,47.9999985351563,2|0|2|0,3:0|0:0|0:0|0:0,0:0:0:0:
232,88,41056,2,0,L|288:96,3,47.9999985351563,2|0|2|0,3:0|0:0|0:0|0:0,0:0:0:0:
312,88,41398,5,2,3:0:0:0:
313,103,41484,1,0,0:0:0:0:
315,119,41569,1,0,3:0:0:0:
316,134,41655,1,0,0:0:0:0:
317,150,41741,5,2,3:0:0:0:
318,165,41826,1,0,0:0:0:0:
319,181,41912,1,0,3:0:0:0:
327,191,41998,1,0,0:0:0:0:
341,198,42084,5,2,3:0:0:0:
352,207,42169,1,0,0:0:0:0:
353,223,42255,1,0,3:0:0:0:
354,238,42341,1,0,0:0:0:0:
356,254,42427,5,0,3:0:0:0:
357,269,42512,1,0,0:0:0:0:
358,284,42598,1,0,3:0:0:0:
360,300,42684,1,0,0:0:0:0:
384,336,42770,6,0,L|376:232,1,95.9999970703126,0|0,3:0|0:0,0:0:0:0:
368,128,43113,1,8,3:0:0:0:
312,332,43284,5,0,3:0:0:0:
491,281,43456,1,0,0:0:0:0:
345,146,43627,1,8,3:0:0:0:
368,232,43798,5,0,1:0:0:0:
488,88,43970,2,0,B|449:62|449:62|436:68|436:68|417:62|417:62|379:56|379:56|376:120,1,180.000006866455,4|0,0:0|0:0,0:0:0:0:
320,208,44313,6,0,L|336:280,1,60.0000022888184
376,352,44484,6,0,B|328:312|328:312|336:288|336:288|440:264,1,180.000006866455,8|0,3:0|0:0,0:0:0:0:
456,232,44827,5,2,3:0:0:0:
408,232,44913,1,2,3:0:0:0:
360,232,44998,1,2,3:0:0:0:
312,232,45084,1,2,3:0:0:0:
272,240,45170,6,0,L|112:232,1,150,2|0,3:0|0:0,0:0:0:0:
32,200,45513,5,4,0:0:0:0:
200,144,45684,1,0,0:0:0:0:
144,320,45856,1,0,1:0:0:0:
248,160,46027,2,0,B|320:152|320:152|368:160|368:160|392:144|408:136|480:184,1,200,2|0,0:0|3:0,0:0:0:0:
408,344,46541,2,0,P|360:312|440:304,1,150,0|0,1:0|0:0,0:0:0:0:
440,256,46884,5,0,3:0:0:0:
360,192,47056,1,0,0:0:0:0:
264,184,47227,1,0,1:0:0:0:
176,224,47398,2,0,B|128:211|128:211|116:217|116:217|105:211|105:211|57:193|27:236,1,150,2|0,0:0|0:0,0:0:0:0:
48,248,47741,1,0,3:0:0:0:
64,88,47913,1,0,1:0:0:0:
192,112,48084,1,2,0:0:0:0:
88,112,48256,6,0,L|88:8,1,100,0|0,3:0|0:0,0:0:0:0:
200,16,48598,1,0,1:0:0:0:
248,240,48770,2,0,L|224:136,1,100,0|2,0:0|0:0,0:0:0:0:
132,112,49113,5,0,3:0:0:0:
106,200,49284,1,0,1:0:0:0:
185,236,49456,1,2,0:0:0:0:
141,112,49627,5,0,3:0:0:0:
93,190,49798,1,2,0:0:0:0:
160,244,49970,1,0,1:0:0:0:
248,256,50141,1,0,0:0:0:0:
328,224,50313,6,0,P|280:208|224:224,1,100,2|0,0:0|3:0,0:0:0:0:
56,296,50656,2,0,P|89:333|146:348,1,100,0|0,1:0|0:0,0:0:0:0:
224,280,50998,5,2,3:0:0:0:
251,274,51170,1,0,0:0:0:0:
279,268,51341,1,0,1:0:0:0:
352,304,51513,5,2,0:0:0:0:
392,302,51685,1,0,0:0:0:0:
433,302,51856,1,0,3:0:0:0:
496,352,52027,5,0,1:0:0:0:
496,208,52198,6,0,P|436:183|426:98,1,150,2|0,0:0|0:0,0:0:0:0:
392,80,52541,2,0,P|359:137|298:121,1,100,2|0,0:0|1:0,0:0:0:0:
208,64,52884,1,2,0:0:0:0:
56,40,53056,6,0,P|80:80|80:152,1,100,2|0,0:0|3:0,0:0:0:0:
32,248,53313,1,2,0:0:0:0:
32,248,53398,2,0,P|24:288|24:312,1,50,0|0,1:0|0:0,0:0:0:0:
104,336,53570,2,0,P|144:344|168:344,1,50,2|0,0:0|0:0,0:0:0:0:
248,304,53741,6,0,B|235:261|235:261|198:230|198:230|241:201|241:201|259:206|259:206|307:201,1,200,0|0,3:0|1:0,0:0:0:0:
382,189,54427,5,2,0:0:0:0:
422,269,54598,1,0,3:0:0:0:
382,349,54769,1,0,1:0:0:0:
232,336,54941,5,4,0:0:0:0:
233,337,55284,5,0,1:0:0:0:
226,331,55627,5,0,1:0:0:0:
160,176,55798,5,0,1:0:0:0:
152,256,55970,1,0,0:0:0:0:
72,32,56141,5,4,1:0:0:0:
72,32,56313,1,0,3:0:0:0:
72,70,56398,1,0,3:0:0:0:
72,108,56484,5,4,0:0:0:0:
248,96,56656,1,0,0:0:0:0:
256,232,56827,1,0,1:0:0:0:
256,80,56998,2,0,B|288:54|288:54|326:60|326:60|339:54|339:54|377:54|428:86,1,150,2|0,0:0|0:0,0:0:0:0:
400,96,57341,5,0,3:0:0:0:
424,184,57513,1,0,1:0:0:0:
368,256,57684,1,2,0:0:0:0:
280,232,57856,5,2,0:0:0:0:
360,232,58027,1,0,0:0:0:0:
424,280,58198,1,0,1:0:0:0:
472,344,58370,2,0,B|464:272|488:256|488:256|480:240|480:240|512:200,1,150,2|0,0:0|0:0,0:0:0:0:
488,192,58713,1,0,3:0:0:0:
392,72,58884,2,0,L|232:80,1,150,0|0,1:0|0:0,0:0:0:0:
96,96,59227,6,0,B|83:185|83:185|108:179|108:179|147:192|147:192|204:204,1,200,0|0,3:0|1:0,0:0:0:0:
336,208,59741,1,0,0:0:0:0:
336,208,59913,5,2,0:0:0:0:
248,200,60084,1,0,3:0:0:0:
176,248,60256,1,0,1:0:0:0:
160,336,60427,2,0,P|168:280|224:264,1,100,2|0,0:0|0:0,0:0:0:0:
280,288,60770,5,2,0:0:0:0:
272,144,60941,1,0,1:0:0:0:
280,304,61113,1,0,0:0:0:0:
296,120,61284,6,0,P|304:48|280:16,1,100,2|0,0:0|0:0,0:0:0:0:
96,136,61627,2,0,P|53:194|57:234,1,100,2|0,0:0|0:0,0:0:0:0:
96,320,61970,6,0,L|152:320,3,40,2|0|0|0,3:0|0:0|0:0|0:0,0:0:0:0:
256,288,62313,6,0,L|304:296,1,40,0|0,3:0|0:0,0:0:0:0:
360,344,62484,2,0,L|424:336,5,50,0|0|0|0|0|0,1:0|0:0|0:0|0:0|0:0|0:0,0:0:0:0:
512,248,62998,6,0,L|512:192,1,50,0|0,3:0|0:0,0:0:0:0:
464,128,63170,2,0,L|474:66,5,60.0000022888184,0|0|0|0|0|0,1:0|0:0|0:0|0:0|0:0|0:0,0:0:0:0:
312,0,63684,6,0,L|252:0,1,60.0000022888184,0|0,3:0|0:0,0:0:0:0:
208,80,63856,2,0,L|119:65,5,60.0000022888184,0|0|0|0|0|0,1:0|0:0|0:0|0:0|0:0|0:0,0:0:0:0:
88,16,64370,6,0,L|40:24,3,40,0|0|0|0,1:0|0:0|0:0|0:0,0:0:0:0:
40,40,64713,5,0,3:0:0:0:
40,51,64799,1,0,0:0:0:0:
40,62,64884,1,0,0:0:0:0:
45,74,64970,1,0,0:0:0:0:
51,91,65056,5,0,3:0:0:0:
48,107,65141,1,0,0:0:0:0:
45,124,65227,1,0,0:0:0:0:
36,136,65313,1,0,0:0:0:0:
28,150,65398,5,0,3:0:0:0:
28,167,65484,1,0,0:0:0:0:
28,183,65570,1,0,0:0:0:0:
28,200,65655,1,0,0:0:0:0:
8,232,65741,6,0,L|16:280,1,40,0|0,3:0|0:0,0:0:0:0:
32,352,65913,1,4,0:0:0:0:
56,336,66256,5,0,3:0:0:0:
288,288,66427,1,0,1:0:0:0:
288,288,66770,6,0,L|280:240,1,40,0|0,1:0|0:0,0:0:0:0:
352,160,66941,2,0,L|358:199,1,40,2|0,0:0|0:0,0:0:0:0:
376,344,67113,1,8,0:0:0:0:
320,224,67456,5,2,0:0:0:0:
320,224,68827,22,0,L|256:232,1,60,0|0,3:0|0:0,0:0:0:0:
208,160,69170,2,0,L|307:147,1,100,0|0,1:0|0:0,0:0:0:0:
288,136,69684,1,0,3:0:0:0:
200,168,69856,1,0,1:0:0:0:
320,224,70198,22,0,L|236:234,1,71.9999978027344,0|0,3:0|0:0,0:0:0:0:
177,136,70541,2,0,L|297:120,1,119.999996337891,0|0,1:0|0:0,0:0:0:0:
248,104,71055,1,0,3:0:0:0:
160,168,71227,1,0,1:0:0:0:
320,224,71570,54,0,L|228:235,1,83.9999974365235,0|0,3:0|0:0,0:0:0:0:
154,128,71913,2,0,L|299:108,1,139.999995727539,0|0,1:0|0:0,0:0:0:0:
217,86,72427,1,0,3:0:0:0:
136,184,72599,1,0,1:0:0:0:
320,224,72941,102,0,L|219:236,1,96,0|0,3:0|0:0,0:0:0:0:
138,118,73284,2,0,L|298:96,1,160,0|0,1:0|0:0,0:0:0:0:
200,80,73798,1,0,3:0:0:0:
120,208,73970,1,0,1:0:0:0:
320,224,74313,22,0,L|209:237,1,107.999996704102,0|0,3:0|0:0,0:0:0:0:
107,106,74656,2,0,L|301:79,1,179.999994506836,0|0,1:0|0:0,0:0:0:0:
160,64,75170,1,0,3:0:0:0:
112,240,75341,1,0,1:0:0:0:
320,216,75684,22,0,L|200:230,1,120,0|0,3:0|0:0,0:0:0:0:
96,88,76027,2,0,P|128:72|144:72,1,40,0|0,1:0|0:0,0:0:0:0:
168,67,76198,2,0,L|316:46,1,120,2|0,0:0|0:0,0:0:0:0:
144,40,76541,1,0,3:0:0:0:
219,216,76713,6,0,P|209:179|209:152,1,40,0|0,1:0|0:0,0:0:0:0:
408,128,76884,2,0,B|385:159|355:128|355:128|328:128|328:128|323:145|323:145|282:134,1,120,2|0,0:0|0:0,0:0:0:0:
219,216,77227,6,0,P|196:220|173:220,1,40,2|0,0:0|0:0,0:0:0:0:
72,168,77398,2,0,P|104:184|112:192,1,40,0|0,1:0|0:0,3:0:0:0:
104,304,77570,1,2,0:0:0:0:
248,136,77741,5,2,0:0:0:0:
352,336,77913,2,0,P|325:328|292:309,1,40,0|0,3:0|0:0,0:0:0:0:
240,256,78084,6,0,B|294:237|294:237|322:246|322:246|386:246|386:246,1,120,0|0,1:0|0:0,0:0:0:0:
400,160,78427,6,0,L|448:176,3,50,0|0|0|0,3:0|0:0|0:0|0:0,0:0:0:0:
264,48,78770,2,0,L|324:50,3,40,0|0|0|0,1:0|0:0|0:0|0:0,0:0:0:0:
192,96,79113,5,0,0:0:0:0:
104,88,79284,1,0,3:0:0:0:
40,152,79456,1,0,1:0:0:0:
64,232,79627,6,0,P|81:178|104:141,1,80,0|0,0:0|3:0,0:0:0:0:
304,248,79970,2,0,P|322:283|332:322,1,80,0|0,0:0|1:0,0:0:0:0:
400,56,80313,2,0,L|264:48,1,120,2|0,0:0|0:0,0:0:0:0:
264,80,80656,5,0,3:0:0:0:
395,153,80827,1,0,1:0:0:0:
232,184,80998,1,2,0:0:0:0:
432,176,81170,6,0,L|312:192,1,120,0|0,3:0|0:0,0:0:0:0:
304,216,81513,1,0,1:0:0:0:
192,272,81684,6,0,L|71:256,1,120,2|0,0:0|0:0,0:0:0:0:
58,277,82027,1,0,3:0:0:0:
128,224,82198,1,0,1:0:0:0:
216,232,82370,1,0,0:0:0:0:
288,280,82541,5,0,3:0:0:0:
368,192,82713,1,0,0:0:0:0:
448,288,82884,1,0,1:0:0:0:
328,296,83056,5,2,0:0:0:0:
256,344,83398,5,0,3:0:0:0:
368,272,83570,2,0,P|358:240|350:226,1,40,0|0,1:0|0:0,0:0:0:0:
288,184,83741,2,0,P|256:176|240:176,1,40,2|0,0:0|0:0,0:0:0:0:
176,216,83913,6,0,P|232:216|264:232,1,80,0|0,3:0|0:0,0:0:0:0:
312,48,84256,2,0,P|257:62|231:86,1,80,0|0,3:0|0:0,0:0:0:0:
360,256,84598,6,0,P|344:200|344:176,1,80,0|0,3:0|0:0,0:0:0:0:
144,16,84941,2,0,P|126:51|119:91,1,80,0|0,3:0|0:0,0:0:0:0:
200,179,85284,5,4,0:0:0:0:
310,166,85456,1,0,0:0:0:0:
271,99,85627,5,0,3:0:0:0:
286,237,85799,1,0,0:0:0:0:
271,153,85970,5,0,3:0:0:0:
289,318,86142,1,0,0:0:0:0:
355,276,86313,5,0,3:0:0:0:
215,290,86485,1,2,0:0:0:0:
176,152,86656,5,4,0:0:0:0:
136,248,86827,1,0,0:0:0:0:
97,345,86998,1,8,0:0:0:0:
272,122,87170,5,4,0:0:0:0:
165,204,87341,1,0,0:0:0:0:
58,288,87512,1,8,0:0:0:0:
205,315,87684,5,4,0:0:0:0:
140,40,87856,2,0,B|184:27|184:27|204:46|204:46|210:27|210:27|223:33|236:46|242:46|248:33|268:33|280:84|280:84|248:123|248:123|248:148|268:161,1,270.000010299683,2|0,0:0|0:0,0:0:0:0:
296,256,88713,5,0,3:0:0:0:
328,248,88798,1,0,0:0:0:0:
360,240,88884,1,0,3:0:0:0:
432,176,89056,6,0,L|495:167,1,50,0|0,3:0|0:0,0:0:0:0:
312,336,89227,2,0,L|376:344,1,50,0|0,3:0|0:0,0:0:0:0:
144,216,89398,6,0,L|354:208,1,200,4|0,0:0|1:0,0:0:0:0:
419,67,89913,2,0,B|443:153|443:153|443:178|443:178|467:288,1,200,2|0,0:0|3:0,0:0:0:0:
336,328,90427,2,0,L|233:306,1,100,0|0,1:0|0:0,0:0:0:0:
144,248,90770,6,0,L|292:279,1,150,0|0,3:0|0:0,0:0:0:0:
472,248,91113,2,0,P|488:240|496:208,1,50,0|0,1:0|0:0,0:0:0:0:
400,96,91284,2,0,P|398:113|422:136,1,50,2|0,0:0|0:0,0:0:0:0:
296,16,91456,6,0,L|232:24,3,50,2|0|0|0,0:0|0:0|3:0|0:0,0:0:0:0:
144,80,91798,2,0,L|80:71,3,50,0|0|0|0,1:0|0:0|0:0|0:0,0:0:0:0:
192,208,92141,1,0,3:0:0:0:
239,199,92227,1,0,0:0:0:0:
286,191,92313,6,0,L|443:163,1,150,2|0,0:0|0:0,0:0:0:0:
458,242,92656,2,0,L|354:260,1,100,2|0,0:0|0:0,0:0:0:0:
224,120,92998,2,0,L|322:102,1,100,2|0,0:0|0:0,0:0:0:0:
432,264,93341,2,0,L|330:236,1,80,2|0,0:0|0:0,0:0:0:0:
296,136,93684,2,0,L|450:178,1,160,2|0,0:0|0:0,0:0:0:0:
424,352,94198,6,0,L|373:338,3,50,2|0|0|0,0:0|0:0|0:0|0:0,0:0:0:0:
352,336,94541,5,2,0:0:0:0:
323,336,94627,1,0,0:0:0:0:
294,345,94713,1,0,0:0:0:0:
265,345,94798,1,0,0:0:0:0:
232,336,94884,6,0,L|120:344,1,100,4|0,0:0|0:0,0:0:0:0:
112,328,95141,1,0,0:0:0:0:
97,328,95227,1,0,0:0:0:0:
81,336,95313,1,0,0:0:0:0:
49,349,95398,6,0,B|49:293|49:293|57:261|57:261|57:189,1,150,4|0,0:0|0:0,0:0:0:0:
40,176,95741,6,0,L|32:120,3,50
56,24,96084,6,0,B|80:0|80:0|96:24|96:24|120:16|120:16|184:32,1,150.000005722046,4|0,0:0|0:0,0:0:0:0:
320,88,96598,6,0,P|352:80|368:72,1,50,0|0,3:0|0:0,0:0:0:0:
488,56,96770,2,0,B|512:128|512:128|488:168|488:168|504:216|504:216|504:272,1,200,2|0,3:0|0:0,0:0:0:0:
352,272,97284,2,0,L|384:384,1,100,0|2,1:0|0:0,0:0:0:0:
184,208,97627,6,0,B|136:184|136:184|72:192|72:192|40:188,1,150,2|0,3:0|0:0,0:0:0:0:
256,176,97970,6,0,B|215:212|215:212|151:221|151:221|111:237,1,162.000000617981,2|0,3:0|0:0,0:0:0:0:
328,216,98313,6,0,B|298:171|298:171|239:146|239:146|194:112,1,174.000005310059,2|0,3:0|0:0,0:0:0:0:
408,192,98656,6,0,B|387:254|387:254|326:301|326:301|279:362,1,186.000001419067,2|0,3:0|0:0,0:0:0:0:
299,335,98998,5,0,3:0:0:0:
328,216,99170,1,0,3:0:0:0:
207,318,99341,5,0,3:0:0:0:
208,160,99513,1,0,3:0:0:0:
120,240,99684,5,0,3:0:0:0:
144,48,99856,1,0,3:0:0:0:
112,264,100027,5,2,3:0:0:0:
97,217,100113,1,0,0:0:0:0:
51,217,100198,1,2,0:0:0:0:
36,264,100284,1,0,0:0:0:0:
73,289,100370,5,8,0:0:0:0:
73,289,100970,5,0,0:0:0:0:
73,289,101056,2,0,B|100:283|100:283|112:289|112:289|123:283|169:297,1,90.0000034332277,2|0,0:0|0:0,0:0:0:0:
280,240,101398,6,0,P|276:141|362:189,1,240,8|0,0:0|0:0,0:0:0:0:
400,352,101741,6,0,B|323:332|323:332|284:361|284:361|246:352|246:352|217:342|169:361,1,223.999993164063,4|0,0:0|1:0,0:0:0:0:
120,112,102256,2,0,P|176:40|248:56,1,167.999994873047,2|0,0:0|0:0,0:0:0:0:
256,72,102598,5,0,3:0:0:0:
232,168,102770,1,0,1:0:0:0:
168,248,102941,1,2,0:0:0:0:
144,248,103027,1,0,0:0:0:0:
120,240,103113,6,0,L|304:224,1,167.999994873047,0|0,3:0|0:0,0:0:0:0:
304,256,103456,1,0,1:0:0:0:
392,336,103627,1,0,0:0:0:0:
424,128,103798,6,0,L|312:120,1,111.999996582031,2|0,0:0|3:0,0:0:0:0:
192,120,104056,1,2,0:0:0:0:
192,120,104141,2,0,P|160:152|144:152,1,55.9999982910157,0|0,1:0|0:0,0:0:0:0:
40,96,104313,2,0,P|83:84|97:92,1,55.9999982910157,2|0,0:0|0:0,0:0:0:0:
80,224,104484,5,0,3:0:0:0:
204,214,104656,1,0,0:0:0:0:
195,329,104827,1,0,1:0:0:0:
48,224,104998,6,0,L|232:216,1,167.999994873047,2|0,0:0|0:0,0:0:0:0:
232,240,105341,5,0,3:0:0:0:
328,216,105513,1,0,1:0:0:0:
408,280,105684,1,2,0:0:0:0:
248,216,105856,5,0,3:0:0:0:
344,216,106028,1,2,0:0:0:0:
408,304,106198,2,0,B|352:296|352:296|328:312|328:312|296:304|296:304|256:304|240:312,1,167.999994873047,0|0,1:0|0:0,0:0:0:0:
120,328,106541,6,0,L|128:208,1,111.999996582031,0|0,0:0|3:0,0:0:0:0:
160,136,106798,1,0,0:0:0:0:
160,136,106884,2,0,L|144:8,1,111.999996582031,0|2,1:0|0:0,0:0:0:0:
368,112,107227,6,0,B|373:139|373:139|395:128|395:128|418:134|418:134|463:128,1,120,0|0,3:0|0:0,0:0:0:0:
464,240,107570,2,0,L|456:352,1,111.999996582031,0|2,1:0|0:0,0:0:0:0:
448,224,107913,5,2,0:0:0:0:
333,255,108084,1,0,3:0:0:0:
344,140,108256,1,0,1:0:0:0:
376,264,108427,6,0,B|328:256|320:280|272:264|272:264|224:296|184:264,1,167.999994873047,2|0,0:0|0:0,0:0:0:0:
112,304,108770,2,0,L|-8:288,1,111.999996582031,2|0,0:0|1:0,0:0:0:0:
168,128,109113,2,0,L|288:144,1,100,2|0,0:0|0:0,0:0:0:0:
368,256,109456,2,0,L|248:240,1,88.000002685547,2|0,0:0|1:0,0:0:0:0:
432,192,109798,2,0,L|492:200,1,40,2|0,0:0|0:0,0:0:0:0:
480,224,109970,6,0,B|464:176|464:176|480:144|480:144|464:120|464:120|456:104|480:72,1,167.999994873047,0|0,3:0|0:0,0:0:0:0:
376,48,110313,2,0,P|344:40|312:40,1,55.9999982910157,0|0,1:0|0:0,0:0:0:0:
248,152,110484,2,0,B|208:144|208:144|176:168|176:168|152:160|152:160|136:144|80:168,1,167.999994873047,2|0,0:0|0:0,0:0:0:0:
72,136,110827,5,0,3:0:0:0:
128,280,110998,1,0,1:0:0:0:
208,48,111170,5,4,0:0:0:0:
192,64,111513,5,0,1:0:0:0:
176,80,111856,5,0,1:0:0:0:
224,192,112027,5,0,1:0:0:0:
224,40,112198,1,0,0:0:0:0:
272,312,112370,5,0,1:0:0:0:
344,32,112541,1,0,3:0:0:0:
351,67,112627,1,0,3:0:0:0:
360,104,112713,6,0,B|367:183|367:183|408:209|408:209|412:248|412:248|413:279|447:317,1,223.999993164063,4|0,0:0|1:0,0:0:0:0:
224,304,113227,2,0,P|144:272|144:344,1,167.999994873047,2|0,0:0|0:0,0:0:0:0:
144,344,113570,1,0,3:0:0:0:
248,184,113741,1,0,1:0:0:0:
128,136,113913,6,0,L|312:128,1,167.999994873047,2|0,0:0|0:0,0:0:0:0:
328,168,114256,2,0,P|352:104|392:96,1,111.999996582031,0|0,0:0|1:0,0:0:0:0:
496,136,114598,1,2,0:0:0:0:
392,288,114770,6,0,B|375:276|375:276|341:293|341:293|308:282|268:293,1,111.999996582031,2|0,0:0|3:0,0:0:0:0:
176,256,115027,1,2,0:0:0:0:
176,256,115113,2,0,B|168:216|168:216|184:192,1,55.9999982910157,0|0,1:0|0:0,0:0:0:0:
316,150,115284,2,0,B|306:189|306:189|281:204,1,55.9999982910157,2|0,0:0|0:0,0:0:0:0:
264,192,115456,5,2,0:0:0:0:
320,104,115627,1,0,0:0:0:0:
424,104,115798,1,0,1:0:0:0:
504,160,115970,2,0,L|312:184,1,167.999994873047,2|0,0:0|0:0,0:0:0:0:
320,192,116313,5,0,3:0:0:0:
296,328,116484,1,0,1:0:0:0:
296,176,116656,1,2,0:0:0:0:
280,336,116827,5,0,3:0:0:0:
224,248,116998,1,2,0:0:0:0:
128,280,117170,2,0,B|161:274|161:274|200:280|200:280|206:274|262:285,1,120,0|0,1:0|0:0,0:0:0:0:
360,264,117513,6,0,P|360:224|424:240,1,111.999996582031,2|0,0:0|3:0,0:0:0:0:
480,352,117770,1,2,0:0:0:0:
480,352,117856,2,0,P|464:304|472:288,1,55.9999982910157,0|0,1:0|0:0,0:0:0:0:
472,168,118027,1,2,0:0:0:0:
288,264,118198,6,0,B|264:192|264:192|288:192|288:192|248:72,1,200,4|0,0:0|0:0,0:0:0:0:
432,136,118713,2,0,B|416:48|416:48|424:56|464:32|520:48,1,184.000003509522,4|0,0:0|0:0,0:0:0:0:
392,336,119227,6,0,L|385:290,1,46.0000008773804,0|0,3:0|0:0,0:0:0:0:
376,200,119398,2,0,B|371:104|371:104|468:165,1,200,4|0,0:0|0:0,0:0:0:0:
288,288,119913,6,0,L|272:251,1,40,0|0,3:0|0:0,0:0:0:0:
216,128,120084,2,0,B|205:69|205:69|252:69|279:64|279:128,1,170.000003242493,4|0,0:0|0:0,0:0:0:0:
384,128,120598,6,0,L|479:128,1,90.0000034332277,0|0,1:0|0:0,0:0:0:0:
272,152,120941,6,0,P|264:104|280:56,1,80,0|0,3:0|0:0,0:0:0:0:
208,256,121284,6,0,P|173:223|156:178,1,95.9999970703126,0|0,3:0|0:0,0:0:0:0:
216,384,121627,6,0,P|160:371|116:334,1,111.999996582031,0|0,3:0|0:0,0:0:0:0:
256,368,121970,5,0,3:0:0:0:
32,328,122141,1,4,0:0:0:0:
48,312,122484,5,0,1:0:0:0:
184,248,122656,2,0,L|280:256,1,90.0000034332277,0|0,3:0|0:0,3:0:0:0:
320,256,122998,5,2,3:0:0:0:
354,249,123083,1,2,3:0:0:0:
390,246,123169,1,2,3:0:0:0:
425,242,123255,1,2,3:0:0:0:
464,227,123340,5,0,1:0:0:0:
467,185,123426,1,0,0:0:0:0:
453,143,123512,1,2,0:0:0:0:
435,105,123598,1,0,0:0:0:0:
408,64,123684,6,2,B|440:120|416:152|416:152|376:152|376:152|344:160|344:160|312:136,1,180.000006866455,6|2,0:0|0:0,0:0:0:0:
304,128,124027,1,0,1:0:0:0:
288,336,124198,2,0,B|240:320|240:320|224:328|224:328|192:320|192:320|176:328|176:328|104:320,1,180.000006866455,2|0,0:0|0:0,0:0:0:0:
96,280,124541,6,0,P|128:272|168:280,1,60.0000022888184,0|0,3:0|0:0,0:0:0:0:
328,264,124713,6,0,B|368:272|368:272|360:240|360:240|384:224|384:224|384:192,1,120,0|0,1:0|0:0,0:0:0:0:
392,80,125056,6,0,P|360:72|320:80,1,60.0000022888184,0|0,3:0|0:0,0:0:0:0:
280,96,125227,6,0,P|263:124|260:165,1,60.0000022888184,2|0,0:0|0:0,0:0:0:0:
280,192,125398,6,0,P|303:215|342:228,1,60.0000022888184,0|0,1:0|0:0,0:0:0:0:
408,248,125570,6,0,B|484:258|484:258|473:220|473:220|514:167|514:167|472:104,1,250,2|0,0:0|0:0,0:0:0:0:
448,88,126084,5,0,1:0:0:0:
384,272,126256,1,2,0:0:0:0:
432,176,126427,6,0,L|368:168,1,60.0000022888184,0|0,3:0|0:0,0:0:0:0:
368,248,126598,2,0,L|308:273,1,60.0000022888184,2|0,0:0|0:0,0:0:0:0:
248,200,126770,6,0,L|188:175,1,60.0000022888184,0|0,1:0|0:0,0:0:0:0:
232,80,126941,2,0,L|172:55,1,60.0000022888184,2|0,0:0|0:0,0:0:0:0:
48,48,127113,6,0,L|56:120,1,60.0000022888184,2|0,0:0|0:0,0:0:0:0:
120,184,127284,2,0,L|128:112,1,60.0000022888184,0|0,3:0|0:0,0:0:0:0:
48,208,127456,2,0,L|56:280,1,60.0000022888184,0|0,1:0|0:0,0:0:0:0:
112,336,127627,6,0,P|176:336|272:256,1,180.000006866455,2|0,0:0|0:0,0:0:0:0:
280,200,127970,2,0,P|280:256|344:192,1,180.000006866455,2|0,0:0|0:0,0:0:0:0:
384,120,128313,6,0,L|336:72,1,60.0000022888184
256,48,128484,6,0,B|327:36|327:36|339:70|339:70|333:109|333:109|272:136,1,180.000006866455,2|0,0:0|0:0,0:0:0:0:
112,144,128827,2,0,L|232:168,1,120,0|0,1:0|0:0,0:0:0:0:
304,264,129170,6,0,L|312:328,1,60.0000022888184,0|0,3:0|0:0,0:0:0:0:
376,232,129341,2,0,L|384:296,1,60.0000022888184,2|0,0:0|0:0,0:0:0:0:
384,152,129513,6,0,L|376:216,1,60.0000022888184,0|0,1:0|0:0,0:0:0:0:
312,128,129684,2,0,L|304:192,1,60.0000022888184,2|0,0:0|0:0,0:0:0:0:
368,40,129856,5,2,0:0:0:0:
184,72,130027,1,0,3:0:0:0:
272,208,130198,2,0,B|256:232|256:232|248:192,1,60.0000022888184,0|2,1:0|0:0,0:0:0:0:
264,120,130370,6,0,L|232:304,1,180.000006866455,2|0,0:0|0:0,0:0:0:0:
200,64,130713,6,0,P|240:40|264:48,1,60.0000022888184,2|0,0:0|0:0,0:0:0:0:
344,144,130884,2,0,P|303:121|298:96,1,60.0000022888184,0|0,1:0|0:0,0:0:0:0:
224,144,131056,2,0,P|224:190|205:207,1,60.0000022888184,2|0,0:0|0:0,0:0:0:0:
176,304,131227,6,0,B|126:312|126:312|117:288|117:288|122:261|122:261|164:242,1,120.000004577637,2|0,0:0|3:0,0:0:0:0:
232,248,131484,1,2,0:0:0:0:
232,248,131570,2,0,L|290:259,1,60.0000022888184,0|0,1:0|0:0,0:0:0:0:
360,288,131741,2,0,L|440:280,1,60.0000022888184,2|0,0:0|0:0,0:0:0:0:
488,248,131913,6,0,B|472:200|472:200|488:160|488:160|488:120|456:72,1,180.000006866455,0|0,3:0|0:0,0:0:0:0:
432,80,132256,1,0,1:0:0:0:
264,184,132427,2,0,P|336:192|352:136,1,120.000004577637,2|0,0:0|0:0,0:0:0:0:
328,80,132770,5,0,3:0:0:0:
176,192,132941,1,0,1:0:0:0:
248,336,133113,5,4,0:0:0:0:
224,320,133456,5,0,1:0:0:0:
231,245,133627,1,2,0:0:0:0:
239,173,133798,1,0,1:0:0:0:
328,64,133970,5,0,1:0:0:0:
352,296,134141,1,2,0:0:0:0:
80,72,134313,5,0,1:0:0:0:
392,216,134484,1,0,3:0:0:0:
423,214,134570,1,0,3:0:0:0:
455,211,134656,5,4,0:0:0:0:
352,152,134827,1,2,0:0:0:0:
232,168,134998,1,0,1:0:0:0:
128,224,135170,6,0,B|144:176|144:176|136:160|136:160|160:144|160:144|136:112|136:112|144:40,1,180.000006866455,2|0,0:0|0:0,0:0:0:0:
184,48,135513,6,0,P|200:72|200:104,1,60.0000022888184,0|0,3:0|0:0,0:0:0:0:
224,288,135684,6,0,B|192:304|192:304|184:296|184:296|176:328|176:328|136:312,1,120,0|0,1:0|0:0,0:0:0:0:
168,160,136027,6,0,P|152:136|152:104,1,60.0000022888184,0|0,3:0|0:0,0:0:0:0:
200,88,136198,6,0,P|228:86|256:102,1,60.0000022888184,2|0,0:0|0:0,0:0:0:0:
288,144,136370,6,0,P|275:169|247:185,1,60.0000022888184,0|0,1:0|0:0,0:0:0:0:
192,280,136541,6,0,B|118:262|118:262|103:227|103:227|60:279|60:279|18:199,1,250,2|0,0:0|0:0,0:0:0:0:
32,192,137056,5,0,1:0:0:0:
32,352,137227,1,2,0:0:0:0:
96,152,137398,6,0,L|160:144,1,60.0000022888184,0|0,3:0|0:0,0:0:0:0:
184,152,137570,2,0,L|248:144,1,60.0000022888184,2|0,0:0|0:0,0:0:0:0:
288,280,137741,6,8,L|350:286,1,60.0000022888184,0|0,1:0|0:0,0:0:0:0:
370,302,137913,2,8,L|432:316,1,60.0000022888184,2|0,0:0|0:0,0:0:0:0:
448,208,138084,6,0,L|528:200,1,60.0000022888184,2|0,0:0|0:0,0:0:0:0:
416,128,138256,2,0,L|496:120,1,60.0000022888184,0|0,3:0|0:0,0:0:0:0:
336,40,138427,2,0,L|256:48,1,60.0000022888184,0|0,1:0|0:0,0:0:0:0:
192,48,138598,6,0,B|47:55|47:55|63:23,1,180.000006866455,2|0,0:0|0:0,0:0:0:0:
184,64,138941,2,0,B|232:128|232:128|120:120,1,180.000006866455,2|0,0:0|0:0,0:0:0:0:
56,176,139284,6,0,L|80:240,1,60.0000022888184,2|0,0:0|0:0,0:0:0:0:
112,336,139456,6,0,B|41:348|41:348|29:314|29:314|35:275|35:275|96:264,1,180.000006866455
192,272,139799,2,0,L|309:295,1,120,0|0,1:0|0:0,0:0:0:0:
432,312,140141,5,2,3:0:0:0:
427,287,140226,1,0,0:0:0:0:
431,267,140312,1,2,0:0:0:0:
453,254,140398,1,0,0:0:0:0:
457,237,140483,5,2,3:0:0:0:
447,214,140569,1,0,0:0:0:0:
441,190,140655,1,2,0:0:0:0:
436,165,140741,1,0,0:0:0:0:
448,136,140827,6,0,L|456:72,1,60.0000022888184,2|0,3:0|0:0,0:0:0:0:
352,32,140998,2,0,L|360:96,1,60.0000022888184,2|0,0:0|0:0,0:0:0:0:
368,200,141170,2,0,B|352:224|352:224|312:216,1,60.0000022888184,2|2,3:0|0:0,0:0:0:0:
248,128,141341,6,0,P|224:112|208:104,3,40
176,32,141684,6,0,L|192:96,1,60.0000022888184,2|0,0:0|0:0,0:0:0:0:
144,160,141856,2,0,L|142:225,1,60.0000022888184,2|0,3:0|0:0,0:0:0:0:
200,280,142027,2,0,L|181:359,1,60.0000022888184,2|0,0:0|0:0,0:0:0:0:
208,352,142198,5,2,3:0:0:0:
232,344,142283,1,0,0:0:0:0:
258,341,142369,1,2,0:0:0:0:
283,336,142455,1,0,0:0:0:0:
309,339,142540,5,2,3:0:0:0:
334,342,142626,1,0,0:0:0:0:
360,336,142712,1,2,0:0:0:0:
384,334,142798,1,0,0:0:0:0:
416,320,142884,6,0,L|432:248,1,60.0000022888184,6|0,0:0|0:0,0:0:0:0:
320,104,143056,2,0,L|336:176,1,60.0000022888184,2|0,0:0|0:0,0:0:0:0:
352,256,143227,1,8,0:0:0:0:
440,184,143398,5,0,0:0:0:0:
430,149,143484,1,0,0:0:0:0:
420,115,143570,1,0,1:0:0:0:
368,32,143741,6,0,B|348:12|348:12|316:20,1,60.0000022888184,2|0,0:0|0:0,0:0:0:0:
240,104,143913,2,0,B|209:111|209:111|189:91,1,60.0000022888184,2|0,0:0|0:0,0:0:0:0:
112,48,144084,6,0,B|73:22|73:22|60:28|60:28|41:22|41:22|3:16|3:16|0:80,1,180.000006866455,4|0,0:0|0:0,0:0:0:0:
0,176,144427,6,0,L|16:248,1,60.0000022888184
56,360,144598,6,0,B|8:320|8:320|16:296|16:296|120:272,1,180.000006866455,8|0,3:0|0:0,0:0:0:0:
192,272,144941,5,0,1:0:0:0:
216,256,145027,1,0,0:0:0:0:
256,264,145113,1,2,0:0:0:0:
296,256,145198,1,0,0:0:0:0:
336,280,145284,1,8,0:0:0:0:
432,64,145627,6,0,L|440:160,1,80,4|0,0:0|0:0,0:0:0:0:
232,296,145970,2,0,B|224:248|224:248|232:216|232:216|224:160,1,120,0|0,1:0|0:0,0:0:0:0:
200,168,146313,5,2,0:0:0:0:
288,144,146484,1,0,3:0:0:0:
376,168,146656,1,0,1:0:0:0:
440,232,146827,6,0,P|448:176|456:152,1,80,2|0,0:0|3:0,0:0:0:0:
304,48,147170,2,0,P|325:100|330:125,1,80,2|0,0:0|1:0,0:0:0:0:
208,320,147513,6,0,P|224:264|280:192,1,120
272,216,147856,5,0,3:0:0:0:
328,312,148027,1,0,1:0:0:0:
192,344,148198,1,0,0:0:0:0:
96,296,148370,6,0,B|72:240|72:240|80:200|80:200|72:136,1,160,0|0,3:0|1:0,0:0:0:0:
280,48,148884,2,0,P|328:72|280:112,1,120,2|0,0:0|0:0,0:0:0:0:
272,120,149227,1,0,3:0:0:0:
432,256,149398,2,0,L|443:166,1,80,0|0,1:0|0:0,0:0:0:0:
312,344,149741,5,0,3:0:0:0:
320,232,149913,1,2,0:0:0:0:
328,120,150084,1,0,1:0:0:0:
312,248,150256,1,0,3:0:0:0:
296,96,150598,5,0,3:0:0:0:
296,264,150770,1,0,1:0:0:0:
280,288,151113,6,0,L|272:208,1,80,0|0,3:0|0:0,0:0:0:0:
120,24,151456,2,0,B|125:53|125:53|117:85|117:85|125:141,1,120,0|0,1:0|0:0,0:0:0:0:
112,160,151798,5,2,0:0:0:0:
192,200,151970,1,0,3:0:0:0:
232,280,152141,1,0,1:0:0:0:
224,368,152313,2,0,P|216:312|224:264,1,80,2|0,0:0|3:0,0:0:0:0:
376,80,152656,2,0,P|376:144|360:176,1,80,2|0,0:0|1:0,0:0:0:0:
336,256,152913,1,0,0:0:0:0:
344,264,152998,6,0,P|400:256|432:304,1,120,2|0,0:0|0:0,0:0:0:0:
424,336,153341,1,0,3:0:0:0:
304,240,153513,1,0,1:0:0:0:
464,184,153684,1,2,0:0:0:0:
448,96,153856,5,0,3:0:0:0:
440,128,154027,1,2,0:0:0:0:
432,160,154198,1,0,1:0:0:0:
304,240,154370,5,0,0:0:0:0:
290,197,154541,1,2,0:0:0:0:
280,155,154712,1,0,3:0:0:0:
176,48,154884,5,0,1:0:0:0:
160,136,155056,2,0,L|144:216,1,80,2|0,0:0|3:0,0:0:0:0:
128,320,155398,6,0,P|128:344|144:360,1,40
264,304,155570,2,0,P|243:292|221:297,1,40,0|0,1:0|0:0,0:0:0:0:
144,304,155741,1,2,0:0:0:0:
48,224,155913,5,2,0:0:0:0:
240,144,156084,2,0,P|216:128|192:120,1,40,0|0,3:0|0:0,0:0:0:0:
48,32,156256,2,0,L|144:24,1,90.0000034332277,0|0,1:0|0:0,0:0:0:0:
224,72,156598,6,0,L|272:48,3,40,0|0|0|0,3:0|0:0|0:0|0:0,0:0:0:0:
328,160,156941,2,0,L|318:217,3,50,0|0|0|0,1:0|0:0|0:0|0:0,0:0:0:0:
192,248,157284,5,2,0:0:0:0:
312,240,157456,1,0,3:0:0:0:
280,352,157627,1,0,1:0:0:0:
136,232,157798,6,0,P|216:224|296:248,1,150,2|0,0:0|0:0,0:0:0:0:
376,312,158141,2,0,P|416:312|464:256,1,100,0|0,0:0|1:0,0:0:0:0:
472,112,158484,6,0,P|416:72|432:144,1,150,2|0,0:0|0:0,0:0:0:0:
424,152,158827,5,0,3:0:0:0:
352,104,158998,1,0,1:0:0:0:
280,160,159170,1,2,0:0:0:0:
320,240,159341,6,0,L|343:91,1,150,0|0,3:0|0:0,0:0:0:0:
328,80,159684,1,0,1:0:0:0:
208,184,159856,6,0,L|192:34,1,150,2|0,0:0|0:0,0:0:0:0:
174,27,160199,1,0,3:0:0:0:
112,200,160370,6,0,L|123:304,1,100,0|0,1:0|0:0,0:0:0:0:
128,200,160713,5,0,3:0:0:0:
216,224,160884,1,0,0:0:0:0:
304,216,161056,1,0,1:0:0:0:
328,40,161227,1,2,0:0:0:0:
328,40,161570,6,0,P|328:80|336:96,1,50,0|0,3:0|0:0,0:0:0:0:
376,152,161741,2,0,P|396:186|410:196,1,50,0|0,1:0|0:0,0:0:0:0:
480,216,161913,5,2,0:0:0:0:
480,216,161998,1,2,0:0:0:0:
496,232,162084,6,0,L|328:224,1,150,0|0,3:0|0:0,0:0:0:0:
200,256,162427,2,0,L|88:272,1,100,0|0,1:0|0:0,0:0:0:0:
236,153,162770,5,2,0:0:0:0:
339,211,162941,1,0,3:0:0:0:
268,307,163113,1,0,1:0:0:0:
256,144,163284,6,0,L|312:136,3,50,2|0|0|0,0:0|0:0|3:0|0:0,0:0:0:0:
168,80,163627,6,0,L|118:87,3,50,2|0|0|0,0:0|0:0|1:0|0:0,0:0:0:0:
336,32,163970,6,0,L|392:24,3,50,2|0|0|0,0:0|0:0|0:0|0:0,0:0:0:0:
264,88,164313,5,0,3:0:0:0:
385,164,164484,1,0,1:0:0:0:
225,203,164656,1,2,0:0:0:0:
296,168,164827,5,4,0:0:0:0:
328,264,164998,1,0,0:0:0:0:
424,296,165170,1,8,0:0:0:0:
248,144,165341,5,4,0:0:0:0:
352,237,165512,1,0,0:0:0:0:
491,206,165684,1,8,0:0:0:0:
208,144,165856,5,4,0:0:0:0:
496,32,166027,2,0,B|452:19|452:19|432:38|432:38|426:19|426:19|413:25|400:38|394:38|388:25|368:25|356:76|356:76|388:115|388:115|388:140|368:153,1,270.000010299683,2|0,0:0|0:0,0:0:0:0:
336,248,166884,5,0,3:0:0:0:
341,279,166970,1,0,0:0:0:0:
345,303,167056,1,0,3:0:0:0:
208,192,167227,6,0,L|224:264,1,50,0|0,3:0|0:0,0:0:0:0:
408,112,167398,6,0,L|392:184,1,50,0|0,3:0|0:0,0:0:0:0:
296,16,167570,6,0,L|304:176,1,150,4|0,0:0|0:0,0:0:0:0:
320,320,167913,2,0,P|311:289|292:277,1,50,0|0,1:0|0:0,0:0:0:0:
144,256,168084,2,0,P|208:256|184:184,1,150,2|0,0:0|0:0,0:0:0:0:
176,176,168427,1,0,3:0:0:0:
336,104,168598,6,0,L|340:203,1,100,0|2,1:0|0:0,0:0:0:0:
400,304,168941,6,0,L|392:144,1,150,0|0,3:0|0:0,0:0:0:0:
424,24,169284,2,0,P|415:54|396:66,1,50,0|0,1:0|0:0,0:0:0:0:
280,120,169456,2,0,P|257:97|257:74,1,50,2|0,0:0|0:0,0:0:0:0:
128,32,169627,6,0,L|72:40,3,50,2|0|0|0,0:0|0:0|3:0|0:0,0:0:0:0:
176,216,169970,6,0,L|232:224,3,50,0|0|0|0,1:0|0:0|0:0|0:0,0:0:0:0:
312,152,170313,5,0,3:0:0:0:
264,144,170398,1,0,0:0:0:0:
216,136,170484,2,0,L|64:120,1,150,2|0,0:0|0:0,0:0:0:0:
56,216,170827,2,0,L|160:226,1,100,2|0,0:0|0:0,0:0:0:0:
352,48,171170,2,0,L|247:37,1,100,2|0,0:0|0:0,0:0:0:0:
312,272,171513,2,0,L|411:261,1,100,2|0,0:0|0:0,0:0:0:0:
360,144,171856,2,0,L|132:168,1,200,2|0,0:0|0:0,0:0:0:0:
16,160,172370,5,2,0:0:0:0:
34,156,172455,1,0,0:0:0:0:
51,156,172541,1,0,0:0:0:0:
69,157,172627,1,0,0:0:0:0:
77,132,172712,5,2,0:0:0:0:
74,110,172798,1,0,0:0:0:0:
77,88,172884,1,0,0:0:0:0:
79,66,172970,1,0,0:0:0:0:
96,48,173056,6,0,L|152:40,1,50,4|0,0:0|0:0,0:0:0:0:
176,48,173227,5,2,0:0:0:0:
193,48,173313,1,0,0:0:0:0:
204,42,173398,1,0,0:0:0:0:
222,42,173484,1,0,0:0:0:0:
256,32,173570,6,0,B|288:48|288:48|328:40|328:40|360:56|408:56,1,150,4|0,0:0|0:0,0:0:0:0:
432,40,173913,2,0,L|440:104,3,50
384,224,174256,6,0,B|408:208|408:208|424:232|424:232|464:232|464:232|472:240|472:272|472:272|448:256,1,150.000005722046,4|0,0:0|0:0,0:0:0:0:
208,240,174770,2,0,L|216:184,1,50,0|0,3:0|0:0,0:0:0:0:
128,328,174941,2,0,B|107:255|107:255|117:213|117:213|107:182|107:182|117:120,1,200,2|0,3:0|0:0,0:0:0:0:
216,40,175456,6,0,L|264:144,1,100,0|0,1:0|0:0,0:0:0:0:
376,144,175798,6,0,B|369:112|369:112|408:129|408:129|449:89|449:89|481:135,1,150,2|0,3:0|0:0,0:0:0:0:
347,253,176141,6,0,B|384:281|384:281|395:233|395:233|446:251|446:251|440:221,1,167.999994873047,2|0,3:0|0:0,0:0:0:0:
194,203,176484,6,0,B|187:171|187:171|244:199|244:199|267:148|267:148|304:191,1,186.000001419067,2|0,3:0|0:0,0:0:0:0:
107,346,176827,6,0,B|135:379|135:379|151:325|151:325|216:355|216:355|209:324,1,204.000003890991,2|0,3:0|0:0,0:0:0:0:
209,323,177170,5,0,3:0:0:0:
343,311,177341,1,0,3:0:0:0:
407,247,177513,5,0,3:0:0:0:
247,199,177684,1,0,3:0:0:0:
191,127,177856,5,0,3:0:0:0:
424,64,178027,1,0,3:0:0:0:
224,32,178198,6,0,L|296:24,1,68.0000012969971,0|0,1:0|0:0,0:0:0:0:
352,128,178370,2,0,L|285:120,1,68.0000012969971,2|0,0:0|0:0,0:0:0:0:
88,96,178541,1,10,0:0:0:0:
88,96,179056,5,0,0:0:0:0:
88,96,179141,2,0,B|107:83|107:83|126:108|126:108|132:76|132:76|145:128,1,120.000004577637
160,304,179570,6,0,P|216:312|144:256,1,240,8|0,0:0|0:0,0:0:0:0:
48,288,179913,6,0,B|80:272|80:272|128:288|128:288|192:272|192:272|272:272,1,223.999993164063,4|0,0:0|1:0,0:0:0:0:
488,192,180427,2,0,L|312:184,1,167.999994873047,2|0,0:0|0:0,0:0:0:0:
304,200,180770,1,0,3:0:0:0:
200,240,180941,1,0,1:0:0:0:
88,216,181113,5,2,0:0:0:0:
56,200,181198,1,0,0:0:0:0:
48,160,181284,6,0,L|64:336,1,167.999994873047,0|0,3:0|0:0,0:0:0:0:
40,336,181627,1,0,1:0:0:0:
168,184,181798,1,2,0:0:0:0:
256,344,181970,6,0,B|242:303|242:303|242:269|242:269|231:236,1,111.999996582031,2|0,0:0|3:0,0:0:0:0:
288,160,182227,5,2,0:0:0:0:
304,152,182313,2,0,L|320:80,1,55.9999982910157,0|0,1:0|0:0,0:0:0:0:
400,32,182484,2,0,L|440:72,1,55.9999982910157,2|0,0:0|0:0,0:0:0:0:
504,152,182656,5,0,3:0:0:0:
376,256,182827,1,0,0:0:0:0:
368,128,182998,1,0,1:0:0:0:
472,184,183170,6,0,L|288:168,1,167.999994873047,2|0,0:0|0:0,0:0:0:0:
273,174,183513,5,0,3:0:0:0:
361,139,183684,1,0,1:0:0:0:
352,42,183856,1,2,0:0:0:0:
264,183,184027,5,0,3:0:0:0:
339,126,184198,1,2,0:0:0:0:
344,24,184370,2,0,B|282:15|282:15|256:33|256:33|220:24|220:24|176:24|159:33,1,167.999994873047,0|0,1:0|0:0,0:0:0:0:
64,56,184713,6,0,L|78:167,1,111.999996582031,2|0,0:0|3:0,0:0:0:0:
160,256,184970,1,0,0:0:0:0:
160,256,185056,6,0,L|168:201,1,55.9999982910157,0|0,1:0|0:0,0:0:0:0:
88,328,185227,1,2,0:0:0:0:
176,104,185398,6,0,B|204:31|204:31|233:60|233:60|290:16|362:45,1,223.999993164063,0|0,3:0|1:0,0:0:0:0:
376,336,185913,6,0,P|408:288|320:256,1,167.999994873047,2|0,0:0|0:0,0:0:0:0:
328,272,186256,1,0,3:0:0:0:
440,80,186427,1,0,1:0:0:0:
448,168,186598,6,0,B|416:176|384:152|384:152|344:184|280:168,1,167.999994873047,2|0,0:0|0:0,0:0:0:0:
224,120,186941,6,0,P|280:88|344:104,1,111.999996582031,2|0,0:0|0:0,0:0:0:0:
256,280,187284,6,0,P|191:279|144:233,1,95.9999970703126,2|0,0:0|0:0,0:0:0:0:
152,168,187627,6,0,P|196:183|226:220,1,80,2|0,0:0|0:0,0:0:0:0:
80,224,187970,6,0,P|68:212|68:196,1,32,2|0,0:0|0:0,0:0:0:0:
96,96,188141,6,0,B|120:72|120:72|184:56|240:120|256:136,1,167.999994873047,0|0,3:0|0:0,0:0:0:0:
320,192,188484,2,0,P|360:192|376:176,1,55.9999982910157,0|0,1:0|0:0,0:0:0:0:
512,168,188656,2,0,B|464:152|464:152|432:200|472:296,1,167.999994873047,2|0,0:0|0:0,0:0:0:0:
472,288,188998,1,0,3:0:0:0:
408,104,189170,1,0,0:0:0:0:
336,336,189341,5,4,0:0:0:0:
328,312,189684,1,0,1:0:0:0:
320,288,190027,1,0,1:0:0:0:
224,272,190198,5,0,1:0:0:0:
400,200,190370,1,2,0:0:0:0:
104,240,190541,1,0,1:0:0:0:
208,120,190713,1,0,3:0:0:0:
229,106,190798,1,0,3:0:0:0:
240,80,190884,6,0,B|280:104|280:104|304:72|304:72|344:120|384:128|432:96,1,223.999993164063,4|0,0:0|1:0,0:0:0:0:
288,296,191398,2,0,B|243:284|216:328|216:328|176:296|120:312,1,167.999994873047,2|0,0:0|0:0,0:0:0:0:
128,320,191741,1,0,3:0:0:0:
48,152,191913,1,0,1:0:0:0:
88,48,192084,6,0,L|120:216,1,167.999994873047,2|0,0:0|0:0,0:0:0:0:
144,224,192427,2,0,P|216:224|216:272,1,111.999996582031,2|0,0:0|1:0,0:0:0:0:
216,336,192770,1,2,0:0:0:0:
360,280,192941,6,0,B|344:248|344:248|352:224|352:224|344:160,1,111.999996582031,2|0,0:0|3:0,0:0:0:0:
336,32,193198,1,2,0:0:0:0:
336,32,193284,2,0,P|344:64|360:80,1,55.9999982910157,0|0,1:0|0:0,0:0:0:0:
440,144,193456,2,0,P|445:116|436:90,1,55.9999982910157,2|0,0:0|0:0,0:0:0:0:
376,160,193627,5,0,3:0:0:0:
288,208,193798,1,2,0:0:0:0:
392,264,193970,1,0,1:0:0:0:
400,160,194141,6,0,L|224:144,1,167.999994873047,2|0,0:0|0:0,0:0:0:0:
200,64,194484,5,0,3:0:0:0:
120,104,194656,1,0,1:0:0:0:
144,192,194827,1,2,0:0:0:0:
168,72,194998,5,0,3:0:0:0:
168,184,195170,1,2,0:0:0:0:
264,248,195341,2,0,B|258:202|258:202|266:162|266:162|250:58,1,167.999994873047,0|0,3:0|0:0,0:0:0:0:
336,8,195684,6,0,L|352:120,1,111.999996582031,2|0,0:0|3:0,0:0:0:0:
376,280,195941,1,2,0:0:0:0:
376,280,196027,2,0,B|376:240|376:240|408:224,1,55.9999982910157,0|0,1:0|0:0,0:0:0:0:
480,288,196198,2,0,B|460:322|460:322|424:320,1,55.9999982910157,2|0,0:0|0:0,0:0:0:0:
336,288,196370,6,0,B|312:240|256:280|256:280|272:336|272:336|184:312,1,200,4|0,0:0|0:0,0:0:0:0:
64,216,196884,6,0,B|64:176|64:176|40:168|40:168|64:144|64:144|64:112|56:72|120:96,1,184.000003509522,4|0,0:0|0:0,0:0:0:0:
328,112,197398,2,0,L|384:104,1,46.0000008773804,0|0,3:0|0:0,0:0:0:0:
416,112,197570,2,0,B|473:112|473:112|466:76|408:61|372:112|444:169,1,200,4|0,0:0|0:0,0:0:0:0:
368,312,198084,6,0,L|304:304,1,40,0|0,3:0|0:0,0:0:0:0:
288,280,198256,2,0,B|272:200|272:200|280:208|320:184|376:200,1,170.000003242493,4|0,0:0|0:0,0:0:0:0:
232,64,198770,6,0,L|128:48,1,90.0000034332277,0|0,1:0|0:0,0:0:0:0:
240,160,199113,6,0,P|288:160|328:120,1,80,0|0,3:0|0:0,0:0:0:0:
152,216,199456,6,0,P|185:249|242:249,1,95.9999970703126,0|0,3:0|0:0,0:0:0:0:
40,240,199798,6,0,P|40:294|85:340,1,111.999996582031,0|0,3:0|0:0,0:0:0:0:
56,56,200141,5,0,3:0:0:0:
56,248,200313,1,4,0:0:0:0:
72,256,200656,5,0,1:0:0:0:
168,8,200827,2,0,L|184:120,1,90.0000034332277,0|0,3:0|0:0,0:0:0:0:
192,176,201170,5,2,3:0:0:0:
192,212,201255,1,2,3:0:0:0:
187,246,201341,1,2,3:0:0:0:
198,276,201427,1,2,3:0:0:0:
232,296,201513,6,0,B|232:232|296:216|296:216|312:264|312:264|328:272|328:272|312:304|312:304|312:328,1,240.000009155274,0|2,1:0|0:0,0:0:0:0:
256,192,201941,12,0,204513,0:0:0:0:
