osu file format v12

[General]
AudioFilename: Take Your Way.mp3
AudioLeadIn: 2000
PreviewTime: 50204
Countdown: 0
SampleSet: Soft
StackLeniency: 0.3
Mode: 0
LetterboxInBreaks: 0

[Editor]
DistanceSpacing: 1.5
BeatDivisor: 4
GridSize: 8

[Metadata]
Title:Take Your Way (TV Size)
TitleUnicode:Take Your Way (TV Size)
Artist:livetune adding Fukase(from SEKAI NO OWARI)
ArtistUnicode:livetune adding Fukase(from SEKAI NO OWARI)
Creator:No_Gu
Version:Normal
Source:DEVIL SURVIVOR2 the ANIMATION
Tags:デビルサバイバー2 kz Fumika Netsukawa
BeatmapID:240235
BeatmapSetID:87171

[Difficulty]
HPDrainRate:4
CircleSize:3
OverallDifficulty:3
ApproachRate:5
SliderMultiplier:1.12
SliderTickRate:1

[Events]
//Background and Video events
0,0,"bg.jpg",0,0
Video,224,"video.flv"
//Break Periods
2,21746,34675
//Storyboard Layer 0 (Background)
//Storyboard Layer 1 (Fail)
//Storyboard Layer 2 (Pass)
//Storyboard Layer 3 (Foreground)
//Storyboard Sound Samples
//Background Colour Transformations
3,100,163,162,255

[TimingPoints]
55,447.761194029851,4,2,1,50,1,0
55,-100,4,2,1,30,0,0
1846,-100,4,2,1,30,0,0
3637,-100,4,2,1,30,0,0
5428,-100,4,2,1,50,0,0
7219,-100,4,1,1,50,0,0
7331,-100,4,2,1,50,0,0
7666,-100,4,1,1,50,0,0
7778,-100,4,2,1,50,0,0
8114,-100,4,1,1,50,0,0
8226,-100,4,2,1,50,0,0
8562,-100,4,1,1,50,0,0
8674,-100,4,2,1,50,0,0
9010,-100,4,1,1,50,0,0
9122,-100,4,2,1,50,0,0
9457,-100,4,1,1,50,0,0
9569,-100,4,2,1,50,0,0
9905,-100,4,1,1,50,0,0
10017,-100,4,2,1,50,0,0
10353,-100,4,1,1,50,0,0
10465,-100,4,2,1,50,0,0
10801,-100,4,1,1,50,0,0
10913,-100,4,2,1,50,0,0
11248,-100,4,1,1,50,0,0
11360,-100,4,2,1,50,0,0
11696,-100,4,1,1,50,0,0
11808,-100,4,2,1,50,0,0
12144,-100,4,1,1,50,0,0
12256,-100,4,2,1,50,0,0
12592,-100,4,1,1,50,0,0
12704,-100,4,2,1,50,0,0
13039,-100,4,1,1,50,0,0
13151,-100,4,2,1,50,0,0
13487,-100,4,1,1,50,0,0
13599,-100,4,2,1,50,0,0
13935,-100,4,1,1,50,0,0
14047,-100,4,2,1,50,0,0
14383,-100,4,1,1,50,0,0
14495,-100,4,2,1,50,0,0
14830,-100,4,1,1,50,0,0
14942,-100,4,2,1,50,0,0
15278,-100,4,1,1,50,0,0
15390,-100,4,2,1,50,0,0
15726,-100,4,1,1,50,0,0
15838,-100,4,2,1,50,0,0
16174,-100,4,1,1,50,0,0
16286,-100,4,2,1,50,0,0
16621,-100,4,1,1,50,0,0
16733,-100,4,2,1,50,0,0
17069,-100,4,1,1,50,0,0
17181,-100,4,2,1,50,0,0
17517,-100,4,1,1,50,0,0
17629,-100,4,2,1,50,0,0
17965,-100,4,1,1,50,0,0
18077,-100,4,2,1,50,0,0
18412,-100,4,1,1,50,0,0
18524,-100,4,2,1,50,0,0
18860,-100,4,1,1,50,0,0
18972,-100,4,2,1,50,0,0
19308,-100,4,1,1,50,0,0
19420,-100,4,2,1,50,0,0
19756,-100,4,1,1,50,0,0
19868,-100,4,2,1,50,0,0
20203,-100,4,1,1,50,0,0
20315,-100,4,2,1,50,0,0
20651,-100,4,1,1,50,0,0
21323,-100,4,2,1,50,0,0
36099,-100,4,2,2,70,0,0
37107,-100,4,2,1,70,0,0
37219,-100,4,2,2,70,0,0
38786,-100,4,2,1,70,0,0
38898,-100,4,2,2,70,0,0
40689,-100,4,2,1,70,0,0
40801,-100,4,2,2,70,0,0
42592,-100,4,2,1,70,0,0
42928,-100,4,2,2,60,0,0
44271,-100,4,2,1,60,0,0
44383,-100,4,2,2,60,0,0
45950,-100,4,2,1,60,0,0
46062,-100,4,2,2,60,0,0
47853,-100,4,2,1,60,0,0
47965,-100,4,2,2,60,0,0
48077,-100,4,2,2,30,0,0
48189,-100,4,2,2,60,0,0
49308,-100,4,2,2,5,0,0
50204,-100,4,1,1,70,0,1
50316,-100,4,2,1,70,0,1
50651,-100,4,1,1,70,0,1
50763,-100,4,2,1,70,0,1
51099,-100,4,1,1,70,0,1
51211,-100,4,2,1,70,0,1
51547,-100,4,1,1,70,0,1
51659,-100,4,2,1,70,0,1
51995,-100,4,1,1,70,0,1
52107,-100,4,2,1,70,0,1
52442,-100,4,1,1,70,0,1
52554,-100,4,2,1,70,0,1
52890,-100,4,1,1,70,0,1
53002,-100,4,2,1,70,0,1
53338,-100,4,1,1,70,0,1
53450,-100,4,2,1,70,0,1
53786,-100,4,1,1,70,0,1
53898,-100,4,2,1,70,0,1
54233,-100,4,1,1,70,0,1
54345,-100,4,2,1,70,0,1
54681,-100,4,1,1,70,0,1
54793,-100,4,2,1,70,0,1
55129,-100,4,1,1,70,0,1
55241,-100,4,2,1,70,0,1
55577,-100,4,1,1,70,0,1
55689,-100,4,2,1,70,0,1
56024,-100,4,1,1,70,0,1
56136,-100,4,2,1,70,0,1
56472,-100,4,1,1,70,0,1
56584,-100,4,2,1,70,0,1
56920,-100,4,1,1,70,0,1
57032,-100,4,2,1,70,0,1
57368,-100,4,1,1,70,0,1
57480,-100,4,2,1,70,0,1
57815,-100,4,1,1,70,0,1
57927,-100,4,2,1,70,0,1
58263,-100,4,1,1,70,0,1
58375,-100,4,2,1,70,0,1
58711,-100,4,1,1,70,0,1
58823,-100,4,2,1,70,0,1
59159,-100,4,1,1,70,0,1
59271,-100,4,2,1,70,0,1
59606,-100,4,1,1,70,0,1
59718,-100,4,2,1,70,0,1
60054,-100,4,1,1,70,0,1
60166,-100,4,2,1,70,0,1
60502,-100,4,1,1,70,0,1
60614,-100,4,2,1,70,0,1
60950,-100,4,1,1,70,0,1
61062,-100,4,2,1,70,0,1
61397,-100,4,1,1,70,0,1
61509,-100,4,2,1,70,0,1
61845,-100,4,1,1,70,0,1
61957,-100,4,2,1,70,0,1
62293,-100,4,1,1,70,0,1
62405,-100,4,2,1,70,0,1
62741,-100,4,1,1,30,0,1
64084,-100,4,1,1,70,0,1
64196,-100,4,2,1,70,0,1
64420,-100,4,2,1,70,0,0
64532,-100,4,1,1,70,0,1
64644,-100,4,2,1,70,0,1
64979,-100,4,1,1,70,0,1
65091,-100,4,2,1,70,0,1
65427,-100,4,1,1,70,0,1
65539,-100,4,2,1,70,0,1
65875,-100,4,1,1,70,0,1
65987,-100,4,2,1,70,0,1
66323,-100,4,1,1,70,0,1
66435,-100,4,2,1,70,0,1
66770,-100,4,1,1,70,0,1
66882,-100,4,2,1,70,0,1
67218,-100,4,1,1,70,0,1
67330,-100,4,2,1,70,0,1
67666,-100,4,1,1,70,0,1
67778,-100,4,2,1,70,0,1
68114,-100,4,1,1,70,0,1
68226,-100,4,2,1,70,0,1
68561,-100,4,1,1,70,0,1
68673,-100,4,2,1,70,0,1
69009,-100,4,1,1,70,0,1
69121,-100,4,2,1,70,0,1
69457,-100,4,1,1,70,0,1
69569,-100,4,2,1,70,0,1
69905,-100,4,1,1,70,0,1
70017,-100,4,2,1,70,0,1
70352,-100,4,1,1,70,0,1
70464,-100,4,2,1,70,0,1
70800,-100,4,1,1,70,0,1
70912,-100,4,2,1,70,0,1
71248,-100,4,1,1,70,0,1
71360,-100,4,2,1,70,0,1
71696,-100,4,1,1,70,0,1
71808,-100,4,2,1,70,0,1
72143,-100,4,1,1,70,0,1
72255,-100,4,2,1,70,0,1
72591,-100,4,1,1,70,0,1
72703,-100,4,2,1,70,0,1
73039,-100,4,1,1,70,0,1
73151,-100,4,2,1,70,0,1
73487,-100,4,1,1,70,0,1
73599,-100,4,2,1,70,0,1
73934,-100,4,1,1,70,0,1
74046,-100,4,2,1,70,0,1
74382,-100,4,1,1,70,0,1
74494,-100,4,2,1,70,0,1
74830,-100,4,1,1,70,0,1
74942,-100,4,2,1,70,0,1
75278,-100,4,1,1,70,0,1
75390,-100,4,2,1,70,0,1
75725,-100,4,1,1,70,0,1
75837,-100,4,2,1,70,0,1
76173,-100,4,1,1,70,0,1
76285,-100,4,2,1,70,0,1
76621,-100,4,1,1,70,0,1
76733,-100,4,2,1,70,0,1
77069,-100,4,1,1,70,0,1
77181,-100,4,2,1,70,0,1
77516,-100,4,1,1,70,0,1
77628,-100,4,2,1,70,0,1
77964,-100,4,1,1,70,0,1
78076,-100,4,2,1,70,0,1
78412,-100,4,1,1,70,0,1
78524,-100,4,2,1,70,0,1
78860,-100,4,1,1,70,0,1
78972,-100,4,2,1,70,0,1
79308,-100,4,1,1,70,0,1
79420,-100,4,2,1,70,0,1
79756,-100,4,1,1,70,0,1
79868,-100,4,2,1,70,0,1
80204,-100,4,1,1,70,0,1
80316,-100,4,2,1,70,0,1
80652,-100,4,1,1,50,0,0
81323,-100,4,1,1,25,0,0
81435,-100,4,1,1,50,0,0
81659,-100,4,1,1,25,0,0
81771,-100,4,1,1,50,0,0
81883,-100,4,1,1,15,0,0
81995,-100,4,1,1,50,0,0
82443,-100,4,1,1,70,0,1
82555,-100,4,2,1,5,0,0
86025,-100,4,2,1,50,0,0

[Colours]
Combo1 : 255,128,128
Combo2 : 255,255,128
Combo3 : 128,255,255
Combo4 : 128,255,128

[HitObjects]
192,136,55,2,0,P|152:120|96:128,4,84,2|0|2|0|2,0:0|0:0|0:0|0:0|0:0,0:0:0:0:
256,192,1622,1,2,0:0:0:0:
336,164,1846,2,0,P|370:137|391:85,4,84,2|0|2|0|2,0:0|0:0|0:0|0:0|0:0,0:0:0:0:
256,192,3413,1,2,0:0:0:0:
239,275,3637,6,0,P|245:318|280:362,4,84,2|0|2|0|2,0:0|0:0|0:0|0:0|0:0,0:0:0:0:
256,192,5204,1,2,0:0:0:0:
192,136,5428,2,0,L|104:144,4,84,2|0|2|0|2,1:0|1:0|1:0|0:0|0:0,0:0:0:0:
264,96,6995,1,10,0:0:0:0:
304,24,7219,5,6,0:0:0:0:
392,168,7666,1,0,0:0:0:0:
264,280,8114,2,0,P|208:256|160:264,1,112
16,304,9010,2,0,P|64:267|81:221,1,112,2|0,0:0|0:0,0:0:0:0:
96,56,9905,2,0,P|103:116|134:154,1,112,2|2,0:0|0:0,0:0:0:0:
208,112,10577,1,0,0:0:0:0:
280,160,10801,6,0,L|408:152,1,112,2|0,0:0|0:0,0:0:0:0:
480,296,11696,2,0,L|352:304,1,112,2|0,0:0|0:0,0:0:0:0:
200,296,12592,1,2,0:0:0:0:
36,242,13040,1,0,0:0:0:0:
36,70,13487,1,2,0:0:0:0:
200,18,13935,1,2,0:0:0:0:
299,157,14383,6,0,P|312:103|312:34,1,112,2|0,0:0|0:0,0:0:0:0:
160,120,15278,2,0,P|111:108|47:108,1,112,2|0,0:0|0:0,0:0:0:0:
136,256,16174,2,0,P|124:305|124:369,1,112,2|0,0:0|0:0,0:0:0:0:
280,296,17069,2,0,P|329:308|393:308,1,112,2|0,0:0|0:0,0:0:0:0:
464,160,17965,6,0,P|376:136|328:192,1,168,2|2,0:0|0:0,0:0:0:0:
264,240,18860,2,0,L|136:232,1,112,2|0,0:0|0:0,0:0:0:0:
32,120,19756,2,0,P|24:80|24:16,2,84,0|8|0,0:0|0:0|0:0,0:0:0:0:
96,176,20652,1,0,0:0:0:0:
160,120,20875,2,0,P|240:96|312:144,1,168,0|4,0:0|0:1,0:0:0:0:
96,80,35875,6,0,L|8:88,2,84,0|8|0,1:0|0:0|1:0,0:0:0:0:
168,128,36771,1,0,0:0:0:0:
248,160,36995,2,0,L|292:156,2,28,0|8|8,0:0|0:0|0:0,0:0:0:0:
384,256,37666,2,0,P|440:240|488:248,2,84,2|8|2,1:0|0:0|1:0,0:0:0:0:
248,352,38786,2,0,P|192:368|144:360,2,84,8|0|2,1:2|1:0|1:0,0:0:0:0:
272,272,39681,6,0,L|256:232,2,28,0|8|0,0:0|0:0|0:0,0:0:0:0:
328,336,40129,1,0,1:0:0:0:
368,176,40577,2,0,L|384:136,2,28,0|8|8,0:0|0:0|0:0,0:0:0:0:
304,232,41025,1,2,0:0:0:0:
232,192,41249,2,0,P|168:176|136:184,2,84,2|8|0,1:0|0:0|1:0,0:0:0:0:
88,112,42368,1,0,1:0:0:0:
64,192,42592,2,0,L|48:256,1,56,8|8,0:0|0:0,0:0:0:0:
88,320,43040,6,0,P|144:336|184:328,2,84,2|8|2,1:0|0:0|1:0,0:0:0:0:
32,160,44159,2,0,L|-8:152,2,28,0|8|8,0:0|0:0|0:0,0:0:0:0:
184,96,44831,2,0,P|200:56|192:8,2,84,2|8|2,1:0|0:0|1:0,0:0:0:0:
312,200,45950,2,0,L|400:192,2,84,0|0|0,1:0|1:0|1:0,0:0:0:0:
240,240,46846,6,0,L|196:236,2,28,0|8|0,0:0|0:0|0:0,0:0:0:0:
312,288,47293,1,0,1:0:0:0:
240,136,47741,2,0,L|248:88,2,28,0|8|8,0:0|0:0|0:0,0:0:0:0:
256,192,48189,12,0,49308,0:0:0:0:
448,112,50204,5,6,0:0:0:0:
376,72,50428,2,0,L|304:80,2,56
448,112,51099,2,0,P|472:168|456:232,1,112
392,264,51771,1,0,0:0:0:0:
320,224,51995,2,0,P|248:208|208:232,1,112,2|0,0:0|0:0,0:0:0:0:
176,296,52666,1,0,0:0:0:0:
112,240,52890,2,0,P|56:224|0:232,2,112,2|2|2,0:0|0:0|0:0,0:0:0:0:
176,184,54010,6,0,P|184:160|184:128,1,56
200,48,54457,1,0,0:0:0:0:
264,104,54681,2,0,P|272:160|248:232,1,112
328,264,55353,1,0,0:0:0:0:
400,224,55577,2,0,L|512:232,1,112
400,360,56472,2,0,L|288:352,1,112
160,240,57368,6,0,P|120:168|144:80,1,168,2|2,0:0|0:0,0:0:0:0:
208,40,58263,2,0,L|376:48,1,168,0|2,0:0|0:0,0:0:0:0:
440,104,59159,2,0,P|464:152|456:216,2,112,0|0|2,0:0|0:0|0:0,0:0:0:0:
312,216,60502,1,0,0:0:0:0:
256,56,60950,5,0,0:0:0:0:
200,216,61398,2,0,L|136:208,1,56,0|2,0:0|0:0,0:0:0:0:
80,264,61846,2,0,P|120:296|192:296,1,112
288,168,62741,2,0,L|280:208,12,28,4|0|0|8|4|0|0|0|0|8|0|0|8,0:3|0:0|0:0|0:2|0:3|0:0|0:0|0:0|0:3|0:2|0:0|0:0|0:2,0:0:0:0:
424,64,64532,5,4,0:0:0:0:
464,136,64756,2,0,L|456:200,1,56
408,264,65204,1,0,0:0:0:0:
344,312,65428,2,0,P|288:320|224:296,1,112
184,240,66099,1,0,0:0:0:0:
168,160,66323,2,0,L|184:48,1,112,2|0,0:0|0:0,0:0:0:0:
264,24,66995,1,0,0:0:0:0:
336,72,67219,2,0,P|392:72|448:64,2,112,2|2|2,0:0|0:0|0:0,0:0:0:0:
280,136,68338,6,0,L|272:192,1,56
224,256,68786,1,2,0:0:0:0:
144,280,69010,2,0,P|88:272|48:208,1,112,2|0,0:0|0:0,0:0:0:0:
56,144,69681,1,0,0:0:0:0:
104,72,69905,2,0,L|160:56,1,56,2|0,0:0|0:0,0:0:0:0:
232,96,70353,2,0,L|288:80,1,56
360,112,70801,2,0,L|472:80,2,112,2|2|2,0:0|0:0|0:0,0:0:0:0:
256,240,72144,5,0,0:0:0:0:
176,240,72368,1,0,0:0:0:0:
120,176,72592,2,0,B|104:128|104:128|96:56|160:32,1,168
184,112,73487,2,0,P|256:151|327:111,1,168,2|0,0:0|0:0,0:0:0:0:
355,33,74383,2,0,B|416:56|408:128|408:128|392:176,1,168
352,248,75278,5,2,0:0:0:0:
208,336,75726,2,0,L|144:328,1,56,0|2,0:0|0:0,0:0:0:0:
88,272,76174,2,0,P|56:216|72:152,1,112
168,40,77069,2,0,P|200:96|184:160,1,112
248,208,77741,1,2,0:0:0:0:
328,176,77965,2,0,L|448:192,1,112
464,360,78860,6,0,L|344:344,1,112,2|0,0:0|0:0,0:0:0:0:
208,264,79756,2,0,L|88:248,1,112,0|0,0:0|0:0,0:0:0:0:
16,96,80652,2,0,L|8:64,16,28,0|0|0|0|0|0|4|0|0|4|0|4|0|0|0|0|4,0:0|0:0|0:0|0:0|0:0|0:0|0:3|0:0|0:0|0:3|0:0|0:3|0:0|0:0|0:0|0:0|0:0,0:0:0:0:
256,192,82555,12,2,86025,0:0:0:0:
