osu file format v12

[General]
AudioFilename: Take Your Way.mp3
AudioLeadIn: 2000
PreviewTime: 50204
Countdown: 0
SampleSet: Soft
StackLeniency: 0.3
Mode: 0
LetterboxInBreaks: 0

[Editor]
DistanceSpacing: 0.5
BeatDivisor: 4
GridSize: 8

[Metadata]
Title:Take Your Way (TV Size)
TitleUnicode:Take Your Way (TV Size)
Artist:livetune adding Fukase(from SEKAI NO OWARI)
ArtistUnicode:livetune adding Fukase(from SEKAI NO OWARI)
Creator:No_Gu
Version:Insane
Source:DEVIL SURVIVOR2 the ANIMATION
Tags:デビルサバイバー2 kz Fumika Netsukawa
BeatmapID:238217
BeatmapSetID:87171

[Difficulty]
HPDrainRate:7
CircleSize:4
OverallDifficulty:7
ApproachRate:8
SliderMultiplier:1.6
SliderTickRate:1

[Events]
//Background and Video events
0,0,"bg.jpg",0,0
Video,224,"video.flv"
//Break Periods
//Storyboard Layer 0 (Background)
//Storyboard Layer 1 (Fail)
//Storyboard Layer 2 (Pass)
//Storyboard Layer 3 (Foreground)
//Storyboard Sound Samples
//Background Colour Transformations
3,100,163,162,255

[TimingPoints]
55,447.761194029851,4,2,1,50,1,0
55,-133.333333333333,4,2,1,30,0,0
1846,-105.263157894737,4,2,1,30,0,0
3637,-86.9565217391304,4,2,1,30,0,0
5428,-74.0740740740741,4,2,1,50,0,0
7219,-90.9090909090909,4,1,1,50,0,0
7331,-90.9090909090909,4,2,1,50,0,0
7666,-90.9090909090909,4,1,1,50,0,0
7778,-90.9090909090909,4,2,1,50,0,0
8114,-90.9090909090909,4,1,1,50,0,0
8226,-90.9090909090909,4,2,1,50,0,0
8562,-90.9090909090909,4,1,1,50,0,0
8674,-90.9090909090909,4,2,1,50,0,0
9010,-90.9090909090909,4,1,1,50,0,0
9122,-90.9090909090909,4,2,1,50,0,0
9457,-90.9090909090909,4,1,1,50,0,0
9569,-90.9090909090909,4,2,1,50,0,0
9905,-90.9090909090909,4,1,1,50,0,0
10017,-90.9090909090909,4,2,1,50,0,0
10353,-90.9090909090909,4,1,1,50,0,0
10465,-90.9090909090909,4,2,1,50,0,0
10801,-90.9090909090909,4,1,1,50,0,0
10913,-90.9090909090909,4,2,1,50,0,0
11248,-90.9090909090909,4,1,1,50,0,0
11360,-90.9090909090909,4,2,1,50,0,0
11696,-90.9090909090909,4,1,1,50,0,0
11808,-90.9090909090909,4,2,1,50,0,0
12144,-90.9090909090909,4,1,1,50,0,0
12256,-90.9090909090909,4,2,1,50,0,0
12592,-90.9090909090909,4,1,1,50,0,0
12704,-90.9090909090909,4,2,1,50,0,0
13039,-90.9090909090909,4,1,1,50,0,0
13151,-90.9090909090909,4,2,1,50,0,0
13487,-90.9090909090909,4,1,1,50,0,0
13599,-90.9090909090909,4,2,1,50,0,0
13935,-90.9090909090909,4,1,1,50,0,0
14047,-90.9090909090909,4,2,1,50,0,0
14383,-90.9090909090909,4,1,1,50,0,0
14495,-90.9090909090909,4,2,1,50,0,0
14830,-90.9090909090909,4,1,1,50,0,0
14942,-90.9090909090909,4,2,1,50,0,0
15278,-90.9090909090909,4,1,1,50,0,0
15390,-90.9090909090909,4,2,1,50,0,0
15726,-90.9090909090909,4,1,1,50,0,0
15838,-90.9090909090909,4,2,1,50,0,0
16174,-90.9090909090909,4,1,1,50,0,0
16286,-90.9090909090909,4,2,1,50,0,0
16621,-90.9090909090909,4,1,1,50,0,0
16733,-90.9090909090909,4,2,1,50,0,0
17069,-90.9090909090909,4,1,1,50,0,0
17181,-90.9090909090909,4,2,1,50,0,0
17517,-90.9090909090909,4,1,1,50,0,0
17629,-90.9090909090909,4,2,1,50,0,0
17965,-90.9090909090909,4,1,1,50,0,0
18077,-90.9090909090909,4,2,1,50,0,0
18412,-90.9090909090909,4,1,1,50,0,0
18524,-90.9090909090909,4,2,1,50,0,0
18860,-90.9090909090909,4,1,1,50,0,0
18972,-90.9090909090909,4,2,1,50,0,0
19308,-90.9090909090909,4,1,1,50,0,0
19420,-90.9090909090909,4,2,1,50,0,0
19756,-90.9090909090909,4,1,1,50,0,0
19868,-90.9090909090909,4,2,1,50,0,0
20203,-90.9090909090909,4,1,1,50,0,0
20315,-90.9090909090909,4,2,1,50,0,0
20651,-166.666666666667,4,1,1,50,0,0
21323,-166.666666666667,4,2,1,50,0,0
27368,-166.666666666667,4,2,1,30,0,0
27816,-166.666666666667,4,2,1,40,0,0
28263,-166.666666666667,4,2,1,50,0,0
36099,-90.9090909090909,4,2,2,70,0,0
37107,-90.9090909090909,4,2,1,70,0,0
37219,-90.9090909090909,4,2,2,70,0,0
38786,-90.9090909090909,4,2,1,70,0,0
38898,-90.9090909090909,4,2,2,70,0,0
40689,-90.9090909090909,4,2,1,70,0,0
40801,-90.9090909090909,4,2,2,70,0,0
42592,-90.9090909090909,4,2,1,70,0,0
42928,-90.9090909090909,4,2,2,60,0,0
44271,-90.9090909090909,4,2,1,60,0,0
44383,-90.9090909090909,4,2,2,60,0,0
45950,-90.9090909090909,4,2,1,60,0,0
46062,-90.9090909090909,4,2,2,60,0,0
47853,-90.9090909090909,4,2,1,60,0,0
47965,-90.9090909090909,4,2,2,60,0,0
48077,-90.9090909090909,4,2,2,30,0,0
48189,-90.9090909090909,4,2,2,60,0,0
49308,-90.9090909090909,4,2,2,5,0,0
50204,-90.9090909090909,4,1,1,70,0,1
50316,-90.9090909090909,4,2,1,70,0,1
50651,-90.9090909090909,4,1,1,70,0,1
50763,-90.9090909090909,4,2,1,70,0,1
51099,-90.9090909090909,4,1,1,70,0,1
51211,-90.9090909090909,4,2,1,70,0,1
51547,-90.9090909090909,4,1,1,70,0,1
51659,-90.9090909090909,4,2,1,70,0,1
51995,-90.9090909090909,4,1,1,70,0,1
52107,-90.9090909090909,4,2,1,70,0,1
52442,-90.9090909090909,4,1,1,70,0,1
52554,-90.9090909090909,4,2,1,70,0,1
52890,-90.9090909090909,4,1,1,70,0,1
53002,-90.9090909090909,4,2,1,70,0,1
53338,-90.9090909090909,4,1,1,70,0,1
53450,-90.9090909090909,4,2,1,70,0,1
53786,-90.9090909090909,4,1,1,70,0,1
53898,-90.9090909090909,4,2,1,70,0,1
54233,-90.9090909090909,4,1,1,70,0,1
54345,-90.9090909090909,4,2,1,70,0,1
54681,-90.9090909090909,4,1,1,70,0,1
54793,-90.9090909090909,4,2,1,70,0,1
55129,-90.9090909090909,4,1,1,70,0,1
55241,-90.9090909090909,4,2,1,70,0,1
55577,-90.9090909090909,4,1,1,70,0,1
55689,-90.9090909090909,4,2,1,70,0,1
56024,-90.9090909090909,4,1,1,70,0,1
56136,-90.9090909090909,4,2,1,70,0,1
56472,-90.9090909090909,4,1,1,70,0,1
56584,-90.9090909090909,4,2,1,70,0,1
56920,-90.9090909090909,4,1,1,70,0,1
57032,-90.9090909090909,4,2,1,70,0,1
57368,-90.9090909090909,4,1,1,70,0,1
57480,-90.9090909090909,4,2,1,70,0,1
57815,-90.9090909090909,4,1,1,70,0,1
57927,-90.9090909090909,4,2,1,70,0,1
58263,-90.9090909090909,4,1,1,70,0,1
58375,-90.9090909090909,4,2,1,70,0,1
58711,-90.9090909090909,4,1,1,70,0,1
58823,-90.9090909090909,4,2,1,70,0,1
59159,-90.9090909090909,4,1,1,70,0,1
59271,-90.9090909090909,4,2,1,70,0,1
59606,-90.9090909090909,4,1,1,70,0,1
59718,-90.9090909090909,4,2,1,70,0,1
60054,-90.9090909090909,4,1,1,70,0,1
60166,-90.9090909090909,4,2,1,70,0,1
60502,-90.9090909090909,4,1,1,70,0,1
60614,-90.9090909090909,4,2,1,70,0,1
60950,-90.9090909090909,4,1,1,70,0,1
61062,-90.9090909090909,4,2,1,70,0,1
61397,-90.9090909090909,4,1,1,70,0,1
61509,-90.9090909090909,4,2,1,70,0,1
61845,-90.9090909090909,4,1,1,70,0,1
61957,-90.9090909090909,4,2,1,70,0,1
62293,-90.9090909090909,4,1,1,70,0,1
62405,-90.9090909090909,4,2,1,70,0,1
62741,-90.9090909090909,4,1,1,30,0,1
64084,-90.9090909090909,4,1,1,70,0,1
64196,-90.9090909090909,4,2,1,70,0,1
64420,-90.9090909090909,4,2,1,70,0,0
64532,-90.9090909090909,4,1,1,70,0,1
64644,-90.9090909090909,4,2,1,70,0,1
64979,-90.9090909090909,4,1,1,70,0,1
65091,-90.9090909090909,4,2,1,70,0,1
65427,-90.9090909090909,4,1,1,70,0,1
65539,-90.9090909090909,4,2,1,70,0,1
65875,-90.9090909090909,4,1,1,70,0,1
65987,-90.9090909090909,4,2,1,70,0,1
66323,-90.9090909090909,4,1,1,70,0,1
66435,-90.9090909090909,4,2,1,70,0,1
66770,-90.9090909090909,4,1,1,70,0,1
66882,-90.9090909090909,4,2,1,70,0,1
67218,-90.9090909090909,4,1,1,70,0,1
67330,-90.9090909090909,4,2,1,70,0,1
67666,-90.9090909090909,4,1,1,70,0,1
67778,-90.9090909090909,4,2,1,70,0,1
68114,-90.9090909090909,4,1,1,70,0,1
68226,-90.9090909090909,4,2,1,70,0,1
68561,-90.9090909090909,4,1,1,70,0,1
68673,-90.9090909090909,4,2,1,70,0,1
69009,-90.9090909090909,4,1,1,70,0,1
69121,-90.9090909090909,4,2,1,70,0,1
69457,-90.9090909090909,4,1,1,70,0,1
69569,-90.9090909090909,4,2,1,70,0,1
69905,-90.9090909090909,4,1,1,70,0,1
70017,-90.9090909090909,4,2,1,70,0,1
70352,-90.9090909090909,4,1,1,70,0,1
70464,-90.9090909090909,4,2,1,70,0,1
70800,-90.9090909090909,4,1,1,70,0,1
70912,-90.9090909090909,4,2,1,70,0,1
71248,-90.9090909090909,4,1,1,70,0,1
71360,-90.9090909090909,4,2,1,70,0,1
71696,-90.9090909090909,4,1,1,70,0,1
71808,-90.9090909090909,4,2,1,70,0,1
72143,-90.9090909090909,4,1,1,70,0,1
72255,-90.9090909090909,4,2,1,70,0,1
72591,-90.9090909090909,4,1,1,70,0,1
72703,-90.9090909090909,4,2,1,70,0,1
73039,-90.9090909090909,4,1,1,70,0,1
73151,-90.9090909090909,4,2,1,70,0,1
73487,-90.9090909090909,4,1,1,70,0,1
73599,-90.9090909090909,4,2,1,70,0,1
73934,-90.9090909090909,4,1,1,70,0,1
74046,-90.9090909090909,4,2,1,70,0,1
74382,-90.9090909090909,4,1,1,70,0,1
74494,-90.9090909090909,4,2,1,70,0,1
74830,-90.9090909090909,4,1,1,70,0,1
74942,-90.9090909090909,4,2,1,70,0,1
75278,-90.9090909090909,4,1,1,70,0,1
75390,-90.9090909090909,4,2,1,70,0,1
75725,-90.9090909090909,4,1,1,70,0,1
75837,-90.9090909090909,4,2,1,70,0,1
76173,-90.9090909090909,4,1,1,70,0,1
76285,-90.9090909090909,4,2,1,70,0,1
76621,-90.9090909090909,4,1,1,70,0,1
76733,-90.9090909090909,4,2,1,70,0,1
77069,-90.9090909090909,4,1,1,70,0,1
77181,-90.9090909090909,4,2,1,70,0,1
77516,-90.9090909090909,4,1,1,70,0,1
77628,-90.9090909090909,4,2,1,70,0,1
77964,-90.9090909090909,4,1,1,70,0,1
78076,-90.9090909090909,4,2,1,70,0,1
78412,-90.9090909090909,4,1,1,70,0,1
78524,-90.9090909090909,4,2,1,70,0,1
78860,-90.9090909090909,4,1,1,70,0,1
78972,-90.9090909090909,4,2,1,70,0,1
79308,-90.9090909090909,4,1,1,70,0,1
79420,-90.9090909090909,4,2,1,70,0,1
79756,-90.9090909090909,4,1,1,70,0,1
79868,-90.9090909090909,4,2,1,70,0,1
80204,-90.9090909090909,4,1,1,70,0,1
80316,-90.9090909090909,4,2,1,70,0,1
80652,-90.9090909090909,4,1,1,50,0,0
81323,-90.9090909090909,4,1,1,25,0,0
81435,-90.9090909090909,4,1,1,50,0,0
81659,-90.9090909090909,4,1,1,25,0,0
81771,-90.9090909090909,4,1,1,50,0,0
81883,-90.9090909090909,4,1,1,15,0,0
81995,-90.9090909090909,4,1,1,50,0,0
82443,-90.9090909090909,4,1,1,70,0,1
82555,-90.9090909090909,4,2,1,5,0,0
86025,-90.9090909090909,4,2,1,50,0,0

[Colours]
Combo1 : 255,128,128
Combo2 : 255,255,128
Combo3 : 128,255,255
Combo4 : 128,255,128

[HitObjects]
64,48,55,1,2,0:0:0:0:
88,40,166,1,0,0:0:0:0:
112,32,278,2,0,L|160:16,1,30.0000011444092,0|2,0:0|0:0,0:0:0:0:
61,143,502,2,0,L|91:102,1,30.0000011444092
84,264,726,2,0,L|85:213,1,30.0000011444092,2|0,0:0|0:0,0:0:0:0:
171,350,950,2,0,L|143:307,1,30.0000011444092,0|2,0:0|0:0,0:0:0:0:
293,369,1174,2,0,L|245:350,1,30.0000011444092
367,250,1398,2,0,P|399:252|429:271,1,60.0000022888184,2|2,0:0|0:0,0:0:0:0:
224,288,1846,5,2,0:0:0:0:
192,280,1957,1,0,0:0:0:0:
160,272,2069,2,0,L|112:260,1,37.9999989852906,0|2,0:0|0:0,0:0:0:0:
133,169,2293,2,0,L|111:125,1,37.9999989852906
193,83,2517,2,0,L|214:38,1,37.9999989852906,2|0,0:0|0:0,0:0:0:0:
299,74,2741,2,0,L|346:61,1,37.9999989852906,0|2,0:0|0:0,0:0:0:0:
373,149,2965,2,0,L|414:177,1,37.9999989852906
277,248,3189,2,0,P|269:211|283:170,1,75.9999979705811,2|2,0:0|0:0,0:0:0:0:
64,80,3637,5,2,0:0:0:0:
96,88,3749,1,0,0:0:0:0:
128,96,3860,2,0,L|184:112,1,46.0000008773804,0|2,0:0|0:0,0:0:0:0:
307,40,4084,2,0,L|309:98,1,46.0000008773804,0|0,0:0|0:0,0:0:0:0:
415,194,4308,2,0,L|361:214,1,46.0000008773804,2|0,0:0|0:0,0:0:0:0:
303,344,4532,2,0,L|267:299,1,46.0000008773804,0|2,0:0|0:0,0:0:0:0:
125,284,4756,2,0,L|157:235,1,46.0000008773804,0|0,0:0|0:0,0:0:0:0:
272,136,4980,2,0,P|272:184|240:224,1,92.0000017547608,2|2,0:0|0:0,0:0:0:0:
368,96,5428,5,4,3:0:0:0:
376,64,5540,2,0,L|384:24,2,27.0000001029968,0|0|0,1:0|1:0|1:0,0:0:0:0:
368,96,5763,2,0,L|352:168,1,54.0000002059937,0|0,1:0|1:0,0:0:0:0:
348,181,5987,1,4,3:0:0:0:
340,213,6099,1,0,1:0:0:0:
144,336,6323,2,2,P|192:272|176:184,1,162.000000617981
120,144,6771,1,0,0:0:0:0:
272,56,6995,1,10,0:0:0:0:
272,56,7107,1,2,0:0:0:0:
272,56,7219,6,0,L|408:64,1,132.00000402832,4|8,1:2|0:0,0:0:0:0:
456,128,7666,2,0,P|472:168|448:216,1,88.000002685547,0|0,1:0|0:0,0:0:0:0:
312,336,8114,2,0,L|320:248,1,88.000002685547,0|0,1:0|0:0,0:0:0:0:
280,184,8450,1,8,0:0:0:0:
280,184,8562,2,0,P|232:168|192:176,1,88.000002685547,0|0,1:0|0:0,0:0:0:0:
120,240,9010,5,2,1:0:0:0:
216,72,9234,1,0,0:0:0:0:
216,72,9346,1,8,0:0:0:0:
216,72,9457,1,0,1:0:0:0:
360,200,9681,6,0,L|456:192,1,88.000002685547,0|2,0:0|1:0,0:0:0:0:
272,304,10129,1,8,0:0:0:0:
239,301,10240,1,0,0:0:0:0:
206,298,10352,1,2,1:0:0:0:
173,295,10464,1,0,0:0:0:0:
140,293,10576,1,8,0:0:0:0:
40,104,10801,6,0,P|112:56|176:72,1,132.00000402832,2|8,1:0|0:0,0:0:0:0:
144,216,11249,2,0,P|120:184|120:136,1,88.000002685547,0|0,1:0|0:0,0:0:0:0:
232,88,11696,1,2,1:0:0:0:
104,288,11920,1,0,0:0:0:0:
104,288,12032,1,8,0:0:0:0:
104,288,12144,2,0,L|0:272,1,88.000002685547,0|0,1:0|0:0,0:0:0:0:
224,168,12592,5,2,1:0:0:0:
263,150,12703,1,0,0:0:0:0:
307,153,12815,1,0,0:0:0:0:
344,175,12927,1,8,0:0:0:0:
367,212,13039,1,0,1:0:0:0:
280,248,13263,1,0,0:0:0:0:
120,136,13487,2,0,L|112:88,2,44.0000013427735,2|0|8,1:0|0:0|0:0,0:0:0:0:
184,216,13823,2,0,L|176:264,2,44.0000013427735,0|2|0,0:0|1:0|0:0,0:0:0:0:
208,120,14159,1,8,0:0:0:0:
408,304,14383,6,0,P|344:312|288:272,1,132.00000402832,2|8,0:0|0:0,0:0:0:0:
376,144,14831,2,0,P|384:184|368:232,1,88.000002685547,2|0,0:0|0:0,0:0:0:0:
264,88,15278,1,2,0:0:0:0:
424,16,15502,1,0,0:0:0:0:
424,16,15614,1,8,0:0:0:0:
424,16,15726,1,2,0:0:0:0:
304,176,15950,1,0,0:0:0:0:
104,144,16174,6,0,P|64:136|16:152,1,88.000002685547,2|0,0:0|0:0,0:0:0:0:
72,264,16510,2,0,L|64:208,1,44.0000013427735,8|2,0:0|0:0,0:0:0:0:
184,8,16846,2,0,L|168:120,1,88.000002685547,0|2,0:0|0:0,0:0:0:0:
256,304,17293,1,8,0:0:0:0:
251,271,17404,1,0,0:0:0:0:
246,238,17516,1,2,0:0:0:0:
241,205,17628,1,0,0:0:0:0:
237,173,17740,1,8,0:0:0:0:
424,48,17965,6,0,P|464:88|448:168,1,132.00000402832,2|8,0:0|0:0,0:0:0:0:
392,200,18413,1,0,0:0:0:0:
256,72,18637,1,0,0:0:0:0:
344,264,18860,2,0,P|304:280|256:272,1,88.000002685547,2|0,0:0|0:0,0:0:0:0:
200,224,19196,1,8,0:0:0:0:
200,224,19308,2,0,L|104:240,1,88.000002685547
24,48,19756,6,0,P|88:48|112:72,1,88.000002685547,2|0,0:0|0:0,0:0:0:0:
160,112,20092,2,0,L|296:104,1,132.00000402832,8|0,0:0|0:0,0:0:0:0:
448,232,20652,1,0,0:0:0:0:
272,328,20875,2,0,P|224:280|232:200,1,143.999995605469,0|4,0:0|0:1,0:0:0:0:
304,248,23114,5,2,0:0:0:0:
256,320,23338,1,0,0:0:0:0:
176,288,23562,2,0,P|128:272|64:280,2,95.9999970703126,0|2|0,0:0|0:0|0:0,0:0:0:0:
224,216,24681,2,0,P|232:184|232:160,1,47.9999985351563
184,104,25129,6,0,P|240:144|312:136,2,143.999995605469,2|2|0,0:0|0:0|0:0,0:0:0:0:
152,24,26696,2,0,L|128:168,1,143.999995605469,2|2,0:0|0:0,0:0:0:0:
120,208,27816,5,2,0:0:0:0:
112,256,28263,1,2,0:0:0:0:
104,296,28711,1,0,0:0:0:0:
96,336,30278,5,2,0:0:0:0:
168,288,30502,2,0,B|200:256|200:256|216:200|176:160,1,143.999995605469,0|2,0:0|0:0,0:0:0:0:
120,224,31398,1,0,0:0:0:0:
37,197,31622,1,2,0:0:0:0:
37,110,31846,1,2,0:0:0:0:
120,84,32069,1,2,0:0:0:0:
170,154,32293,6,0,P|240:168|304:128,1,143.999995605469,2|0,0:0|0:0,0:0:0:0:
368,80,33189,2,0,L|432:88,1,47.9999985351563,0|2,0:0|0:0,0:0:0:0:
488,152,33637,1,0,0:0:0:0:
416,216,33860,6,0,P|408:280|440:352,1,143.999995605469,2|0,0:0|0:0,0:0:0:0:
439,351,34980,2,2,P|368:296|272:328,1,191.999994140625,2|4,0:0|1:0,0:0:0:0:
144,240,36099,5,0,0:0:0:0:
144,240,36211,1,8,0:0:0:0:
144,240,36323,2,0,P|128:200|128:152,1,88.000002685547,0|2,0:0|1:0,0:0:0:0:
224,48,36771,1,0,0:0:0:0:
344,128,36995,1,0,0:0:0:0:
344,128,37107,1,8,0:0:0:0:
344,128,37219,1,8,0:0:0:0:
224,288,37443,1,0,0:0:0:0:
48,192,37666,6,0,L|64:104,1,88.000002685547,2|0,1:0|0:0,0:0:0:0:
128,56,38002,2,0,P|192:40|264:80,1,132.00000402832,8|0,0:0|1:0,0:0:0:0:
312,144,38562,1,0,0:0:0:0:
288,240,38786,1,8,1:2:0:0:
416,128,39010,2,0,L|464:136,2,44.0000013427735,0|0|0,0:0|1:0|0:0,0:0:0:0:
288,40,39457,6,0,L|200:48,1,88.000002685547,2|0,1:0|0:0,0:0:0:0:
152,112,39793,2,0,B|104:120|72:96|72:96|48:104|32:128,1,132.00000402832,8|0,0:0|1:0,0:0:0:0:
88,264,40353,1,0,0:0:0:0:
216,192,40577,1,0,0:0:0:0:
216,192,40689,1,8,0:0:0:0:
216,192,40801,2,0,L|304:200,1,88.000002685547,8|0,0:0|0:0,0:0:0:0:
464,56,41249,6,0,P|416:56|384:80,1,88.000002685547,2|0,1:0|0:0,0:0:0:0:
336,8,41584,2,0,P|304:56|320:128,1,132.00000402832,8|0,0:0|1:0,0:0:0:0:
428,249,42144,2,0,L|472:256,1,44.0000013427735
360,296,42368,2,0,L|304:304,1,44.0000013427735,0|0,1:0|0:0,0:0:0:0:
208,336,42592,2,0,L|252:343,1,44.0000013427735,8|0,0:0|1:0,0:0:0:0:
136,368,42816,2,0,L|80:376,1,44.0000013427735,8|0,0:0|0:0,0:0:0:0:
208,256,43040,6,0,P|232:192|208:128,2,132.00000402832,2|8|2,1:0|0:0|1:0,0:0:0:0:
208,256,44159,1,0,0:0:0:0:
240,248,44271,1,8,0:0:0:0:
272,240,44383,2,0,L|360:248,1,88.000002685547,8|0,0:0|0:0,0:0:0:0:
472,88,44831,6,0,P|408:80|368:128,2,132.00000402832,0|8|0,1:0|0:0|1:0,0:0:0:0:
472,88,45950,2,0,L|480:176,1,88.000002685547,8|0,1:2|0:0,0:0:0:0:
440,240,46286,2,0,P|384:272|304:248,1,132.00000402832,0|4,1:0|1:0,0:0:0:0:
248,144,46846,5,0,0:0:0:0:
248,144,46957,1,8,0:0:0:0:
248,144,47069,2,0,L|256:56,1,88.000002685547,0|0,0:0|1:0,0:0:0:0:
112,192,47517,2,0,L|116:236,1,44.0000013427735,0|0,0:0|0:0,0:0:0:0:
232,248,47741,2,0,L|191:229,1,44.0000013427735,0|8,0:0|0:0,0:0:0:0:
128,328,47965,2,0,L|164:302,2,44.0000013427735,8|4|0,0:0|3:0|0:0,0:0:0:0:
24,112,48413,5,4,3:0:0:0:
56,120,48525,1,0,3:0:0:0:
88,128,48637,1,0,3:0:0:0:
120,136,48749,1,0,3:0:0:0:
152,144,48860,1,0,3:0:0:0:
352,96,49084,2,0,P|312:80|256:88,1,88.000002685547
248,104,50204,5,6,1:0:0:0:
184,216,50428,1,0,0:0:0:0:
184,216,50540,1,8,0:0:0:0:
184,216,50652,2,0,L|200:304,1,88.000002685547,0|0,1:0|0:0,0:0:0:0:
384,224,51099,2,0,L|368:136,1,88.000002685547,0|0,1:0|0:0,0:0:0:0:
272,32,51547,2,0,P|200:40|184:64,1,88.000002685547
112,240,51995,5,2,0:0:0:0:
256,112,52219,1,0,0:0:0:0:
256,112,52331,1,8,0:0:0:0:
256,112,52443,2,0,L|352:120,1,88.000002685547
440,256,52890,2,0,L|344:248,1,88.000002685547
288,296,53226,1,8,0:0:0:0:
288,296,53338,2,0,L|240:292,2,44.0000013427735,0|0|8,0:0|0:0|0:0,0:0:0:0:
408,168,53786,6,0,P|432:128|424:80,1,88.000002685547,2|0,0:0|0:0,0:0:0:0:
368,40,54122,1,8,0:0:0:0:
368,40,54234,2,0,L|272:48,1,88.000002685547,0|2,0:0|0:0,0:0:0:0:
160,176,54681,2,0,L|256:168,1,88.000002685547,2|0,0:0|0:0,0:0:0:0:
432,280,55129,2,0,L|336:288,1,88.000002685547
176,352,55577,6,0,L|80:360,1,88.000002685547,2|0,0:0|0:0,0:0:0:0:
24,320,55913,1,8,0:0:0:0:
24,320,56025,2,0,P|8:280|16:232,1,88.000002685547
64,176,56360,1,8,0:0:0:0:
64,176,56472,2,0,L|48:120,4,44.0000013427735,0|8|0|0|8,0:0|0:0|0:0|0:0|0:2,0:0:0:0:
176,264,57144,1,0,0:0:0:0:
288,184,57368,6,0,P|352:168|408:208,1,132.00000402832,2|8,0:0|0:0,0:0:0:0:
352,336,57816,2,0,P|336:296|336:248,1,88.000002685547
160,248,58263,2,0,P|186:214|228:190,1,88.000002685547,2|0,0:0|0:0,0:0:0:0:
176,24,58711,2,0,P|218:30|260:54,1,88.000002685547,2|0,0:0|0:0,0:0:0:0:
448,128,59159,6,0,L|312:144,1,132.00000402832,0|8,0:0|0:0,0:0:0:0:
368,224,59607,2,0,L|266:236,1,88.000002685547,2|0,0:0|0:0,0:0:0:0:
88,288,60055,1,0,0:0:0:0:
96,248,60166,1,0,0:0:0:0:
104,208,60278,1,8,0:0:0:0:
112,168,60390,1,0,0:0:0:0:
120,128,60502,2,0,L|128:72,2,44.0000013427735,0|0|8,0:0|0:0|0:0,0:0:0:0:
224,280,60950,6,0,P|264:296|320:280,1,88.000002685547,2|0,0:0|0:0,0:0:0:0:
360,232,61286,1,8,0:0:0:0:
360,232,61398,2,0,L|448:240,1,88.000002685547,0|2,0:0|0:0,0:0:0:0:
328,136,61846,2,0,L|277:208,1,88.000002685547,2|0,0:0|0:0,0:0:0:0:
424,152,62293,2,0,L|386:71,1,88.000002685547
192,192,62741,6,0,L|200:144,3,44.0000013427735,4|0|8|0,0:3|0:0|0:2|0:0,0:0:0:0:
144,96,63189,2,0,L|152:48,3,44.0000013427735,4|0|0|0,0:3|0:0|0:0|0:0,0:0:0:0:
64,176,63637,2,0,L|72:128,3,44.0000013427735,4|8|0|0,0:3|0:2|0:0|0:0,0:0:0:0:
112,280,64084,2,0,L|120:232,3,44.0000013427735,8|0|0|0,0:2|0:0|0:0|0:0,0:0:0:0:
176,336,64532,5,6,0:0:0:0:
304,264,64756,1,0,0:0:0:0:
304,264,64868,1,8,0:0:0:0:
304,264,64980,2,0,L|392:272,1,88.000002685547
288,80,65428,2,0,P|216:80|192:136,1,132.00000402832
336,152,65875,2,0,P|368:112|368:64,1,88.000002685547
272,216,66323,6,0,L|280:312,1,88.000002685547,2|0,0:0|0:0,0:0:0:0:
224,360,66659,1,8,0:0:0:0:
224,360,66771,2,0,P|176:368|136:352,1,88.000002685547
48,224,67219,1,2,0:0:0:0:
136,88,67443,1,8,0:0:0:0:
168,96,67555,1,0,0:0:0:0:
200,104,67666,2,0,L|256:120,2,44.0000013427735,2|0|8,0:0|0:0|0:0,0:0:0:0:
344,328,68114,6,0,P|384:272|368:200,1,132.00000402832,2|8,0:0|0:0,0:0:0:0:
328,152,68562,2,0,L|344:56,1,88.000002685547
240,184,69010,2,0,L|205:92,1,88.000002685547
160,248,69457,2,0,L|84:186,1,88.000002685547,2|0,0:0|0:0,0:0:0:0:
152,360,69905,5,0,0:0:0:0:
312,296,70129,1,0,0:0:0:0:
312,296,70241,1,8,0:0:0:0:
312,296,70353,2,0,L|400:304,1,88.000002685547,2|2,0:0|0:0,0:0:0:0:
464,136,70801,5,0,0:0:0:0:
441,116,70912,1,8,0:0:0:0:
414,107,71024,1,0,0:0:0:0:
385,109,71136,1,0,0:0:0:0:
358,121,71248,1,0,0:0:0:0:
339,142,71360,1,0,0:0:0:0:
329,170,71472,1,8,0:0:0:0:
248,360,71696,6,0,L|256:224,1,132.00000402832,2|8,0:0|0:0,0:0:0:0:
208,168,72144,2,0,P|160:160|120:176,1,88.000002685547
336,248,72592,2,0,P|408:260|468:236,1,132.00000402832
408,88,73040,2,0,P|392:136|400:184,1,88.000002685547
480,24,73487,5,2,0:0:0:0:
312,32,73711,1,0,0:0:0:0:
312,32,73823,1,8,0:0:0:0:
312,32,73935,1,0,0:0:0:0:
176,128,74159,2,0,L|88:120,2,88.000002685547
368,216,74831,1,8,0:2:0:0:
324,212,74942,1,0,0:0:0:0:
280,208,75054,1,0,0:0:0:0:
72,320,75278,6,0,P|136:288|200:304,1,132.00000402832,0|8,0:0|0:0,0:0:0:0:
248,352,75726,2,0,L|312:344,2,44.0000013427735,2|0|2,0:0|0:0|0:0,0:0:0:0:
304,128,76174,2,0,P|256:128|216:152,1,88.000002685547
376,96,76622,2,0,P|400:54|399:7,1,88.000002685547
376,176,77069,6,0,P|400:217|440:240,1,88.000002685547
456,248,77405,1,8,0:0:0:0:
480,256,77517,1,0,0:0:0:0:
328,352,77741,1,2,0:0:0:0:
168,272,77965,1,0,0:0:0:0:
176,248,78077,1,8,0:0:0:0:
184,224,78189,1,0,0:0:0:0:
192,200,78301,1,0,0:0:0:0:
200,176,78413,2,0,L|184:128,2,44.0000013427735,8|0|0,0:2|0:0|0:0,0:0:0:0:
336,256,78860,6,0,P|392:288|464:272,1,132.00000402832,2|8,0:0|0:0,0:0:0:0:
416,120,79308,2,0,L|408:208,1,88.000002685547
248,288,79756,2,0,L|256:200,1,88.000002685547
96,168,80204,2,0,L|104:80,1,88.000002685547
336,40,80652,6,0,P|344:64|344:96,3,44.0000013427735
328,160,81099,2,0,P|316:182|294:205,3,44.0000013427735,0|0|4|0,0:0|0:0|0:3|0:0,0:0:0:0:
232,240,81547,2,0,P|208:248|176:248,3,44.0000013427735,0|0|0|4,0:0|0:0|0:3|0:3,0:0:0:0:
112,232,81995,2,0,P|89:220|66:198,3,44.0000013427735
48,136,82443,1,4,0:0:0:0:
256,192,82555,12,2,86025,0:0:0:0:
