osu file format v12

[General]
AudioFilename: Star Story.mp3
AudioLeadIn: 1996
PreviewTime: 68576
Countdown: 0
SampleSet: Soft
StackLeniency: 0.3
Mode: 0
LetterboxInBreaks: 0

[Editor]
DistanceSpacing: 1.2
BeatDivisor: 4
GridSize: 8

[Metadata]
Title:Star Story
TitleUnicode:Star Story
Artist:livetune
ArtistUnicode:livetune
Creator:kanpakyin
Version:Normal
Source:
Tags:Hatsune Miku tell your world ep kz Vocaloid2 Nymph
BeatmapID:266217
BeatmapSetID:99550

[Difficulty]
HPDrainRate:4
CircleSize:4
OverallDifficulty:4
ApproachRate:5
SliderMultiplier:1.2
SliderTickRate:1

[Events]
//Background and Video events
0,0,"BG.jpg",0,0
//Break Periods
2,98990,108733
2,192418,203018
2,250704,259590
//Storyboard Layer 0 (Background)
//Storyboard Layer 1 (Fail)
//Storyboard Layer 2 (Pass)
//Storyboard Layer 3 (Foreground)
Sprite,Foreground,Centre,"lyrics\45.png",320,240 S,0,99647,,0.4 F,0,99647,100504,0,1 M,0,99647,108219,170,300,170,295 F,0,100504,107361,1 F,0,107361,108219,1,0 F,0,193933,195647,0,1 M,0,193933,202504,170,300,170,295 F,0,195647,200790,1 F,0,200790,202504,1,0 F,0,252218,253933,0,1 M,0,252218,259076,170,300,170,295 F,0,253933,257361,1 F,0,257361,259076,1,0
Sprite,Foreground,Centre,"lyrics\46.png",320,240 S,0,101361,,0.3 F,0,101361,102219,0,1 M,0,101361,108219,170,339,170,335 F,0,102219,107361,1 F,0,107361,108219,1,0 F,0,193933,195647,0,1 M,0,193933,202504,170,340,170,335 F,0,195647,200790,1 F,0,200790,202504,1,0 F,0,252218,253933,0,1 M,0,252218,259076,170,340,170,335 F,0,253933,257361,1 F,0,257361,259076,1,0
Sprite,Foreground,Centre,"lyrics\47.png",320,240 S,0,101361,,0.3 F,0,101361,102219,0,1 M,0,101361,108219,170,379,170,375 F,0,102219,107361,1 F,0,107361,108219,1,0 F,0,193933,195647,0,1 M,0,193933,202504,170,380,170,375 F,0,195647,200790,1 F,0,200790,202504,1,0 F,0,252218,253933,0,1 M,0,252218,259076,170,380,170,375 F,0,253933,257361,1 F,0,257361,259076,1,0
Sprite,Foreground,Centre,"lyrics\48.png",320,240 S,0,103076,,0.3 F,0,103076,103933,0,1 M,0,103076,108219,170,418,170,415 F,0,103933,107361,1 F,0,107361,108219,1,0 F,0,193933,195647,0,1 M,0,193933,202504,170,420,170,415 F,0,195647,200790,1 F,0,200790,202504,1,0 F,0,252218,253933,0,1 M,0,252218,259076,170,420,170,415 F,0,253933,257361,1 F,0,257361,259076,1,0
//Storyboard Sound Samples
//Background Colour Transformations
3,100,163,162,255

[TimingPoints]
219,857.142857142857,4,2,1,30,1,0
55076,-90.9090909090909,4,2,2,40,0,0
55290,-90.9090909090909,4,2,1,50,0,0
68790,-83.3333333333333,4,2,2,40,0,1
69004,-83.3333333333333,4,2,1,60,0,1
82504,-83.3333333333333,4,2,2,50,0,1
82718,-83.3333333333333,4,2,1,60,0,1
96218,-83.3333333333333,4,2,2,50,0,0
96433,-83.3333333333333,4,2,1,60,0,0
109933,-100,4,2,2,45,0,0
110147,-100,4,2,1,50,0,0
123647,-100,4,2,2,50,0,0
123861,-100,4,2,1,50,0,0
137361,-100,4,2,2,40,0,0
137576,-100,4,2,1,50,0,0
150861,-100,4,2,2,45,0,0
151290,-100,4,2,1,50,0,0
157076,-100,4,1,1,70,0,0
157290,-100,4,2,1,50,0,0
157933,-100,4,2,2,40,0,0
158147,-100,4,2,1,50,0,0
163718,-100,4,2,2,50,0,0
164790,-83.3333333333333,4,1,2,60,0,1
165004,-83.3333333333333,4,1,1,60,0,1
165647,-83.3333333333333,4,2,2,60,0,1
165861,-83.3333333333333,4,2,1,60,0,1
167361,-83.3333333333333,4,2,2,60,0,1
167576,-83.3333333333333,4,2,1,60,0,1
169076,-83.3333333333333,4,2,2,60,0,1
169290,-83.3333333333333,4,2,1,60,0,1
170790,-83.3333333333333,4,2,2,60,0,1
171004,-83.3333333333333,4,2,1,60,0,1
172504,-83.3333333333333,4,2,2,60,0,1
172718,-83.3333333333333,4,2,1,60,0,1
174218,-83.3333333333333,4,2,2,60,0,1
174433,-83.3333333333333,4,2,1,60,0,1
175933,-83.3333333333333,4,2,2,60,0,1
176147,-83.3333333333333,4,2,1,60,0,1
177647,-83.3333333333333,4,2,2,60,0,1
177861,-83.3333333333333,4,2,1,60,0,1
178504,-83.3333333333333,4,2,2,50,0,1
178718,-83.3333333333333,4,2,1,60,0,1
179361,-83.3333333333333,4,2,2,60,0,1
179576,-83.3333333333333,4,2,1,60,0,1
181076,-83.3333333333333,4,2,2,60,0,1
181290,-83.3333333333333,4,2,1,60,0,1
182790,-83.3333333333333,4,2,2,60,0,1
183004,-83.3333333333333,4,2,1,60,0,1
184504,-83.3333333333333,4,2,2,60,0,1
184718,-83.3333333333333,4,2,1,60,0,1
186218,-83.3333333333333,4,2,2,60,0,1
186433,-83.3333333333333,4,2,1,60,0,1
187933,-83.3333333333333,4,2,2,60,0,1
188147,-83.3333333333333,4,2,1,60,0,1
189647,-83.3333333333333,4,2,2,70,0,1
189861,-83.3333333333333,4,2,1,60,0,1
191361,-83.3333333333333,4,2,2,60,0,1
191576,-83.3333333333333,4,2,1,60,0,1
192218,-83.3333333333333,4,2,2,60,0,0
204218,-83.3333333333333,4,2,1,45,0,0
219647,-83.3333333333333,4,2,2,50,0,1
219861,-83.3333333333333,4,2,1,60,0,1
220504,-83.3333333333333,4,2,2,60,0,1
220718,-83.3333333333333,4,2,1,60,0,1
222218,-83.3333333333333,4,2,2,60,0,1
222433,-83.3333333333333,4,2,1,60,0,1
223933,-83.3333333333333,4,2,2,60,0,1
224147,-83.3333333333333,4,2,1,60,0,1
225647,-83.3333333333333,4,2,2,60,0,1
225861,-83.3333333333333,4,2,1,60,0,1
227361,-83.3333333333333,4,2,2,60,0,1
227576,-83.3333333333333,4,2,1,60,0,1
229076,-83.3333333333333,4,2,2,60,0,1
229290,-83.3333333333333,4,2,1,60,0,1
230790,-83.3333333333333,4,2,2,60,0,1
231004,-83.3333333333333,4,2,1,60,0,1
232504,-83.3333333333333,4,2,2,60,0,1
232718,-83.3333333333333,4,2,2,50,0,1
233576,-83.3333333333333,4,2,1,60,0,1
234218,-83.3333333333333,4,2,2,60,0,1
234433,-83.3333333333333,4,2,1,60,0,1
235933,-83.3333333333333,4,2,2,60,0,1
236147,-83.3333333333333,4,2,1,60,0,1
237433,-83.3333333333333,4,2,2,60,0,1
237861,-83.3333333333333,4,2,1,60,0,1
239361,-83.3333333333333,4,2,2,60,0,1
239576,-83.3333333333333,4,2,1,60,0,1
241076,-83.3333333333333,4,2,2,60,0,1
241290,-83.3333333333333,4,2,1,60,0,1
242790,-83.3333333333333,4,2,2,60,0,1
243004,-83.3333333333333,4,2,1,60,0,1
244504,-83.3333333333333,4,2,2,60,0,1
244718,-83.3333333333333,4,2,1,60,0,1
246004,-83.3333333333333,4,2,2,60,0,1
246433,-83.3333333333333,4,2,1,60,0,1
247076,-100,4,2,2,60,0,0
250504,-100,4,2,1,60,0,0
260790,-100,4,2,2,50,0,0
261647,-100,4,2,2,60,0,0
261861,-100,4,2,1,60,0,0
263361,-100,4,2,2,60,0,0
263576,-100,4,2,1,60,0,0
265076,-100,4,2,2,60,0,0
265290,-100,4,2,1,60,0,0
266790,-100,4,2,2,60,0,0
267004,-100,4,2,1,60,0,0
268504,-100,4,2,2,60,0,0
268718,-100,4,2,1,60,0,0
270218,-100,4,2,2,60,0,0
270433,-100,4,2,1,60,0,0
271933,-100,4,2,2,60,0,0
272147,-100,4,2,1,60,0,0
273647,-100,4,2,2,60,0,0
273861,-100,4,2,2,60,0,0
277933,-100,4,2,1,5,0,0

[Colours]
Combo1 : 128,0,255
Combo2 : 40,205,31
Combo3 : 255,255,0
SliderBorder : 255,255,255

[HitObjects]
83,279,219,6,0,L|93:353,2,60,0|0|0,0:0|0:0|0:0,0:0:0:0:
139,209,1504,1,2,0:0:0:0:
86,135,1933,2,0,P|58:125|17:134,2,60,0|0|0,0:0|0:0|0:0,0:0:0:0:
139,209,3218,1,2,0:0:0:0:
197,277,3647,6,0,L|261:262,1,60
344,248,4504,2,0,L|329:322,2,60,0|2|0,0:0|0:0|0:0,0:0:0:0:
280,183,5790,5,0,0:0:0:0:
280,183,6218,2,0,P|258:127|281:68,1,120,0|2,0:0|0:0,0:0:0:0:
362,44,7504,1,0,0:0:0:0:
333,129,7933,2,0,P|272:146|209:117,1,120,0|2,0:0|0:0,0:0:0:0:
148,72,9218,1,0,0:0:0:0:
125,159,9647,6,0,B|109:202|109:202|127:238|107:291,1,120,2|0,0:0|0:0,0:0:0:0:
162,349,10933,2,0,P|104:366|51:338,1,120
115,275,12218,5,2,0:0:0:0:
115,275,12647,1,0,0:0:0:0:
33,252,13076,1,0,0:0:0:0:
33,252,13504,1,0,0:0:0:0:
115,275,13933,6,0,P|137:226|114:160,1,120,4|2,0:0|0:0,0:0:0:0:
77,90,15218,2,0,L|8:90,2,60,0|0|0,0:0|0:0|0:0,0:0:0:0:
149,46,16504,1,2,0:0:0:0:
227,76,16933,1,0,0:0:0:0:
305,46,17361,6,0,B|369:45|360:83|440:84,1,120,0|2,0:0|0:0,0:0:0:0:
475,143,18647,1,0,0:0:0:0:
447,222,19076,2,0,L|465:290,2,60,0|0|2,0:0|0:0|0:0,0:0:0:0:
380,273,20361,1,0,0:0:0:0:
301,243,20790,6,0,P|246:260|175:226,1,120,0|2,0:0|0:0,0:0:0:0:
120,191,22076,1,0,0:0:0:0:
55,245,22504,2,0,L|70:317,2,60,0|0|2,0:0|0:0|0:0,0:0:0:0:
119,190,23790,1,0,0:0:0:0:
186,139,24218,6,0,B|244:139|244:139|249:133|249:133|323:133,1,120,0|2,0:0|0:0,0:0:0:0:
381,102,25504,1,0,0:0:0:0:
418,177,25933,1,0,0:0:0:0:
341,211,26361,2,0,P|335:245|347:276,1,60,0|2,0:0|0:0,0:0:0:0:
416,307,27218,2,0,P|423:337|412:368,1,60,0|4,0:0|0:0,0:0:0:0:
216,334,28504,5,2,0:0:0:0:
137,289,28933,1,0,0:0:0:0:
70,349,29361,2,0,P|45:292|68:229,1,120,0|2,0:0|0:0,0:0:0:0:
140,196,30647,2,0,L|201:205,2,60,0|2|2,0:0|0:0|0:0,0:0:0:0:
74,134,31933,6,0,P|95:79|71:16,1,120,0|2,0:0|0:0,0:0:0:0:
4,76,33218,1,0,0:0:0:0:
94,77,33647,2,0,B|154:66|156:89|214:75,1,120,2|2,0:0|0:0,0:0:0:0:
296,41,34933,5,0,0:0:0:0:
369,92,35361,2,0,P|403:99|441:90,1,60,2|0,0:0|0:0,0:0:0:0:
494,155,36218,2,0,L|482:224,1,60,2|0,0:0|0:0,0:0:0:0:
393,222,37076,2,0,L|379:299,1,60
305,327,37933,6,0,P|247:350|188:322,1,120,2|0,0:0|0:0,0:0:0:0:
129,270,39218,1,2,0:0:0:0:
129,270,39433,2,0,P|82:284|31:255,1,90,0|2,0:0|0:0,0:0:0:0:
88,190,40504,5,2,0:0:0:0:
88,190,40718,1,0,0:0:0:0:
88,190,40933,2,0,L|75:141,2,30,2|0|6,0:0|0:0|0:0,0:0:0:0:
211,58,42218,5,2,0:0:0:0:
246,141,42647,2,0,P|273:158|304:157,1,60
316,246,43504,2,0,P|351:243|376:223,1,60,2|0,0:0|0:0,0:0:0:0:
449,273,44361,2,0,P|463:251|466:212,2,60
382,334,45647,2,0,B|342:317|342:317|304:336|246:322,1,120,2|0,0:0|0:0,0:0:0:0:
179,347,46933,5,2,0:0:0:0:
101,300,47361,2,0,P|68:311|36:307,1,60,2|0,0:0|0:0,0:0:0:0:
57,220,48218,2,0,B|65:182|50:156|50:156|62:135|61:88,1,120,2|2,0:0|0:0,0:0:0:0:
127,42,49504,5,0,0:0:0:0:
127,42,49933,2,0,P|79:14|6:38,2,120,2|2|2,0:0|0:0|0:0,0:0:0:0:
191,105,52076,1,0,0:0:0:0:
276,77,52504,6,0,B|339:75|332:105|400:108,1,120,2|2,0:0|0:0,0:0:0:0:
450,175,53790,2,0,L|469:248,1,60,2|0,0:0|0:0,0:0:0:0:
443,320,54647,1,2,0:0:0:0:
359,279,55076,6,0,P|293:285|247:229,1,132.00000402832,4|2,0:0|0:0,0:0:0:0:
324,198,56361,1,0,0:0:0:0:
249,155,56790,2,0,L|107:180,1,132.00000402832,0|2,0:0|0:0,0:0:0:0:
46,131,58076,2,0,P|56:100|47:65,1,66.0000020141602,0|2,0:0|0:0,0:0:0:0:
67,250,59361,6,0,P|52:321|97:371,1,132.00000402832,2|0,0:0|0:0,0:0:0:0:
166,337,60647,1,0,0:0:0:0:
249,358,61076,1,2,0:0:0:0:
296,286,61504,1,0,0:0:0:0:
371,327,61933,5,2,0:0:0:0:
373,241,62361,2,0,B|390:188|390:188|391:137|343:115,1,132.00000402832,0|2,0:0|0:0,0:0:0:0:
273,140,63647,2,0,L|186:134,1,66.0000020141602,0|2,0:0|0:0,0:0:0:0:
158,63,64504,2,0,L|72:56,1,66.0000020141602,8|2,0:0|0:0,0:0:0:0:
19,115,65361,6,0,B|-4:178|35:195|10:259,1,132.00000402832,2|8,0:0|0:0,0:0:0:0:
74,315,66647,1,2,0:0:0:0:
163,293,67076,2,0,P|205:305|265:287,1,99.0000030212403,2|0,0:0|0:0,0:0:0:0:
282,257,67933,2,0,L|260:181,1,66.0000020141602,8|2,0:0|0:0,0:0:0:0:
356,185,68790,6,0,L|378:34,2,143.999995605469,4|8|2,0:0|0:0|0:0,0:0:0:0:
391,271,70933,1,2,1:2:0:0:
339,349,71361,1,8,0:0:0:0:
254,308,71790,2,0,P|221:298|165:303,1,71.9999978027344,2|0,0:0|1:0,0:0:0:0:
104,348,72647,6,0,P|62:349|24:340,2,71.9999978027344,2|8|2,0:0|0:0|0:0,0:0:0:0:
184,298,73933,2,0,B|198:260|198:260|177:208|195:149,1,143.999995605469,2|8,0:0|0:0,0:0:0:0:
279,193,75218,1,2,0:0:0:0:
366,225,75647,6,0,B|405:215|404:172|404:172|377:142|385:90,1,143.999995605469,0|8,1:0|0:0,0:0:0:0:
309,47,76933,1,2,0:0:0:0:
236,105,77361,2,0,B|166:97|173:147|90:139,1,143.999995605469,0|8,0:0|0:0,0:0:0:0:
36,210,78647,1,2,0:0:0:0:
108,269,79076,6,0,L|126:344,2,71.9999978027344,4|2|8,1:2|0:0|0:0,0:0:0:0:
179,208,80361,1,2,0:0:0:0:
179,208,80576,2,0,P|226:188|282:197,1,107.999996704102,0|2,1:0|1:2,0:0:0:0:
346,262,81647,1,8,0:0:0:0:
456,111,82504,5,4,0:0:0:0:
376,160,82933,1,2,0:0:0:0:
299,106,83361,2,0,P|268:92|215:95,1,71.9999978027344,8|2,0:0|0:0,0:0:0:0:
244,183,84218,2,0,P|207:185|172:206,1,71.9999978027344,0|2,0:0|0:0,0:0:0:0:
234,275,85076,2,0,P|208:300|202:349,1,71.9999978027344,8|2,0:0|0:0,0:0:0:0:
292,348,85933,2,0,P|357:371|433:338,1,143.999995605469,0|8,1:0|0:0,0:0:0:0:
472,265,87218,5,2,0:0:0:0:
472,265,87433,2,0,L|491:142,1,107.999996704102,0|2,1:0|1:2,0:0:0:0:
395,167,88504,2,0,L|361:93,1,71.9999978027344,8|2,0:0|0:0,0:0:0:0:
296,165,89361,6,0,L|210:148,1,71.9999978027344,0|2,1:0|0:0,0:0:0:0:
234,244,90218,2,0,L|163:267,1,71.9999978027344,8|2,0:0|0:0,0:0:0:0:
73,248,91076,2,0,B|95:181|67:136|67:136|35:162,1,143.999995605469,0|8,0:0|0:0,0:0:0:0:
19,63,92361,1,2,0:0:0:0:
106,30,92790,6,0,B|165:58|199:8|263:45,1,143.999995605469,0|8,1:0|0:0,0:0:0:0:
326,87,94076,1,2,0:0:0:0:
341,107,94290,1,0,1:0:0:0:
356,127,94504,2,0,L|371:203,1,71.9999978027344,2|2,0:0|1:2,0:0:0:0:
323,278,95361,2,0,L|336:359,2,71.9999978027344,8|2|4,0:0|0:0|0:0,0:0:0:0:
256,192,96433,12,8,98790,0:0:0:0:
104,134,109933,6,0,L|89:69,2,60,4|2|8,0:0|0:0|0:0,0:0:0:0:
119,216,111218,1,2,0:0:0:0:
176,277,111647,2,0,P|120:302|60:274,1,120,0|8,0:0|0:0,0:0:0:0:
33,205,112933,1,2,0:0:0:0:
79,135,113361,2,0,P|139:123|192:159,1,120,0|8,1:0|0:0,0:0:0:0:
243,214,114647,5,2,0:0:0:0:
309,158,115076,2,0,L|436:150,1,120,0|8,0:0|0:0,0:0:0:0:
474,221,116361,1,2,0:0:0:0:
435,295,116790,2,0,L|302:308,1,120,0|8,1:0|0:0,0:0:0:0:
236,334,118076,6,0,P|205:335|170:314,1,60,2|0,0:0|0:0,0:0:0:0:
224,251,118933,2,0,P|214:227|215:184,1,60,10|8,0:2|0:0,0:0:0:0:
295,207,119790,2,0,L|357:207,1,60,2|0,0:0|1:0,0:0:0:0:
427,164,120647,5,2,0:0:0:0:
462,87,121076,1,8,0:0:0:0:
436,7,121504,1,2,0:0:0:0:
356,33,121933,5,8,0:0:0:0:
278,63,122361,1,2,0:0:0:0:
199,93,122790,1,8,0:0:0:0:
120,123,123218,1,2,0:0:0:0:
42,155,123647,6,0,B|31:188|31:188|63:246|29:283,1,120,4|8,0:0|0:0,0:0:0:0:
79,340,124933,1,2,0:0:0:0:
161,327,125361,2,0,L|241:339,2,60,0|2|8,0:0|1:2|0:0,0:0:0:0:
203,254,126647,2,0,P|227:201|200:132,1,120,2|2,0:0|0:0,0:0:0:0:
159,77,127933,6,0,L|81:89,2,60,8|2|0,0:0|0:0|0:0,0:0:0:0:
234,39,129218,1,2,1:2:0:0:
275,112,129647,1,8,0:0:0:0:
201,152,130076,2,0,B|206:194|190:215|190:215|207:239|203:278,1,120,2|2,0:0|0:0,0:0:0:0:
264,324,131361,5,8,0:0:0:0:
345,302,131790,2,0,L|417:305,1,60,2|0,0:0|0:0,0:0:0:0:
394,221,132647,2,0,L|466:224,1,60,2|8,1:2|0:0,0:0:0:0:
498,152,133504,1,2,0:0:0:0:
492,141,133718,1,0,0:0:0:0:
487,130,133933,6,0,P|468:66|497:10,1,120,0|8,1:0|0:0,0:0:0:0:
404,12,135218,1,2,0:0:0:0:
404,12,135433,2,0,L|302:19,1,90,0|2,1:0|1:2,0:0:0:0:
278,94,136504,5,8,0:0:0:0:
265,110,136718,1,0,0:0:0:0:
252,126,136933,2,0,L|190:128,1,60,2|4,0:0|1:2,0:0:0:0:
130,185,137790,1,2,0:0:0:0:
174,256,138218,2,0,P|183:318|134:370,1,120,8|0,0:0|0:0,0:0:0:0:
97,295,139504,6,0,L|33:314,2,60,2|8|2,1:2|0:0|0:0,0:0:0:0:
178,316,140790,2,0,B|235:321|235:321|242:319|242:319|308:324,1,120,0|8,1:0|0:0,0:0:0:0:
376,351,142076,2,0,L|440:345,1,60,2|0,0:0|0:0,0:0:0:0:
483,276,142933,2,0,P|505:227|480:160,1,120,2|2,1:2|0:0,0:0:0:0:
422,220,144218,5,0,1:0:0:0:
358,165,144647,1,2,0:0:0:0:
277,190,145076,1,8,0:0:0:0:
296,108,145504,6,0,L|233:88,1,60,2|0,0:0|0:0,0:0:0:0:
277,190,146361,2,0,L|301:247,1,60,2|8,1:2|0:0,0:0:0:0:
358,165,147218,2,0,P|382:120|359:53,1,120,2|2,0:0|0:0,0:0:0:0:
288,17,148504,5,8,0:0:0:0:
213,56,148933,1,2,0:0:0:0:
213,56,149147,2,0,L|111:36,1,90,0|2,1:0|1:2,0:0:0:0:
48,74,150218,2,0,L|26:32,2,30,8|0|2,0:0|0:0|0:0,0:0:0:0:
75,153,151076,6,0,B|88:202|60:235|82:289,1,120,4|8,1:2|0:0,0:0:0:0:
148,315,152361,1,2,0:0:0:0:
165,319,152576,1,0,1:0:0:0:
182,323,152790,2,0,L|254:317,1,60,2|2,0:0|1:2,0:0:0:0:
315,358,153647,2,0,P|324:335|316:291,1,60,8|2,0:0|0:0,0:0:0:0:
387,249,154504,6,0,P|366:230|320:223,1,60,0|2,1:0|0:0,0:0:0:0:
318,139,155361,2,0,P|288:149|266:176,2,60,8|2|0,0:0|0:0|0:0,0:0:0:0:
396,168,156647,1,2,1:2:0:0:
451,104,157076,1,0,0:2:0:0:
404,33,157504,1,2,0:0:0:0:
322,53,157933,5,4,0:0:0:0:
160,100,158790,1,2,0:0:0:0:
114,170,159218,1,0,0:0:0:0:
166,329,160076,1,0,0:0:0:0:
327,284,160933,5,0,0:0:0:0:
400,324,161361,1,2,0:0:0:0:
399,239,161790,2,0,B|415:197|373:162|392:103,1,120,0|0,0:0|0:0,0:0:0:0:
328,61,163076,2,0,L|267:72,1,60,2|0,0:0|0:0,0:0:0:0:
319,197,163933,5,8,0:0:0:0:
167,329,164790,6,0,B|190:288|162:229|162:229|116:262,1,143.999995605469,4|8,0:2|0:0,0:0:0:0:
87,176,166076,1,2,0:0:0:0:
87,176,166504,2,0,L|21:228,2,71.9999978027344,0|2|8,0:0|1:2|0:0,0:0:0:0:
147,113,167790,2,0,P|156:86|143:37,1,71.9999978027344,2|8,0:0|0:0,0:0:0:0:
69,81,168647,5,2,0:0:0:0:
75,167,169076,1,8,0:0:0:0:
155,198,169504,1,0,0:0:0:0:
155,198,169718,2,0,L|277:188,1,107.999996704102,8|0,0:0|1:0,0:0:0:0:
322,252,170790,6,0,P|343:223|344:178,1,71.9999978027344,8|2,0:0|0:0,0:0:0:0:
420,143,171647,2,0,P|398:118|353:109,2,71.9999978027344,8|2|8,0:0|0:0|0:0,0:0:0:0:
459,220,172933,5,2,0:0:0:0:
459,220,173361,2,0,L|471:320,1,71.9999978027344,0|10,0:0|0:0,0:0:0:0:
384,315,174218,2,0,P|358:332|319:328,1,71.9999978027344,8|2,0:0|0:0,0:0:0:0:
325,239,175076,2,0,B|271:224|224:246|224:246|185:234|190:208,1,143.999995605469,8|8,0:0|0:0,0:0:0:0:
117,179,176361,5,2,0:0:0:0:
117,179,176576,2,0,L|89:301,1,107.999996704102,8|10,0:0|0:0,0:0:0:0:
6,293,177647,2,0,L|29:369,1,71.9999978027344,8|2,0:0|0:0,0:0:0:0:
113,364,178504,6,0,B|182:339|195:386|274:355,1,143.999995605469,4|8,0:0|0:0,0:0:0:0:
339,345,179790,1,2,0:0:0:0:
393,278,180218,1,0,0:0:0:0:
378,192,180647,2,0,L|299:212,1,71.9999978027344,10|8,0:0|0:0,0:0:0:0:
235,257,181504,2,0,P|222:234|227:181,1,71.9999978027344,2|8,0:0|0:0,0:0:0:0:
269,116,182361,6,0,L|281:79,1,35.9999989013672,2|0,0:0|0:0,0:0:0:0:
286,64,182790,2,0,P|216:36|144:68,1,143.999995605469,8|2,0:0|0:0,0:0:0:0:
107,130,184076,1,10,0:0:0:0:
152,203,184504,2,0,P|216:229|286:195,1,143.999995605469,8|8,0:0|0:0,0:0:0:0:
348,146,185790,1,2,0:0:0:0:
366,61,186218,5,8,0:0:0:0:
348,146,186647,1,2,0:0:0:0:
361,157,186861,1,8,0:0:0:0:
374,168,187076,1,0,0:0:0:0:
432,231,187504,5,10,0:0:0:0:
372,294,187933,1,8,0:0:0:0:
313,230,188361,2,0,P|285:230|236:224,1,71.9999978027344,2|8,0:0|0:0,0:0:0:0:
162,261,189218,5,2,0:0:0:0:
152,280,189433,1,0,0:0:0:0:
142,299,189647,2,0,P|98:296|52:303,1,71.9999978027344,8|2,0:0|0:0,0:0:0:0:
48,215,190504,6,0,B|56:176|56:176|46:134|46:134|64:106|53:55,1,143.999995605469,2|8,0:0|0:0,0:0:0:0:
135,110,191790,2,0,L|164:27,1,71.9999978027344,2|4,0:0|0:0,0:0:0:0:
137,276,204218,5,0,0:0:0:0:
120,191,204647,1,2,0:0:0:0:
137,276,205076,1,0,0:0:0:0:
210,321,205504,1,2,0:0:0:0:
296,318,205933,6,0,L|443:310,1,143.999995605469,10|8,0:0|0:0,0:0:0:0:
486,237,207218,2,0,L|494:201,1,35.9999989013672,2|0,0:0|0:0,0:0:0:0:
490,187,207647,2,0,L|499:138,2,35.9999989013672,2|0|2,0:0|0:0|0:0,0:0:0:0:
405,204,208504,6,0,P|379:212|332:196,1,71.9999978027344,8|0,0:0|0:0,0:0:0:0:
327,188,209147,1,2,0:0:0:0:
319,175,209361,2,0,L|336:273,2,71.9999978027344,2|2|8,0:0|0:0|0:0,0:0:0:0:
242,134,210647,6,0,L|254:95,1,35.9999989013672,2|0,0:0|0:0,0:0:0:0:
249,81,211076,2,0,L|261:37,2,35.9999989013672,0|2|2,0:0|0:0|0:0,0:0:0:0:
166,107,211933,6,0,P|137:95|91:102,1,71.9999978027344,10|2,0:0|0:0,0:0:0:0:
125,180,212790,2,0,B|152:249|94:270|134:342,1,143.999995605469,2|8,0:0|0:0,0:0:0:0:
190,377,214076,5,2,0:0:0:0:
251,315,214504,1,0,0:0:0:0:
190,253,214933,1,2,0:0:0:0:
272,228,215361,2,0,L|350:237,1,71.9999978027344,8|2,0:0|0:0,0:0:0:0:
427,213,216218,6,0,P|451:152|420:79,1,143.999995605469,2|8,0:0|0:0,0:0:0:0:
337,76,217504,1,2,0:0:0:0:
376,152,217933,2,0,P|454:157|501:97,1,143.999995605469,0|10,0:0|0:0,0:0:0:0:
307,212,219647,6,0,B|293:272|320:314|320:314|302:334|265:317,1,143.999995605469,4|8,1:2|0:0,0:0:0:0:
201,300,220933,1,2,0:0:0:0:
180,305,221147,1,8,0:0:0:0:
159,310,221361,2,0,L|82:297,1,71.9999978027344,2|10,0:0|0:0,0:0:0:0:
75,212,222218,2,0,L|1:230,2,71.9999978027344,8|2|8,0:0|0:0|0:0,0:0:0:0:
116,136,223504,1,2,0:0:0:0:
77,60,223933,1,8,0:0:0:0:
116,136,224361,5,2,0:0:0:0:
131,150,224576,2,0,L|246:165,1,107.999996704102,8|8,0:0|0:0,0:0:0:0:
306,110,225647,2,0,P|317:86|309:39,2,71.9999978027344,8|2|8,0:0|0:0|0:0,0:0:0:0:
315,196,226933,1,2,0:0:0:0:
376,257,227361,6,0,P|298:281|238:231,1,143.999995605469,8|0,0:0|0:0,0:0:0:0:
183,306,228647,1,10,0:0:0:0:
110,353,229076,2,0,P|80:361|32:343,1,71.9999978027344,8|2,0:0|0:0,0:0:0:0:
58,265,229933,6,0,B|65:222|41:198|41:198|65:174|55:110,1,143.999995605469,8|8,0:0|0:0,0:0:0:0:
119,70,231218,5,2,0:0:0:0:
108,59,231433,2,0,L|222:70,1,107.999996704102,8|10,0:0|0:0,0:0:0:0:
299,47,232504,1,8,0:0:0:0:
399,188,233361,6,0,B|433:226|426:294|366:316,1,143.999995605469,4|8,1:2|0:0,0:0:0:0:
293,331,234647,1,2,0:0:0:0:
237,264,235076,2,0,L|161:263,1,71.9999978027344,0|10,0:0|0:0,0:0:0:0:
93,310,235933,2,0,P|80:285|87:229,1,71.9999978027344,8|2,0:0|0:0,0:0:0:0:
32,170,236790,6,0,P|59:155|108:160,1,71.9999978027344,8|2,0:0|0:0,0:0:0:0:
182,177,237647,2,0,P|201:140|179:60,1,107.999996704102,8|8,0:0|0:0,0:0:0:0:
178,62,238504,2,0,P|153:41|100:41,2,71.9999978027344,2|10|8,0:0|0:0|0:0,0:0:0:0:
116,122,239790,1,2,0:0:0:0:
165,192,240218,2,0,B|145:245|168:293|168:293|137:296|111:272,1,143.999995605469,12|8,0:0|0:0,0:0:0:0:
66,345,241504,5,2,0:0:0:0:
66,345,241718,1,8,0:0:0:0:
66,345,241933,2,0,L|-10:357,2,71.9999978027344,2|10|8,0:0|0:0|0:0,0:0:0:0:
148,371,243218,1,2,0:0:0:0:
229,342,243647,6,0,B|288:364|341:335|341:335|370:357,1,143.999995605469,8|8,0:0|0:0,0:0:0:0:
445,324,244933,1,2,0:0:0:0:
458,302,245147,1,8,0:0:0:0:
462,277,245361,2,0,P|467:249|452:194,1,71.9999978027344,2|10,0:0|0:0,0:0:0:0:
382,165,246218,1,8,0:0:0:0:
432,95,246647,2,0,L|510:95,1,71.9999978027344,2|4,0:0|0:0,0:0:0:0:
256,192,247290,12,8,250504,0:0:0:0:
230,135,260790,6,0,B|262:108|264:51|226:19,1,120,4|8,0:0|0:0,0:0:0:0:
166,77,262076,1,2,0:0:0:0:
140,157,262504,2,0,L|181:227,1,60,0|10,0:0|0:0,0:0:0:0:
123,278,263361,6,0,L|182:305,1,60,8|2,0:0|0:0,0:0:0:0:
120,365,264219,2,0,L|54:335,2,60,8|2|8,0:0|0:0|0:0,0:0:0:0:
179,303,265504,5,2,0:0:0:0:
214,326,265719,1,8,0:0:0:0:
255,329,265933,2,0,B|307:339|355:321|355:321|383:341,1,120,2|8,0:0|0:0,0:0:0:0:
435,279,267219,1,2,0:0:0:0:
448,196,267647,2,0,P|463:143|438:70,1,120,8|8,0:0|0:0,0:0:0:0:
369,48,268933,5,2,0:0:0:0:
369,48,269147,1,8,0:0:0:0:
369,48,269361,2,0,L|306:58,1,60,2|10,0:0|0:0,0:0:0:0:
250,116,270218,2,0,B|215:99|205:28|248:2,1,120,8|8,0:0|0:0,0:0:0:0:
309,57,271504,1,0,0:0:0:0:
333,138,271933,5,8,0:0:0:0:
330,152,272147,1,0,0:0:0:0:
327,166,272361,1,2,0:0:0:0:
324,180,272576,1,8,0:0:0:0:
321,194,272790,2,0,L|338:278,1,60,2|10,0:0|0:0,0:0:0:0:
288,324,273647,2,0,B|247:315|211:341|160:327,1,120,8|4,0:0|0:0,0:0:0:0:
256,192,274718,12,4,277933,0:0:0:0:
