osu file format v12

[General]
AudioFilename: flyoutpv.mp3
AudioLeadIn: 0
PreviewTime: 55759
Countdown: 0
SampleSet: Soft
StackLeniency: 0.7
Mode: 0
LetterboxInBreaks: 0

[Editor]
DistanceSpacing: 1.2
BeatDivisor: 8
GridSize: 64

[Metadata]
Title:Fly Out (PV Ver.)
TitleUnicode:Fly Out (PV Ver.)
Artist:livetune
ArtistUnicode:livetune
Creator:those
Version:Normal
Source:
Tags:vocaloid tell your world ep kz hatsune miku
BeatmapID:225445
BeatmapSetID:81136

[Difficulty]
HPDrainRate:4
CircleSize:4
OverallDifficulty:4
ApproachRate:5
SliderMultiplier:1.7
SliderTickRate:2

[Events]
//Background and Video events
Video,0,"flyoutpv.flv"
0,0,"flyout.jpg",1,1
//Break Periods
//Storyboard Layer 0 (Background)
//Storyboard Layer 1 (Fail)
//Storyboard Layer 2 (Pass)
//Storyboard Layer 3 (Foreground)
Sprite,Foreground,Centre,"nothing.jpg",320,240 M,0,93139,,320,240
//Storyboard Sound Samples
//Background Colour Transformations
3,100,0,0,0

[TimingPoints]
11328,705.260064648839,4,2,1,30,1,0
11328,-100,4,2,1,50,0,0
44475,-100,4,2,1,40,0,0
44827,-100,4,2,1,50,0,0
54348,-100,4,2,1,55,0,0
55054,-100,4,2,1,60,0,0
55759,-100,4,2,1,30,0,0
56464,-100,4,2,1,60,0,1
79032,-100,4,2,1,20,0,0
81854,-100,4,2,1,30,0,0

[Colours]
Combo1 : 67,75,84
Combo2 : 255,255,0
Combo3 : 190,5,190
Combo4 : 81,228,73

[HitObjects]
256,192,8506,12,0,10622,1:0:0:0:
259,329,11328,6,0,B|344:302|344:302|392:311,2,127.5,4|2|0,1:0|0:0|0:0,0:0:0:0:
184,346,12738,2,0,P|139:350|40:283,1,170,0|0,0:0|1:0,0:0:0:0:
88,223,13796,1,0,0:0:0:0:
161,244,14149,6,0,B|202:256|202:256|240:234|285:238,1,127.5,0|2,1:0|0:0,0:0:0:0:
395,263,15206,1,0,0:0:0:0:
465,233,15559,2,0,P|469:191|451:150,1,85,0|0,0:0|1:0,0:0:0:0:
481,81,16264,2,0,P|435:68|381:68,1,85,0|0,1:0|0:0,0:0:0:0:
330,102,16970,6,0,P|256:117|195:84,2,127.5,0|2|0,1:0|0:0|0:0,0:0:0:0:
374,164,18380,2,0,B|405:244|405:244|369:323,1,170,0|0,0:0|1:0,0:0:0:0:
220,289,19791,6,0,B|136:276|136:276|88:289,1,127.5,0|2,1:0|0:0,0:0:0:0:
43,184,20849,1,0,0:0:0:0:
114,155,21201,2,0,P|162:145|200:152,1,85,0|0,0:0|1:0,0:0:0:0:
269,175,21906,1,0,1:0:0:0:
336,138,22259,1,0,0:0:0:0:
412,144,22612,6,0,P|475:196|475:247,2,127.5,4|2|0,1:0|0:0|0:0,0:0:0:0:
405,220,24022,2,0,B|282:256|282:256|242:246,1,170,0|0,0:0|1:0,0:0:0:0:
91,275,25433,6,0,P|72:214|89:154,1,127.5,0|2,1:0|0:0,0:0:0:0:
189,210,26491,1,0,0:0:0:0:
257,243,26843,2,0,P|302:247|342:237,1,85,0|0,0:0|1:0,0:0:0:0:
413,215,27548,2,0,P|418:258|430:305,1,85,0|0,1:0|0:0,0:0:0:0:
354,321,28254,6,0,B|313:334|313:334|243:318|228:324,2,127.5,0|2|0,1:0|0:0|0:0,0:0:0:0:
334,246,29664,2,0,P|328:196|383:94,1,170,0|0,0:0|1:0,0:0:0:0:
238,61,31075,6,0,B|174:48|152:52|152:52|114:74,1,127.5,0|2,1:0|0:0,0:0:0:0:
137,185,32133,1,0,0:0:0:0:
188,241,32485,2,0,B|152:261|152:261|130:265|66:252,2,127.5,0|0|0,1:0|1:0|0:0,0:0:0:0:
255,206,33896,6,0,P|340:184|413:214,1,170,4|2,1:0|0:0,0:0:0:0:
378,282,34954,1,0,0:0:0:0:
339,347,35306,2,0,B|374:369|374:369|468:355,2,127.5,4|2|0,0:0|0:0|0:0,0:0:0:0:
278,299,36717,6,0,P|203:269|122:298,1,170,0|2,1:0|0:0,0:0:0:0:
45,296,37775,1,0,0:0:0:0:
41,219,38127,2,0,P|36:173|43:133,1,85,4|0,0:0|1:0,0:0:0:0:
30,59,38833,2,0,P|77:53|119:50,1,85,0|0,1:0|0:0,0:0:0:0:
181,87,39538,6,0,B|225:101|225:101|350:82,1,170,0|2,1:0|0:0,0:0:0:0:
422,68,40596,1,0,0:0:0:0:
462,132,40948,2,0,B|473:154|472:175|472:175|455:216|471:269,2,127.5,4|2|0,0:0|0:0|0:0,0:0:0:0:
392,165,42359,6,0,P|306:170|255:165,2,127.5,0|0|2,1:0|0:0|0:0,0:0:0:0:
386,241,43769,2,0,P|338:241|293:244,2,85,4|0|8,0:0|1:0|1:0,0:0:0:0:
374,316,44827,1,0,0:0:0:0:
298,330,45180,6,0,B|258:319|214:318|214:318|172:331|126:329,1,170,4|2,1:0|0:0,0:0:0:0:
55,312,46238,1,0,0:0:0:0:
34,238,46591,2,0,P|42:156|30:106,2,127.5,4|2|0,0:0|0:0|0:0,0:0:0:0:
109,247,48001,6,0,B|193:254|193:254|238:237|283:236,1,170,0|2,1:0|0:0,0:0:0:0:
282,312,49059,1,0,0:0:0:0:
339,364,49412,2,0,P|387:366|437:357,1,85,4|0,0:0|1:0,0:0:0:0:
500,348,50117,2,0,P|492:299|496:249,1,85,0|0,1:0|0:0,0:0:0:0:
500,187,50822,6,0,B|507:144|507:144|486:20,1,170,0|2,1:0|0:0,0:0:0:0:
410,16,51880,1,0,0:0:0:0:
341,47,52233,2,0,P|258:63|198:38,2,127.5,4|2|0,0:0|0:0|0:0,0:0:0:0:
359,121,53643,6,0,P|362:163|368:207,1,85,0|0,1:0|0:0,0:0:0:0:
364,281,54348,2,0,P|408:276|452:266,2,85,2|0|0,0:0|0:0|0:0,0:0:0:0:
360,285,55759,1,2,0:0:0:0:
356,289,56464,6,2,P|275:255|186:270,1,170,4|8,1:0|0:0,0:0:0:0:
124,290,57522,1,0,0:0:0:0:
68,238,57875,2,0,P|69:194|32:116,2,127.5,2|2|0,0:0|0:0|0:0,0:0:0:0:
145,242,59285,6,2,P|232:256|304:221,1,170,0|8,1:0|0:0,0:0:0:0:
305,144,60343,1,2,0:0:0:0:
368,99,60696,2,0,L|455:114,1,85,0|2,0:0|0:0,0:0:0:0:
484,183,61401,1,8,0:0:0:0:
423,229,61754,1,0,0:0:0:0:
451,299,62106,6,2,P|387:336|275:313,1,170,4|8,0:0|0:0,0:0:0:0:
220,307,63164,1,0,0:0:0:0:
148,280,63517,2,0,P|101:271|22:293,2,127.5,2|2|0,0:0|0:0|0:0,0:0:0:0:
201,224,64927,6,2,P|207:179|206:137,1,85,0|0,1:0|0:0,0:0:0:0:
149,88,65633,1,8,0:0:0:0:
221,60,65985,1,0,0:0:0:0:
284,104,66338,2,0,P|327:113|374:104,2,85,2|0|8,0:0|1:0|0:0,0:0:0:0:
171,206,67748,6,2,P|256:229|317:295,1,170,4|8,1:0|0:0,0:0:0:0:
388,290,68806,1,0,0:0:0:0:
444,238,69159,2,0,P|443:194|480:116,2,127.5,2|2|0,0:0|0:0|0:0,0:0:0:0:
367,242,70569,6,2,P|280:256|208:221,1,170,0|8,1:0|0:0,0:0:0:0:
207,144,71627,1,2,0:0:0:0:
144,99,71980,2,0,L|57:114,1,85,0|2,0:0|0:0,0:0:0:0:
28,183,72685,1,8,0:0:0:0:
89,229,73038,1,0,0:0:0:0:
61,299,73390,6,2,P|125:336|237:313,1,170,4|8,0:0|0:0,0:0:0:0:
292,307,74448,1,0,0:0:0:0:
364,280,74801,2,0,P|411:271|490:293,2,127.5,2|2|0,0:0|0:0|0:0,0:0:0:0:
298,240,76211,6,0,P|257:226|212:231,1,85,0|0,1:0|0:0,0:0:0:0:
141,241,76917,2,0,L|126:156,1,85,8|2,0:0|0:0,0:0:0:0:
202,150,77622,2,0,B|264:129|306:170|368:150,2,170,0|8|0,0:0|0:0|0:0,0:0:0:0:
256,192,79209,8,0,81854,0:0:0:0:
