osu file format v12

[General]
AudioFilename: flyoutpv.mp3
AudioLeadIn: 0
PreviewTime: 55759
Countdown: 0
SampleSet: Soft
StackLeniency: 0.7
Mode: 0
LetterboxInBreaks: 0

[Editor]
DistanceSpacing: 1.2
BeatDivisor: 8
GridSize: 64

[Metadata]
Title:Fly Out (PV Ver.)
TitleUnicode:Fly Out (PV Ver.)
Artist:livetune
ArtistUnicode:livetune
Creator:those
Version:Hard
Source:
Tags:vocaloid tell your world ep kz hatsune miku
BeatmapID:225387
BeatmapSetID:81136

[Difficulty]
HPDrainRate:6
CircleSize:4
OverallDifficulty:7
ApproachRate:7
SliderMultiplier:2.6
SliderTickRate:1

[Events]
//Background and Video events
Video,0,"flyoutpv.flv"
0,0,"flyout.jpg",1,1
//Break Periods
//Storyboard Layer 0 (Background)
//Storyboard Layer 1 (Fail)
//Storyboard Layer 2 (Pass)
//Storyboard Layer 3 (Foreground)
Sprite,Foreground,Centre,"nothing.jpg",320,240 M,0,93139,,320,240
//Storyboard Sound Samples
//Background Colour Transformations
3,100,0,0,0

[TimingPoints]
11328,705.260064648839,4,2,1,30,1,0
11328,-100,4,2,1,50,0,0
54348,-100,4,2,1,55,0,0
55054,-100,4,2,1,60,0,0
55759,-100,4,2,1,30,0,0
56464,-100,4,2,1,60,0,1
67572,-100,4,2,1,30,0,1
67748,-100,4,2,1,60,0,1
78856,-100,4,2,1,30,0,1
79032,-100,4,2,1,20,0,0
81854,-100,4,2,1,30,0,0

[Colours]
Combo1 : 67,75,84
Combo2 : 255,255,0
Combo3 : 190,5,190
Combo4 : 81,228,73

[HitObjects]
256,192,8506,12,0,10622,1:0:0:0:
55,94,11328,6,0,B|150:74|150:74|183:85,1,130,4|0,1:0|0:0,0:0:0:0:
253,113,11856,2,0,P|312:130|377:116,1,130,2|2,0:0|0:0,0:0:0:0:
451,87,12385,2,0,B|463:57|463:57|461:25,1,65
440,164,12738,1,0,0:0:0:0:
439,241,12914,2,0,B|431:291|454:337|454:337|423:345,1,130,0|2,0:0|0:0,0:0:0:0:
348,324,13443,5,0,1:0:0:0:
270,332,13620,2,0,L|266:366,2,32.5,2|0|0,0:0|0:0|0:0,0:0:0:0:
194,311,13972,1,0,0:0:0:0:
116,322,14149,6,0,B|94:258|94:258|99:194,1,130,0|0,1:0|0:0,0:0:0:0:
111,118,14677,2,0,P|107:73|87:38,2,65,2|0|2,0:0|0:0|0:0,0:0:0:0:
173,165,15206,1,0,0:0:0:0:
250,172,15383,1,0,0:0:0:0:
325,152,15559,2,0,P|363:143|388:142,1,65
271,94,15912,2,0,P|262:56|261:31,1,65,0|2,0:0|0:0,0:0:0:0:
322,230,16264,5,0,1:0:0:0:
296,304,16441,2,0,L|315:334,2,32.5,2|0|2,0:0|0:0|0:0,0:0:0:0:
230,346,16793,1,0,0:0:0:0:
153,363,16970,6,0,P|93:374|25:353,1,130,0|0,1:0|0:0,0:0:0:0:
17,277,17499,2,0,B|34:248|34:248|23:148,1,130,2|2,0:0|0:0,0:0:0:0:
14,74,18027,1,0,0:0:0:0:
90,90,18204,1,0,0:0:0:0:
158,53,18380,1,0,0:0:0:0:
202,117,18556,2,0,B|206:166|187:213|187:213|156:222,1,130,0|2,0:0|0:0,0:0:0:0:
103,278,19085,5,0,1:0:0:0:
137,347,19262,2,0,L|122:375,2,32.5,2|0|0,0:0|0:0|0:0,0:0:0:0:
213,361,19614,1,0,0:0:0:0:
280,321,19791,6,0,P|338:303|405:315,1,130,0|0,1:0|0:0,0:0:0:0:
478,341,20320,2,0,B|499:365|499:365|482:321|495:269,1,130,2|2,0:0|0:0,0:0:0:0:
462,122,20849,1,0,0:0:0:0:
379,192,21025,1,0,0:0:0:0:
457,199,21201,1,0,0:0:0:0:
383,113,21377,2,0,P|323:100|255:108,1,130,0|2,0:0|0:0,0:0:0:0:
225,240,21906,6,0,P|225:213|218:176,1,65,0|2,1:0|0:0,0:0:0:0:
132,106,22259,2,2,P|132:133|140:171,1,65,2|0,0:0|0:0,0:0:0:0:
225,240,22612,6,0,B|276:247|319:223|319:223|353:226,1,130,4|0,1:0|0:0,0:0:0:0:
469,288,23141,2,0,B|418:281|375:305|375:305|343:303,1,130,2|2,0:0|0:0,0:0:0:0:
266,374,23670,2,0,P|268:347|264:310,1,65
187,322,24022,1,0,0:0:0:0:
111,302,24198,2,0,B|61:285|14:297|14:297|20:275|18:257,1,130,0|2,0:0|0:0,0:0:0:0:
10,188,24727,5,0,1:0:0:0:
79,153,24904,2,0,L|82:121,2,32.5,2|0|0,0:0|0:0|0:0,0:0:0:0:
125,216,25256,1,0,0:0:0:0:
201,231,25433,6,0,B|220:183|205:135|205:135|224:108,1,130,0|0,1:0|0:0,0:0:0:0:
318,13,25962,2,0,B|299:61|314:109|314:109|296:136,1,130,2|2,0:0|0:0,0:0:0:0:
352,220,26491,2,0,P|319:223|289:214,1,65
414,267,26843,1,0,0:0:0:0:
342,298,27020,1,0,0:0:0:0:
490,282,27196,2,0,P|498:315|493:345,1,65,0|2,0:0|0:0,0:0:0:0:
468,206,27548,5,0,1:0:0:0:
480,129,27725,2,0,L|515:127,2,32.5,2|0|2,0:0|0:0|0:0,0:0:0:0:
455,54,28077,1,0,0:0:0:0:
399,108,28254,6,0,P|334:122|275:105,1,130,0|0,1:0|0:0,0:0:0:0:
203,77,28783,2,0,B|171:66|171:66|76:86,1,130,2|2,0:0|0:0,0:0:0:0:
19,140,29312,1,0,0:0:0:0:
56,208,29488,1,0,0:0:0:0:
25,279,29664,1,0,0:0:0:0:
83,330,29841,2,0,B|114:338|114:338|160:310|207:317,1,130,0|2,0:0|0:0,0:0:0:0:
282,340,30370,5,0,1:0:0:0:
326,276,30546,2,0,L|358:268,2,32.5,2|0|0,0:0|0:0|0:0,0:0:0:0:
274,217,30898,1,0,0:0:0:0:
203,248,31075,6,0,B|173:255|173:255|74:242,1,130,0|0,1:0|0:0,0:0:0:0:
30,177,31604,2,0,P|24:146|28:113,2,65,2|0|2,0:0|0:0|0:0,0:0:0:0:
95,72,32133,1,0,0:0:0:0:
172,66,32309,1,0,0:0:0:0:
246,89,32485,2,0,B|265:90|265:90|309:54|309:54|329:56,2,97.5,0|0|2,1:0|1:0|0:0,0:0:0:0:
192,144,33191,6,0,L|185:208,1,65,0|2,1:0|0:0,0:0:0:0:
253,294,33543,2,2,L|260:230,1,65,2|0,0:0|0:0,0:0:0:0:
192,144,33896,6,0,P|132:126|68:154,1,130,4|0,1:0|0:0,0:0:0:0:
96,224,34425,1,2,0:0:0:0:
53,289,34601,2,0,P|41:325|39:351,1,65,8|2,0:0|0:0,0:0:0:0:
122,324,34954,2,0,P|154:330|192:327,1,65
271,257,35306,2,0,P|239:251|207:253,1,65,2|0,0:0|0:0,0:0:0:0:
290,333,35659,2,2,B|355:341|355:341|389:324|421:322,1,130,0|8,1:0|0:0,0:0:0:0:
418,101,36364,6,0,P|386:113|353:113,1,65,2|0,0:0|0:0,0:0:0:0:
279,96,36717,6,0,B|184:73|184:73|151:78,1,130,0|0,1:0|0:0,0:0:0:0:
80,110,37246,2,0,P|63:73|62:48,1,65,2|8,0:0|0:0,0:0:0:0:
88,187,37598,2,0,B|106:236|86:284|86:284|108:307,1,130,2|0,0:0|0:0,0:0:0:0:
173,347,38127,1,2,0:0:0:0:
246,320,38304,1,0,0:0:0:0:
321,340,38480,2,2,B|351:281|351:281|333:202,1,130,0|8,1:0|0:0,0:0:0:0:
54,271,39185,5,2,0:0:0:0:
135,65,39538,6,0,P|202:48|264:63,1,130,0|0,1:0|0:0,0:0:0:0:
322,108,40067,1,2,0:0:0:0:
398,92,40243,2,0,L|403:27,1,65,8|2,0:0|0:0,0:0:0:0:
439,158,40596,2,0,L|433:222,1,65,0|0,0:0|0:0,0:0:0:0:
376,275,40948,1,2,0:0:0:0:
440,319,41125,1,0,0:0:0:0:
378,366,41301,2,2,P|315:369|249:365,1,130,0|8,1:0|0:0,0:0:0:0:
65,250,42006,6,0,P|60:276|66:313,1,65,2|0,0:0|0:0,0:0:0:0:
143,248,42359,6,0,P|158:183|140:115,1,130,0|0,1:0|0:0,0:0:0:0:
75,84,42888,2,0,L|123:41,1,65,2|8,0:0|0:0,0:0:0:0:
199,59,43241,1,2,0:0:0:0:
277,52,43417,2,0,B|341:48|341:48|408:68,1,130,0|2,0:0|0:0,0:0:0:0:
368,136,43946,1,0,0:0:0:0:
447,132,44122,2,2,P|455:167|441:276,1,130,0|8,1:0|0:0,0:0:0:0:
382,304,44651,6,0,P|389:334|396:367,2,65,0|2|0,2:0|2:2|2:0,0:0:0:0:
311,337,45180,6,0,P|236:320|165:332,1,130,4|0,1:0|0:0,0:0:0:0:
109,349,45709,1,2,0:0:0:0:
38,316,45885,2,0,P|30:279|34:252,1,65,8|2,0:0|0:0,0:0:0:0:
105,166,46238,2,0,P|113:203|109:230,1,65,0|0,0:0|0:0,0:0:0:0:
45,116,46591,1,2,0:0:0:0:
117,86,46767,1,0,0:0:0:0:
184,126,46943,2,2,B|214:137|214:137|328:121,1,130,0|8,1:0|0:0,0:0:0:0:
119,230,47648,6,0,L|195:219,1,65,2|0,0:0|0:0,0:0:0:0:
277,312,48001,6,0,P|281:248|255:189,1,130,0|0,1:0|0:0,0:0:0:0:
194,139,48530,2,0,P|189:104|194:74,1,65,2|8,0:0|0:0,0:0:0:0:
265,107,48883,2,0,P|337:92|406:112,1,130,2|0,0:0|0:0,0:0:0:0:
400,182,49412,1,2,0:0:0:0:
473,157,49588,1,0,0:0:0:0:
465,234,49764,2,2,B|443:284|463:330|463:330|436:349,1,130,0|8,1:0|0:0,0:0:0:0:
284,196,50469,5,2,0:0:0:0:
125,325,50822,6,0,B|110:354|110:354|120:305|103:252,1,130,0|0,1:0|0:0,0:0:0:0:
43,209,51351,1,2,0:0:0:0:
101,157,51527,2,0,P|107:126|101:93,1,65,8|2,0:0|0:0,0:0:0:0:
178,165,51880,2,0,P|172:196|179:234,1,65,0|0,0:0|0:0,0:0:0:0:
223,291,52233,1,2,0:0:0:0:
291,327,52409,1,0,0:0:0:0:
368,328,52585,2,2,P|431:308|468:256,1,130,0|8,1:0|0:0,0:0:0:0:
97,199,53290,6,0,P|99:164|97:131,2,65,2|0|0,0:0|0:0|1:0,0:0:0:0:
168,167,54348,5,2,0:0:0:0:
245,160,55054,1,2,0:0:0:0:
321,176,55759,5,2,0:0:0:0:
479,192,56464,6,0,P|432:238|370:240,1,130,4|0,1:0|0:0,0:0:0:0:
294,233,56993,1,2,0:0:0:0:
224,268,57169,2,0,P|218:300|219:332,1,65,0|2,1:0|0:0,0:0:0:0:
176,205,57522,2,0,P|144:199|112:200,1,65,0|0,0:0|0:0,0:0:0:0:
38,227,57875,1,0,0:0:0:0:
37,147,58051,1,2,0:0:0:0:
38,227,58227,1,0,1:0:0:0:
39,70,58580,6,0,P|73:62|113:64,1,65,0|0,1:0|0:0,0:0:0:0:
161,113,58933,1,2,0:0:0:0:
233,84,59109,1,0,0:0:0:0:
305,113,59285,6,0,B|336:124|336:124|382:96|435:105,1,130,0|0,1:0|0:0,0:0:0:0:
501,133,59814,1,2,0:0:0:0:
470,204,59990,2,0,L|465:268,1,65,0|2,1:0|0:0,0:0:0:0:
382,327,60343,2,0,L|387:263,1,65,0|0,0:0|0:0,0:0:0:0:
310,245,60696,1,0,0:0:0:0:
232,245,60872,1,2,0:0:0:0:
156,263,61048,2,2,P|93:257|50:209,1,130,0|0,1:0|1:0,0:0:0:0:
89,141,61577,6,0,L|94:73,2,65,0|2|0,0:0|0:0|0:0,0:0:0:0:
163,163,62106,6,0,B|196:168|196:168|306:154,1,130,4|0,1:2|0:0,0:0:0:0:
344,97,62635,1,2,0:0:0:0:
415,128,62811,1,0,1:0:0:0:
408,205,62988,1,2,0:0:0:0:
471,281,63164,2,0,P|478:259|484:218,1,65
409,328,63517,1,0,0:0:0:0:
331,319,63693,1,2,0:0:0:0:
409,328,63869,1,0,1:0:0:0:
253,311,64222,6,0,P|211:311|174:319,1,65,0|0,1:0|0:0,0:0:0:0:
115,342,64575,1,2,0:0:0:0:
43,311,64751,1,0,0:0:0:0:
92,251,64927,6,0,P|99:184|69:118,2,130,0|0|0,1:0|0:0|1:0,0:0:0:0:
166,275,65809,1,2,0:0:0:0:
241,256,65985,2,0,P|274:252|308:258,1,65,2|0,0:0|0:0,0:0:0:0:
383,257,66338,2,0,L|391:183,1,65,0|2,0:0|0:0,0:0:0:0:
325,93,66690,2,0,L|319:158,1,65,2|0,1:2|0:0,0:0:0:0:
206,197,67043,5,0,1:0:0:0:
220,274,67219,1,2,0:0:0:0:
143,290,67396,1,0,0:0:0:0:
127,213,67572,1,0,0:0:0:0:
70,266,67748,6,0,B|55:294|55:294|54:237|24:186,1,130,4|0,1:0|0:0,0:0:0:0:
30,121,68277,1,2,0:0:0:0:
103,147,68454,2,0,P|139:150|184:138,1,65,0|2,1:0|0:0,0:0:0:0:
249,66,68806,2,0,P|213:63|185:69,1,65,0|0,0:0|0:0,0:0:0:0:
269,142,69159,1,0,0:0:0:0:
345,130,69335,1,2,0:0:0:0:
269,142,69511,1,0,1:0:0:0:
422,114,69864,6,0,P|434:148|439:180,1,65,0|0,1:0|0:0,0:0:0:0:
394,241,70217,1,2,0:0:0:0:
469,261,70393,1,0,0:0:0:0:
454,337,70569,6,0,B|391:323|391:323|330:348,1,130,0|0,1:0|0:0,0:0:0:0:
270,298,71098,1,2,0:0:0:0:
203,339,71275,2,0,P|169:339|132:335,1,65,0|2,1:0|0:0,0:0:0:0:
66,238,71627,2,0,P|63:269|67:303,1,65
135,201,71980,1,0,0:0:0:0:
208,226,72156,1,2,0:0:0:0:
281,199,72332,2,2,B|312:190|312:190|423:201,1,130,0|0,1:0|1:0,0:0:0:0:
418,277,72861,6,0,L|354:271,2,65,0|2|0,0:0|0:0|0:0,0:0:0:0:
486,238,73390,6,0,P|498:171|479:108,1,130,4|0,1:2|0:0,0:0:0:0:
412,149,73919,1,2,0:0:0:0:
393,72,74096,1,0,1:0:0:0:
320,99,74272,1,2,0:0:0:0:
338,174,74448,2,0,P|299:190|260:202,1,65
204,142,74801,1,0,0:0:0:0:
202,220,74977,1,2,0:0:0:0:
204,142,75154,1,0,1:0:0:0:
200,297,75506,6,0,L|198:362,1,65,0|0,1:0|0:0,0:0:0:0:
272,338,75859,1,2,0:0:0:0:
349,342,76035,1,0,0:0:0:0:
389,275,76211,6,0,P|417:194|473:147,2,130,0|0|0,1:0|0:0|1:0,0:0:0:0:
313,256,77093,1,2,0:0:0:0:
329,179,77269,2,0,P|334:145|330:114,1,65,2|0,0:0|0:0,0:0:0:0:
254,36,77622,2,0,P|249:70|253:101,1,65,0|2,0:0|0:0,0:0:0:0:
216,169,77975,1,2,1:2:0:0:
139,154,78151,1,0,0:0:0:0:
79,204,78327,6,0,P|69:232|73:271,1,65,0|2,1:0|0:0,0:0:0:0:
43,340,78680,2,0,L|111:358,1,65
180,333,79032,1,0,0:0:0:0:
256,192,79121,8,0,81854,0:0:0:0:
