osu file format v13

[General]
AudioFilename: livetune - DECORATOR.mp3
AudioLeadIn: 0
PreviewTime: 114619
Countdown: 0
SampleSet: Soft
StackLeniency: 0.7
Mode: 0
LetterboxInBreaks: 0
WidescreenStoryboard: 0

[Editor]
DistanceSpacing: 1.2
BeatDivisor: 4
GridSize: 4
TimelineZoom: 1.6

[Metadata]
Title:DECORATOR
TitleUnicode:DECORATOR
Artist:livetune
ArtistUnicode:livetune
Creator:Sonico Makaron
Version:Insane
Source:
Tags:vocaloid wakamura hatsune miku project diva f 2nd kz selisi captin1 sweet vanilla acceleratorrus
BeatmapID:382332
BeatmapSetID:155945

[Difficulty]
HPDrainRate:7
CircleSize:4
OverallDifficulty:7
ApproachRate:9
SliderMultiplier:1.8
SliderTickRate:1

[Events]
//Background and Video events
0,0,"BG.jpg",0,0
Video,0,"video.avi"
//Break Periods
2,78523,87793
2,142299,151150
//Storyboard Layer 0 (Background)
//Storyboard Layer 1 (Fail)
//Storyboard Layer 2 (Pass)
//Storyboard Layer 3 (Foreground)
//Storyboard Sound Samples
//Background Colour Transformations
3,100,163,162,255

[TimingPoints]
7834,419.58041958042,4,2,1,60,1,0
7834,-100,4,2,1,100,0,1
7886,-100,4,2,1,80,0,0
21260,-100,4,2,1,60,0,0
34687,-133.333333333333,4,2,1,50,0,0
44547,-100,4,2,1,60,0,0
48113,-80,4,2,1,100,0,1
48166,-100,4,2,1,80,0,1
68253,-133.333333333333,4,2,1,50,0,0
73078,-100,4,2,1,60,0,0
74966,-100,4,2,1,80,0,0
88393,-133.333333333333,4,2,1,50,0,0
100141,-100,4,2,1,60,0,0
101820,-133.333333333333,4,2,1,50,0,0
111680,-100,4,2,1,60,0,0
115246,-80,4,2,1,100,0,1
115299,-100,4,2,1,80,0,1
135386,-133.333333333333,4,2,1,50,0,0
140211,-100,4,2,1,60,0,0
157204,-80,4,2,1,100,0,1
157257,-100,4,2,1,80,0,1
177344,-133.333333333333,4,2,1,50,0,0
182169,-100,4,2,1,60,0,0
200840,-100,4,2,1,5,0,0

[Colours]
Combo1 : 255,128,192
Combo2 : 128,255,255
Combo3 : 255,128,128
Combo4 : 128,255,128

[HitObjects]
156,70,6365,5,0,1:0:0:0:
133,60,6470,1,0,1:0:0:0:
108,69,6575,2,0,L|108:173,1,90,0|0,1:0|0:0,0:0:0:0:
261,274,6994,5,10,0:0:0:0:
270,244,7099,1,0,0:0:0:0:
271,213,7204,1,10,0:0:0:0:
267,182,7309,1,0,0:0:0:0:
250,156,7414,1,10,0:0:0:0:
166,207,7624,1,2,1:0:0:0:
339,297,7833,6,0,P|357:257|346:214,1,90,4|0,0:0|0:0,0:0:0:0:
250,156,8253,1,10,0:0:0:0:
245,125,8358,1,0,0:0:0:0:
254,95,8463,1,2,0:0:0:0:
145,294,8673,2,0,L|167:203,1,90,2|0,0:0|0:0,0:0:0:0:
78,70,9092,2,0,L|104:20,2,45,8|0|0,0:0|0:0|0:0,0:0:0:0:
75,81,9407,6,0,L|75:179,1,90,2|0,0:0|0:0,0:0:0:0:
76,207,9722,1,2,0:0:0:0:
145,294,9931,1,10,0:0:0:0:
249,223,10141,1,0,0:0:0:0:
256,188,10246,1,2,0:0:0:0:
182,91,10456,1,2,0:0:0:0:
143,225,10666,5,2,0:0:0:0:
132,252,10771,2,0,L|147:301,1,45,10|0,0:0|0:0,0:0:0:0:
249,346,10980,2,0,L|256:300,1,45,2|0,0:0|0:0,0:0:0:0:
333,148,11190,6,0,P|346:190|333:232,1,90,2|0,0:0|0:0,0:0:0:0:
251,71,11610,2,0,P|281:39|324:37,1,90,10|0,0:0|0:0,0:0:0:0:
356,55,11924,1,2,0:0:0:0:
346,182,12134,1,2,0:0:0:0:
346,182,12239,1,0,0:0:0:0:
143,225,12449,5,10,0:0:0:0:
149,194,12554,1,0,0:0:0:0:
164,167,12659,1,0,0:0:0:0:
188,148,12764,1,0,0:0:0:0:
219,146,12868,1,2,0:0:0:0:
342,213,13078,5,2,0:0:0:0:
157,308,13288,2,0,P|137:269|144:223,1,90,10|0,0:0|0:0,0:0:0:0:
68,173,13708,5,2,0:0:0:0:
157,308,13917,1,2,0:0:0:0:
219,146,14127,1,10,0:0:0:0:
219,115,14232,1,0,0:0:0:0:
219,101,14547,6,0,P|243:66|287:60,1,90,2|0,0:0|0:0,0:0:0:0:
333,274,14966,1,10,0:0:0:0:
342,244,15071,1,0,0:0:0:0:
342,213,15176,1,2,0:0:0:0:
219,101,15386,1,2,0:0:0:0:
317,146,15596,1,0,0:0:0:0:
300,275,15806,2,0,L|279:314,2,45,8|0|0,0:0|0:0|0:0,0:0:0:0:
168,332,16120,6,0,P|151:292|161:249,1,90,2|0,0:0|0:0,0:0:0:0:
177,216,16435,1,2,0:0:0:0:
250,284,16645,1,10,0:0:0:0:
83,346,16854,1,0,0:0:0:0:
79,310,16959,1,2,0:0:0:0:
110,199,17169,1,2,0:0:0:0:
28,57,17379,5,2,0:0:0:0:
28,57,17484,2,0,L|37:101,1,45,10|0,0:0|0:0,0:0:0:0:
110,199,17694,2,0,L|115:153,1,45,2|0,0:0|0:0,0:0:0:0:
190,37,17903,6,0,L|203:129,1,90,2|2,0:0|0:0,0:0:0:0:
250,284,18323,2,0,L|259:329,2,45,8|0|2,0:0|0:0|0:0,0:0:0:0:
260,249,18638,1,0,0:0:0:0:
394,143,18847,5,2,0:0:0:0:
394,125,18952,1,0,0:0:0:0:
383,106,19057,1,0,0:0:0:0:
358,97,19162,1,10,0:0:0:0:
331,112,19267,1,0,0:0:0:0:
315,144,19372,1,2,0:0:0:0:
319,184,19477,1,0,0:0:0:0:
330,227,19582,6,0,L|426:223,1,90,2|0,0:0|1:0,0:0:0:0:
451,205,19896,1,0,0:0:0:0:
418,308,20001,2,0,L|322:304,1,90,10|0,0:0|0:0,0:0:0:0:
173,355,20421,5,10,0:0:0:0:
148,334,20526,1,0,0:0:0:0:
136,305,20631,1,2,0:0:0:0:
133,274,20736,1,0,0:0:0:0:
141,244,20840,1,10,0:0:0:0:
188,98,21050,1,8,0:0:0:0:
141,244,21260,1,4,0:0:0:0:
50,134,21470,1,0,0:0:0:0:
141,244,21680,6,0,L|233:222,1,90,8|0,0:0|0:0,0:0:0:0:
326,345,22099,2,0,P|342:305|332:261,1,90,0|4,0:0|0:0,0:0:0:0:
391,174,22519,1,8,0:0:0:0:
326,345,22729,6,0,L|229:314,1,90,0|0,0:0|0:0,0:0:0:0:
279,133,23148,2,0,P|292:175|278:217,1,90,0|8,0:0|0:0,0:0:0:0:
152,328,23568,2,0,P|133:287|142:243,1,90,0|0,0:0|0:0,0:0:0:0:
128,111,23987,1,4,0:0:0:0:
206,132,24197,1,8,0:0:0:0:
188,44,24407,1,0,0:0:0:0:
141,245,24617,6,0,P|189:291|254:287,1,135,4|0,0:0|0:0,0:0:0:0:
331,348,25036,2,0,P|350:309|346:265,1,90,8|0,0:0|0:0,0:0:0:0:
310,108,25456,2,0,P|341:77|385:75,1,90,0|4,0:0|0:0,0:0:0:0:
433,193,25875,1,8,0:0:0:0:
331,348,26085,6,0,P|252:309|234:225,1,180
135,147,26715,1,8,0:0:0:0:
220,351,26924,2,0,P|297:311|315:225,1,180,0|4,0:0|0:0,0:0:0:0:
310,109,27554,1,8,0:0:0:0:
232,48,27764,1,0,0:0:0:0:
187,195,27973,1,4,0:0:0:0:
187,195,28393,6,0,P|174:238|190:283,1,90,8|0,0:0|0:0,0:0:0:0:
369,238,28813,2,0,P|349:199|310:178,1,90,0|4,0:0|0:0,0:0:0:0:
187,195,29232,1,8,0:0:0:0:
354,321,29442,6,0,P|375:282|369:238,1,90
487,127,29861,2,0,L|487:216,1,90,0|8,0:0|0:0,0:0:0:0:
434,348,30281,2,0,P|389:347|354:320,1,90,0|0,0:0|0:0,0:0:0:0:
292,217,30701,1,4,0:0:0:0:
299,137,30910,1,8,0:0:0:0:
193,100,31120,1,0,0:0:0:0:
256,285,31330,6,0,P|298:295|339:277,1,90,4|0,0:0|0:0,0:0:0:0:
365,179,31750,1,8,0:0:0:0:
195,341,31959,2,0,B|164:291|187:251|187:251|207:217|186:169,1,180,0|4,0:0|0:0,0:0:0:0:
115,212,32589,1,8,0:0:0:0:
316,341,32799,2,0,B|347:291|324:251|324:251|304:217|325:169,1,180,0|0,0:0|1:0,0:0:0:0:
332,144,33323,1,0,0:0:0:0:
346,121,33428,1,8,0:0:0:0:
466,203,33638,1,0,1:0:0:0:
316,341,33847,5,8,0:0:0:0:
303,312,33952,1,0,0:0:0:0:
293,281,34057,1,8,0:0:0:0:
295,250,34162,1,0,0:0:0:0:
308,223,34267,1,8,0:0:0:0:
191,118,34477,1,8,0:0:0:0:
308,223,34687,6,0,P|350:172|338:107,1,135.000005149842,4|0,0:0|0:0,0:0:0:0:
256,33,35316,1,4,3:0:0:0:
198,183,35526,2,0,P|187:153|192:117,1,67.5000025749208,4|4,3:0|0:0,0:0:0:0:
308,291,35945,6,0,L|308:217,1,67.5000025749208,8|0,0:0|0:0,0:0:0:0:
392,157,36365,2,0,L|392:314,1,135.000005149842,4|0,0:0|0:0,0:0:0:0:
256,352,36994,5,4,3:0:0:0:
168,348,37204,1,4,3:0:0:0:
126,271,37414,1,8,0:0:0:0:
126,271,37519,1,8,0:0:0:0:
126,271,37624,1,8,0:0:0:0:
168,348,37834,1,0,0:0:0:0:
94,189,38043,2,0,P|112:125|168:90,1,135.000005149842,4|0,0:0|0:0,0:0:0:0:
408,29,38673,5,4,3:0:0:0:
456,94,38882,1,4,3:0:0:0:
329,47,39092,1,4,0:0:0:0:
319,128,39302,1,8,0:0:0:0:
413,162,39512,1,0,0:0:0:0:
286,312,39722,2,0,P|255:253|267:187,1,135.000005149842,4|0,0:0|0:0,0:0:0:0:
256,39,40351,5,4,3:0:0:0:
158,78,40561,2,0,P|151:110|159:146,1,67.5000025749208,4|4,3:0|0:0,0:0:0:0:
216,236,40980,1,8,0:0:0:0:
158,144,41190,1,0,0:0:0:0:
348,185,41400,6,0,P|320:127|254:108,1,135.000005149842,4|0,0:0|0:0,0:0:0:0:
158,144,42029,1,4,3:0:0:0:
91,229,42239,2,0,L|91:309,1,67.5000025749208,4|4,3:0|0:0,0:0:0:0:
91,296,42659,5,8,0:0:0:0:
187,352,42868,1,4,3:0:0:0:
256,176,43288,1,8,0:0:0:0:
325,352,43708,2,0,P|391:351|431:300,1,135.000005149842,4|4,0:0|0:0,0:0:0:0:
490,230,44337,1,8,0:0:0:0:
419,50,44547,5,4,0:0:0:0:
404,60,44966,1,4,3:0:0:0:
392,74,45386,1,4,0:0:0:0:
294,29,45596,1,4,3:0:0:0:
262,297,45806,5,4,0:0:0:0:
256,314,46225,2,0,P|169:308|129:231,1,180,4|8,0:0|0:0,0:0:0:0:
124,201,46750,1,0,0:0:0:0:
130,170,46854,1,8,0:0:0:0:
390,314,47274,21,8,0:0:0:0:
408,283,47379,1,0,0:0:0:0:
412,247,47484,1,8,0:0:0:0:
404,212,47589,1,0,0:0:0:0:
378,187,47694,1,8,0:0:0:0:
280,175,47903,1,8,0:0:0:0:
478,267,48113,6,0,P|505:221|489:169,1,112.5,4|0,0:0|0:0,0:0:0:0:
370,74,48533,2,0,P|395:38|438:32,1,90,8|0,0:0|0:0,0:0:0:0:
488,168,48952,1,0,0:0:0:0:
412,247,49162,1,4,0:0:0:0:
488,168,49372,1,8,0:0:0:0:
330,308,49582,6,0,P|311:269|318:225,1,90,4|0,0:0|0:0,0:0:0:0:
176,62,50001,2,0,L|176:158,1,90,0|8,0:0|0:0,0:0:0:0:
172,324,50421,2,0,B|202:273|178:233|178:233|157:200|177:151,1,180,0|4,0:0|0:0,0:0:0:0:
306,133,51050,1,8,0:0:0:0:
248,35,51260,1,4,0:0:0:0:
174,224,51470,6,0,L|274:213,1,90,0|0,0:0|0:0,0:0:0:0:
318,111,51889,1,8,0:0:0:0:
353,333,52099,2,0,L|253:322,1,90,0|0,0:0|0:0,0:0:0:0:
91,237,52519,6,0,P|131:217|174:224,1,90,4|8,0:0|0:0,0:0:0:0:
189,336,52938,2,0,P|148:354|105:347,1,90,4|0,0:0|0:0,0:0:0:0:
44,166,53358,2,0,P|117:119|200:145,1,180
276,223,53987,1,0,0:0:0:0:
288,194,54197,5,4,0:0:0:0:
339,284,54407,1,8,0:0:0:0:
382,145,54617,1,4,0:0:0:0:
317,359,54827,6,0,P|279:336|265:294,1,90,0|0,0:0|0:0,0:0:0:0:
151,322,55246,2,0,P|137:281|150:239,1,90,8|0,0:0|0:0,0:0:0:0:
208,146,55666,1,0,0:0:0:0:
262,256,55875,1,4,0:0:0:0:
151,322,56085,1,8,0:0:0:0:
100,106,56295,6,0,P|130:74|174:72,1,90,4|0,0:0|0:0,0:0:0:0:
286,107,56715,2,0,P|299:149|285:191,1,90,0|8,0:0|0:0,0:0:0:0:
398,55,57134,6,0,L|490:24,1,90,4|0,0:0|0:0,0:0:0:0:
483,207,57554,2,0,L|397:178,1,90,4|8,0:0|0:0,0:0:0:0:
398,55,57973,1,4,0:0:0:0:
350,308,58183,6,0,P|308:317|270:294,1,90
204,199,58603,2,0,P|240:175|283:183,1,90,8|0,0:0|0:0,0:0:0:0:
451,357,59022,1,0,0:0:0:0:
350,308,59232,1,4,0:0:0:0:
428,214,59442,1,8,0:0:0:0:
398,55,59652,6,0,P|446:128|428:214,1,180,4|0,0:0|1:0,0:0:0:0:
411,241,60176,1,0,0:0:0:0:
385,259,60281,1,8,0:0:0:0:
317,146,60491,1,0,1:0:0:0:
398,55,60701,1,0,0:0:0:0:
315,237,60910,5,8,0:0:0:0:
303,203,61015,1,0,0:0:0:0:
305,167,61120,1,8,0:0:0:0:
398,55,61330,1,8,0:0:0:0:
341,319,61540,6,0,P|297:325|261:300,1,90,4|0,0:0|0:0,0:0:0:0:
139,262,61959,2,0,L|139:352,1,90,8|0,0:0|0:0,0:0:0:0:
42,216,62379,1,0,0:0:0:0:
149,126,62589,1,4,0:0:0:0:
139,262,62799,1,8,0:0:0:0:
90,69,63008,6,0,P|126:45|170:49,1,90,4|0,0:0|0:0,0:0:0:0:
339,156,63428,2,0,P|297:141|253:158,1,90,0|8,0:0|0:0,0:0:0:0:
418,340,63847,2,0,P|384:259|300:238,1,180,0|4,0:0|0:0,0:0:0:0:
290,358,64477,1,8,0:0:0:0:
301,238,64687,1,4,0:0:0:0:
127,150,64896,6,0,L|235:153,1,90,0|0,0:0|0:0,0:0:0:0:
300,248,65316,1,8,0:0:0:0:
124,244,65526,2,0,L|232:248,1,90,0|0,0:0|0:0,0:0:0:0:
342,89,65945,6,0,P|353:131|342:174,1,90,4|8,0:0|0:0,0:0:0:0:
215,333,66365,2,0,P|203:290|214:247,1,90,4|0,0:0|0:0,0:0:0:0:
342,89,66785,2,0,P|353:131|342:174,1,90,0|8,0:0|0:0,0:0:0:0:
83,54,67204,6,0,B|152:24|152:24|269:40,1,180,0|0,0:0|0:0,0:0:0:0:
342,89,67834,1,8,0:0:0:0:
351,205,68043,1,0,0:0:0:0:
256,323,68253,6,0,P|190:328|140:285,1,135.000005149842,4|8,0:0|0:0,0:0:0:0:
136,272,69092,1,0,0:0:0:0:
139,171,69302,1,4,0:0:0:0:
220,91,69512,2,0,L|299:74,1,67.5000025749208,8|4,0:0|0:0,0:0:0:0:
437,85,69931,2,0,P|460:146|437:208,1,135.000005149842,4|8,3:0|0:0,0:0:0:0:
415,336,70561,6,0,P|349:347|293:313,1,135.000005149842
246,225,71190,1,8,0:0:0:0:
173,293,71400,1,0,0:0:0:0:
110,187,71610,6,0,P|114:121|156:68,1,135.000005149842,4|8,0:0|0:0,0:0:0:0:
166,59,72449,2,0,P|197:47|230:47,1,67.5000025749208,0|4,0:0|0:0,0:0:0:0:
329,107,72868,1,10,0:0:0:0:
306,268,73078,5,4,0:0:0:0:
256,144,73288,1,8,0:0:0:0:
207,267,73498,1,8,0:0:0:0:
256,117,73708,1,8,0:0:0:0:
97,82,73917,6,0,L|100:140,1,45,8|0,0:0|0:0,0:0:0:0:
47,207,74127,2,0,L|68:254,1,45,8|0,0:0|0:0,0:0:0:0:
118,328,74337,1,8,0:0:0:0:
232,353,74547,2,0,L|337:354,1,90,8|0,0:0|0:0,0:0:0:0:
421,354,74966,1,4,0:0:0:0:
256,192,75071,12,2,78323,0:0:0:0:
115,84,88393,5,4,0:0:0:0:
97,177,88603,1,0,0:0:0:0:
142,274,88813,6,0,P|170:256|184:225,1,67.5000025749208,8|0,0:0|0:0,0:0:0:0:
174,121,89232,2,0,P|196:95|228:85,1,67.5000025749208,0|0,0:0|0:0,0:0:0:0:
311,125,89652,1,8,0:0:0:0:
459,218,89861,6,0,L|392:211,1,67.5000025749208,0|0,0:0|0:0,0:0:0:0:
317,348,90281,2,0,L|319:280,1,67.5000025749208,0|8,0:0|0:0,0:0:0:0:
173,211,90701,2,0,L|240:204,1,67.5000025749208,0|0,0:0|0:0,0:0:0:0:
240,204,91120,5,0,0:0:0:0:
327,250,91330,1,8,0:0:0:0:
317,143,91540,1,0,0:0:0:0:
317,348,91750,2,0,P|350:349|378:332,1,67.5000025749208,4|0,0:0|0:0,0:0:0:0:
491,353,92169,6,0,P|508:307|492:260,1,101.250003862381,8|0,0:0|0:0,0:0:0:0:
466,266,92589,2,0,P|477:235|474:202,1,67.5000025749208
442,107,93008,1,8,0:0:0:0:
318,38,93218,2,0,P|255:15|193:38,1,135.000005149842
162,181,93847,1,8,0:0:0:0:
175,157,94057,1,2,0:0:0:0:
186,292,94267,5,2,0:0:0:0:
81,250,94477,1,0,0:0:0:0:
162,181,94687,1,2,0:0:0:0:
183,314,94896,1,0,0:0:0:0:
175,157,95106,2,0,L|242:140,1,67.5000025749208,4|0,0:0|0:0,0:0:0:0:
351,241,95526,6,0,P|326:264|295:275,1,67.5000025749208,8|0,0:0|0:0,0:0:0:0:
240,140,95945,2,0,P|265:117|297:109,1,67.5000025749208
392,160,96365,1,8,0:0:0:0:
353,331,96575,6,0,P|320:324|291:305,1,67.5000025749208
197,351,96994,2,0,P|187:318|187:283,1,67.5000025749208,0|8,0:0|0:0,0:0:0:0:
83,312,97414,2,0,P|77:276|81:243,1,67.5000025749208
155,154,97834,5,0,0:0:0:0:
155,154,98043,1,8,0:0:0:0:
142,60,98253,1,0,0:0:0:0:
168,240,98463,6,0,P|200:245|230:230,1,67.5000025749208,4|0,0:0|0:0,0:0:0:0:
256,119,98882,1,8,0:0:0:0:
376,315,99092,2,0,P|404:256|387:193,1,135.000005149842
329,110,99722,1,8,0:0:0:0:
386,192,99931,1,0,0:0:0:0:
256,296,100141,5,8,0:0:0:0:
360,196,100351,1,8,0:0:0:0:
249,325,100561,2,0,L|160:299,1,90,8|0,0:0|0:0,0:0:0:0:
102,189,100875,5,0,0:0:0:0:
133,192,100980,1,8,0:0:0:0:
156,213,101085,1,0,0:0:0:0:
172,240,101190,1,8,0:0:0:0:
175,271,101295,1,0,0:0:0:0:
163,300,101400,2,0,L|68:294,1,90,8|0,0:0|0:0,0:0:0:0:
249,326,101820,6,0,P|297:281|361:291,1,135.000005149842,4|0,0:0|0:0,0:0:0:0:
393,373,102449,1,4,3:0:0:0:
249,326,102659,2,0,L|249:240,1,67.5000025749208,4|4,3:0|0:0,0:0:0:0:
105,104,103078,5,8,0:0:0:0:
104,90,103498,2,0,P|149:42|214:50,1,135.000005149842,4|0,0:0|0:0,0:0:0:0:
280,146,104127,5,4,3:0:0:0:
181,125,104337,1,4,3:0:0:0:
240,258,104547,1,8,0:0:0:0:
240,258,104652,1,8,0:0:0:0:
240,257,104757,1,8,0:0:0:0:
291,130,104966,1,0,0:0:0:0:
231,280,105176,2,0,P|275:329|341:334,1,135.000005149842,4|0,0:0|0:0,0:0:0:0:
477,173,105806,5,4,3:0:0:0:
377,145,106015,1,4,3:0:0:0:
471,198,106225,1,4,0:0:0:0:
388,119,106435,1,8,0:0:0:0:
472,57,106645,1,0,0:0:0:0:
471,198,106854,2,0,L|471:334,1,135.000005149842,4|0,0:0|0:0,0:0:0:0:
364,353,107484,5,4,3:0:0:0:
275,292,107694,2,0,L|272:208,2,67.5000025749208,4|4|8,3:0|0:0|0:0,0:0:0:0:
275,292,108323,1,0,0:0:0:0:
286,114,108533,6,0,P|237:70|172:78,1,135.000005149842,4|0,0:0|0:0,0:0:0:0:
88,143,109162,1,4,3:0:0:0:
96,244,109372,1,4,3:0:0:0:
97,256,109792,5,8,0:0:0:0:
170,143,110001,1,4,3:0:0:0:
256,312,110421,1,8,0:0:0:0:
342,144,110840,5,4,0:0:0:0:
349,132,111260,1,4,0:0:0:0:
426,56,111470,1,8,0:0:0:0:
469,231,111680,5,4,0:0:0:0:
467,249,112099,1,0,0:0:0:0:
464,267,112519,1,4,0:0:0:0:
418,159,112729,1,4,3:0:0:0:
281,353,112938,21,4,0:0:0:0:
263,354,113358,2,0,P|217:279|245:196,1,180,4|8,0:0|0:0,0:0:0:0:
261,171,113882,1,0,0:0:0:0:
283,149,113987,1,8,0:0:0:0:
508,181,114407,5,8,0:0:0:0:
510,146,114512,1,0,0:0:0:0:
507,111,114617,1,8,0:0:0:0:
490,80,114722,1,0,0:0:0:0:
468,52,114827,2,0,P|428:31|383:33,1,90,8|8,0:0|0:0,0:0:0:0:
391,274,115246,6,0,P|415:224|403:170,1,112.5,4|0,0:0|0:0,0:0:0:0:
272,51,115666,2,0,P|256:92|267:134,1,90,8|0,0:0|0:0,0:0:0:0:
302,247,116085,1,0,0:0:0:0:
268,135,116295,1,4,0:0:0:0:
302,247,116505,1,8,0:0:0:0:
122,70,116715,6,0,P|154:41|198:41,1,90,4|0,0:0|0:0,0:0:0:0:
141,212,117134,2,0,P|108:184|64:182,1,90,0|8,0:0|0:0,0:0:0:0:
137,348,117554,2,0,P|182:348|215:320,1,90,0|0,0:0|0:0,0:0:0:0:
290,217,117973,1,4,0:0:0:0:
215,320,118183,1,8,0:0:0:0:
143,160,118393,1,4,0:0:0:0:
137,348,118603,6,0,P|182:348|215:320,1,90
387,354,119022,1,8,0:0:0:0:
215,320,119232,2,0,L|223:220,1,90
349,98,119652,6,0,L|450:105,1,90,4|8,0:0|0:0,0:0:0:0:
387,354,120071,2,0,L|287:316,1,90,4|0,0:0|0:0,0:0:0:0:
201,140,120491,2,0,P|264:81|349:98,1,180
396,185,121120,1,0,0:0:0:0:
325,213,121330,5,4,0:0:0:0:
473,256,121540,2,0,L|467:353,1,90,8|4,0:0|0:0,0:0:0:0:
243,227,121959,2,0,P|281:206|325:213,1,90,0|0,0:0|0:0,0:0:0:0:
140,340,122379,2,0,P|123:298|135:255,1,90,8|0,0:0|0:0,0:0:0:0:
166,135,122799,5,0,0:0:0:0:
243,227,123008,1,4,0:0:0:0:
134,256,123218,1,8,0:0:0:0:
83,78,123428,6,0,L|180:63,1,90,4|0,0:0|0:0,0:0:0:0:
283,231,123847,2,0,L|191:221,1,90,0|8,0:0|0:0,0:0:0:0:
366,75,124267,6,0,P|325:62|283:76,1,90,4|0,0:0|0:0,0:0:0:0:
283,231,124687,2,0,P|324:245|366:231,1,90,4|8,0:0|0:0,0:0:0:0:
366,75,125106,1,4,0:0:0:0:
367,230,125316,5,0,0:0:0:0:
287,102,125526,1,0,0:0:0:0:
444,102,125736,1,8,0:0:0:0:
367,231,125945,1,0,0:0:0:0:
322,314,126155,1,0,0:0:0:0:
449,205,126365,1,4,0:0:0:0:
419,342,126575,1,8,0:0:0:0:
200,364,126785,2,0,P|185:323|198:280,1,90,4|0,0:0|0:0,0:0:0:0:
298,211,127204,5,0,1:0:0:0:
303,180,127309,1,0,0:0:0:0:
299,149,127414,1,8,0:0:0:0:
202,102,127624,1,0,1:0:0:0:
149,216,127834,1,0,0:0:0:0:
299,314,128043,5,8,0:0:0:0:
307,279,128148,1,0,0:0:0:0:
305,243,128253,1,8,0:0:0:0:
207,173,128463,1,8,0:0:0:0:
363,351,128673,6,0,L|463:351,1,90,4|0,0:0|0:0,0:0:0:0:
508,260,129092,2,0,L|508:164,1,90,8|0,0:0|0:0,0:0:0:0:
444,77,129512,1,0,0:0:0:0:
333,40,129722,1,4,0:0:0:0:
319,165,129931,1,8,0:0:0:0:
94,51,130141,6,0,P|135:33|179:39,1,90,4|0,0:0|0:0,0:0:0:0:
418,52,130561,2,0,P|376:34|332:40,1,90,0|8,0:0|0:0,0:0:0:0:
256,290,130980,2,0,L|256:174,1,90
125,198,131400,2,0,P|111:155|126:114,2,90,4|8|4,0:0|0:0|0:0,0:0:0:0:
126,362,132029,6,0,P|111:321|126:279,1,90
256,324,132449,1,8,0:0:0:0:
256,80,132659,2,0,L|256:179,1,90
256,324,133078,6,0,P|298:339|342:334,1,90,4|8,0:0|0:0,0:0:0:0:
417,225,133498,2,0,P|377:203|333:204,1,90,4|0,0:0|0:0,0:0:0:0:
173,102,133917,2,0,P|211:80|256:80,1,90,0|8,0:0|0:0,0:0:0:0:
417,58,134337,6,0,P|446:141|415:227,1,180,0|0,0:0|0:0,0:0:0:0:
328,301,134966,1,8,0:0:0:0:
257,197,135176,1,0,0:0:0:0:
295,57,135386,6,0,P|356:33|418:59,1,135.000005149842,4|8,0:0|0:0,0:0:0:0:
424,70,136225,1,0,0:0:0:0:
471,167,136435,1,4,0:0:0:0:
479,281,136645,2,0,P|467:312|446:338,1,67.5000025749208,8|4,0:0|0:0,0:0:0:0:
329,372,137064,2,0,P|268:346|237:287,1,135.000005149842,4|8,3:0|0:0,0:0:0:0:
137,242,137694,6,0,P|145:177|191:129,1,135.000005149842,0|4,0:0|0:0,0:0:0:0:
283,122,138323,1,8,0:0:0:0:
231,222,138533,1,0,0:0:0:0:
211,59,138743,6,0,P|270:28|334:45,1,135.000005149842,4|8,0:0|0:0,0:0:0:0:
339,55,139582,2,0,P|371:48|403:56,1,67.5000025749208,0|4,0:0|0:0,0:0:0:0:
502,104,140001,1,2,0:0:0:0:
431,269,140211,5,4,0:0:0:0:
441,148,140421,1,8,0:0:0:0:
360,299,140631,1,8,0:0:0:0:
486,213,140840,1,8,0:0:0:0:
270,299,141050,6,0,P|266:276|270:254,1,45,8|0,0:0|0:0,0:0:0:0:
360,255,141260,2,0,P|363:277|360:299,1,45,8|0,0:0|0:0,0:0:0:0:
317,370,141470,1,8,0:0:0:0:
159,351,141680,2,0,P|144:310|157:267,1,90,8|0,0:0|0:0,0:0:0:0:
256,185,142099,1,4,0:0:0:0:
169,301,151750,5,8,0:0:0:0:
129,168,151959,2,0,P|170:92|256:93,1,180,4|0,0:0|0:0,0:0:0:0:
255,93,152589,1,8,0:0:0:0:
443,333,153008,2,0,P|462:292|452:249,1,90,0|4,0:0|0:0,0:0:0:0:
331,275,153428,1,0,0:0:0:0:
443,333,153638,1,4,0:0:0:0:
256,192,153743,12,0,155316,0:0:0:0:
133,239,155526,5,8,0:0:0:0:
143,340,155736,1,8,0:0:0:0:
147,116,155945,1,8,0:0:0:0:
306,84,156155,6,0,P|329:86|350:94,1,45,8|0,0:0|0:0,0:0:0:0:
406,165,156365,2,0,P|404:187|398:209,1,45,8|0,0:0|0:0,0:0:0:0:
339,278,156575,1,8,0:0:0:0:
273,187,156785,1,8,0:0:0:0:
406,165,156994,1,0,0:0:0:0:
143,341,157204,6,0,P|118:291|133:238,1,112.5,4|0,0:0|0:0,0:0:0:0:
202,69,157624,2,0,P|220:109|209:151,1,90,8|0,0:0|0:0,0:0:0:0:
208,152,158043,1,0,0:0:0:0:
320,258,158253,1,4,0:0:0:0:
333,126,158463,1,8,0:0:0:0:
224,360,158673,6,0,P|179:364|142:340,1,90,4|0,0:0|0:0,0:0:0:0:
65,224,159092,2,0,P|109:227|146:203,1,90,0|8,0:0|0:0,0:0:0:0:
202,69,159512,2,0,P|161:48|118:60,1,90
62,210,159931,1,4,0:0:0:0:
154,283,160141,1,8,0:0:0:0:
153,143,160351,1,4,0:0:0:0:
64,360,160561,6,0,L|180:352,1,90
237,209,160980,1,8,0:0:0:0:
341,339,161190,2,0,P|357:297|352:253,1,90,0|0,0:0|0:0,0:0:0:0:
157,57,161610,6,0,P|144:99|153:143,1,90,4|8,0:0|0:0,0:0:0:0:
341,339,162029,2,0,P|357:297|352:253,1,90,4|0,0:0|0:0,0:0:0:0:
157,57,162449,2,0,P|127:140|152:225,1,180,0|0,0:0|0:0,0:0:0:0:
275,281,163078,1,0,0:0:0:0:
291,249,163288,5,4,0:0:0:0:
243,346,163498,1,8,0:0:0:0:
321,184,163708,1,4,0:0:0:0:
172,359,163917,2,0,P|145:325|145:280,1,90,0|0,0:0|0:0,0:0:0:0:
37,312,164337,2,0,P|20:272|31:229,1,90,8|0,0:0|0:0,0:0:0:0:
130,126,164757,5,0,0:0:0:0:
148,258,164966,1,4,0:0:0:0:
32,151,165176,1,8,0:0:0:0:
144,43,165386,6,0,L|233:29,1,90,4|0,0:0|0:0,0:0:0:0:
324,156,165806,2,0,L|235:154,1,90,0|8,0:0|0:0,0:0:0:0:
389,323,166225,5,4,0:0:0:0:
390,305,166645,1,4,0:0:0:0:
390,287,167064,1,4,0:0:0:0:
268,202,167274,5,0,0:0:0:0:
116,223,167484,1,0,0:0:0:0:
258,127,167694,1,8,0:0:0:0:
211,304,167903,1,0,0:0:0:0:
170,110,168113,1,0,0:0:0:0:
268,202,168323,1,4,0:0:0:0:
116,223,168533,1,8,0:0:0:0:
261,358,168743,2,0,P|302:373|344:358,1,90,4|0,0:0|0:0,0:0:0:0:
458,304,169162,5,0,1:0:0:0:
463,273,169267,1,0,0:0:0:0:
460,242,169372,1,8,0:0:0:0:
432,138,169582,1,0,1:0:0:0:
340,66,169792,1,0,0:0:0:0:
133,157,170001,5,8,0:0:0:0:
169,153,170106,1,0,0:0:0:0:
193,126,170211,1,8,0:0:0:0:
215,263,170421,1,8,0:0:0:0:
137,67,170631,6,0,L|132:170,1,90,4|0,0:0|0:0,0:0:0:0:
127,274,171050,1,8,0:0:0:0:
216,355,171260,2,0,L|305:376,2,90,0|0|4,0:0|0:0|0:0,0:0:0:0:
127,274,171889,1,8,0:0:0:0:
137,108,172099,6,0,P|174:84|218:87,1,90,4|0,0:0|0:0,0:0:0:0:
439,104,172519,2,0,P|452:146|438:188,1,90,0|8,0:0|0:0,0:0:0:0:
441,352,172938,2,0,B|470:268|470:268|425:238|441:172,1,180,0|4,0:0|0:0,0:0:0:0:
438,188,173568,1,8,0:0:0:0:
375,77,173778,1,4,0:0:0:0:
299,278,173987,6,0,P|255:286|214:270,1,90
143,358,174407,1,8,0:0:0:0:
133,187,174617,2,0,P|170:163|214:164,1,90
384,254,175036,6,0,P|344:273|299:278,1,90,4|8,0:0|0:0,0:0:0:0:
215,164,175456,2,0,P|258:151|302:153,1,90,4|0,0:0|0:0,0:0:0:0:
298,352,175875,2,0,P|253:354|211:338,1,90,0|8,0:0|0:0,0:0:0:0:
14,211,176295,6,0,P|49:131|134:113,1,180
231,243,176924,1,8,0:0:0:0:
141,275,177134,1,0,0:0:0:0:
133,113,177344,6,0,P|180:69|246:75,1,135.000005149842,4|8,0:0|0:0,0:0:0:0:
256,84,178183,1,0,0:0:0:0:
355,127,178393,1,4,0:0:0:0:
396,241,178603,2,0,L|386:321,1,67.5000025749208,8|4,0:0|0:0,0:0:0:0:
288,361,179022,2,0,P|223:370|164:339,1,135.000005149842,4|8,3:0|0:0,0:0:0:0:
52,352,179652,6,0,L|48:205,1,135.000005149842,0|4,0:0|0:0,0:0:0:0:
44,116,180281,1,8,0:0:0:0:
48,217,180491,1,0,0:0:0:0:
107,48,180701,6,0,L|247:34,1,135.000005149842,4|2,0:0|0:0,0:0:0:0:
255,33,181540,2,4,L|326:28,1,67.5000025749208,0|4,0:0|0:0,0:0:0:0:
409,109,181959,1,8,0:0:0:0:
358,233,182169,5,4,0:0:0:0:
409,109,182379,1,8,0:0:0:0:
257,194,182589,1,8,0:0:0:0:
240,305,182799,1,8,0:0:0:0:
384,355,183008,5,8,0:0:0:0:
420,351,183113,1,0,0:0:0:0:
445,325,183218,1,8,0:0:0:0:
459,292,183323,1,0,0:0:0:0:
455,256,183428,1,8,0:0:0:0:
333,60,183638,2,0,L|328:174,1,90,8|0,0:0|0:0,0:0:0:0:
322,276,184057,1,4,0:0:0:0:
256,192,184162,12,2,187414,0:0:0:0:
138,224,187624,5,0,0:0:0:0:
148,350,187834,2,0,L|255:342,1,90,10|0,0:0|0:0,0:0:0:0:
273,341,188148,1,2,0:0:0:0:
430,286,188358,1,2,0:0:0:0:
432,250,188463,1,2,0:0:0:0:
396,33,188673,6,0,L|392:94,1,45,2|0,0:0|0:0,0:0:0:0:
314,111,188882,2,0,L|321:169,1,45,2|0,0:0|0:0,0:0:0:0:
325,191,189092,1,10,0:0:0:0:
432,250,189302,5,0,0:0:0:0:
273,341,189512,2,0,P|253:302|259:258,1,90,10|0,0:0|0:0,0:0:0:0:
165,213,189931,5,2,0:0:0:0:
273,341,190141,1,2,0:0:0:0:
314,142,190351,1,10,0:0:0:0:
314,111,190456,1,0,0:0:0:0:
313,95,190771,6,0,P|278:70|234:74,1,90,2|0,0:0|0:0,0:0:0:0:
95,212,191190,1,10,0:0:0:0:
88,181,191295,1,0,0:0:0:0:
93,150,191400,1,2,0:0:0:0:
99,330,191610,2,0,P|143:333|179:308,1,90,2|0,0:0|0:0,0:0:0:0:
311,198,192029,2,0,L|303:256,2,45,8|0|0,0:0|0:0|0:0,0:0:0:0:
328,333,192344,6,0,P|370:320|393:283,1,90,2|0,0:0|0:0,0:0:0:0:
399,246,192659,1,2,0:0:0:0:
362,126,192868,1,10,0:0:0:0:
478,270,193078,1,0,0:0:0:0:
484,235,193183,1,2,0:0:0:0:
429,102,193393,1,2,0:0:0:0:
344,35,193603,5,0,0:0:0:0:
344,35,193708,2,0,L|386:21,1,45,10|0,0:0|0:0,0:0:0:0:
362,126,193917,2,0,L|317:119,1,45,2|0,0:0|0:0,0:0:0:0:
195,116,194127,6,0,L|195:214,1,90,2|0,0:0|0:0,0:0:0:0:
194,342,194547,1,8,0:0:0:0:
75,273,194757,1,0,0:0:0:0:
71,238,194861,1,2,0:0:0:0:
70,67,195071,5,2,0:0:0:0:
86,55,195176,1,0,0:0:0:0:
109,57,195281,1,0,0:0:0:0:
125,76,195386,1,2,0:0:0:0:
126,105,195491,1,0,0:0:0:0:
103,123,195596,1,2,0:0:0:0:
70,108,195701,1,0,0:0:0:0:
70,67,195806,6,0,L|170:42,1,90,2|0,0:0|1:0,0:0:0:0:
262,30,196120,1,0,0:0:0:0:
260,66,196225,2,0,L|251:172,1,90,10|0,0:0|0:0,0:0:0:0:
304,357,196645,5,10,0:0:0:0:
334,337,196750,1,0,0:0:0:0:
348,304,196854,1,10,0:0:0:0:
351,268,196959,1,0,0:0:0:0:
339,234,197064,1,10,0:0:0:0:
222,196,197274,1,4,0:0:0:0:
304,357,197484,1,4,0:0:0:0:
256,192,197589,12,0,200840,0:0:0:0:
