osu file format v5

[General]
AudioFilename: little little heart of hand clannad tv.mp3
AudioLeadIn: 0
PreviewTime: -1
Countdown: 1
SampleSet: None
StackLeniency: 0.7
Mode: 0
LetterboxInBreaks: 1

[Metadata]
Title:CLANNAD-AfterStory
Artist:little heart of hand
Creator:wslj14
Version:Easy
Source:CLANNAD-AfterStory-
Tags:

[Difficulty]
HPDrainRate:1
CircleSize:5
OverallDifficulty:1
SliderMultiplier:2.6
SliderTickRate:3

[Events]
//Background and Video events
0,0,"94e769ec3083560662d09f8f.jpg"
//Break Periods
2,15717,16794
//Storyboard Layer 0 (Background)
//Storyboard Layer 1 (Failing)
//Storyboard Layer 2 (Passing)
//Storyboard Layer 3 (Foreground)
//Storyboard Sound Samples
//Background Colour Transformations
3,100,163,162,255

[TimingPoints]
0,750,4,0,0,100,1

[HitObjects]
160,192,18562,5,0
224,192,19875,1,0
256,160,21000,1,0
160,192,22312,1,0
448,64,23437,1,0
160,160,24562,1,0
480,32,25875,1,0
192,192,27000,1,0
352,192,27562,1,0
160,160,28312,1,0
160,128,28687,5,0
256,288,29437,1,0
64,0,30562,1,0
256,192,31125,1,0
96,160,31687,1,0
256,128,32250,1,0
160,320,33000,1,0
288,224,33562,1,0
128,160,34125,1,0
320,128,34875,1,0
192,192,37312,1,0
352,96,38062,1,0
96,192,39000,1,0
256,128,39562,1,0
320,224,40875,5,0
192,192,41437,1,0
352,128,42000,1,0
160,128,42750,1,0
96,224,43125,1,0
256,256,43687,1,0
256,64,44437,1,0
160,128,44812,1,0
288,288,45562,1,0
352,128,46125,1,0
160,160,46875,1,0
256,32,47437,1,0
160,160,48000,1,0
128,160,49875,2,0,B|-32:160,10,130
352,160,54000,1,0
160,128,54750,1,0
416,224,55687,1,0
224,192,56437,1,0
192,320,57000,1,0
256,192,57562,1,0
192,160,60375,1,0
224,192,61875,1,0
32,224,62625,1,0
160,160,63187,1,0
288,224,63750,1,0
384,96,64312,1,0
160,192,66562,1,0
512,128,67875,1,0
352,128,68437,1,0
256,256,69000,1,0
128,128,69562,1,0
288,128,70125,1,0
192,128,71437,1,0
128,160,71812,1,0
128,224,72000,1,0
256,128,72562,1,0
160,256,73125,1,0
96,64,73875,1,0
320,256,75000,1,0
64,64,76125,1,0
320,288,77437,1,0
128,32,78562,1,0
416,224,79875,1,0
96,96,81000,1,0
256,160,81562,1,0
384,288,82312,1,0
288,224,82687,1,0
448,96,83437,1,0
160,224,84562,1,0
448,64,85687,1,0
128,224,87000,1,0
448,96,88125,2,0,B|-32:256,5,455
256,192,95812,12,0,97500
224,160,98062,5,0
224,160,99375,1,0
320,192,100500,1,0
320,192,101625,1,0
192,192,102937,1,0
352,192,104250,1,0
64,160,105375,1,0
384,160,106500,1,0
64,192,107625,1,0
416,192,108937,1,0
96,128,110062,1,0
416,256,111187,1,0
64,128,112500,1,0
384,224,113812,1,0
96,128,114937,1,0
416,224,116250,1,0
96,128,117562,1,0
384,224,118687,1,0
96,128,119812,1,0
384,224,120937,1,0
64,160,122062,1,0
384,224,123187,1,0
32,128,124500,1,0
320,288,125625,1,0
0,96,126937,1,0
288,256,128250,1,0
0,96,129375,1,0
288,256,130500,1,0
0,96,131625,1,0
288,256,132937,1,0
32,96,134062,1,0
320,288,135375,1,0
64,96,136500,1,0
352,320,137812,1,0
96,128,138937,1,0
384,288,140062,1,0
