osu file format v7

[General]
AudioFilename: Naruto OP3 -little by little - kanashimi wo yasashisa ni .mp3
AudioLeadIn: 0
PreviewTime: -1
Countdown: 1
SampleSet: Soft
StackLeniency: 0.7
Mode: 0
LetterboxInBreaks: 1

[Editor]
Bookmarks: 22586,26393,30199,34006,35671,37099,41381,41619,42808,43444,43760,44712,53752,54704,54942,55417,55655,55893,61603,66123,67788,69097,77781,78018,81349
DistanceSpacing: 1
BeatDivisor: 4
GridSize: 16

[Metadata]
Title:kanashimi wo yasashisa ni
Artist:little by little
Creator:chaosanime
Version:Hard
Source:Naruto OP3
Tags:naruto anime opening OP3 OP title

[Difficulty]
HPDrainRate:5
CircleSize:5
OverallDifficulty:5
SliderMultiplier:1.4
SliderTickRate:1

[Events]
//Background and Video events
0,0,"naruto OP3 BG.jpg"
Video,800,"Naruto OP3 vid.avi"
//Break Periods
//Storyboard Layer 0 (Background)
//Storyboard Layer 1 (Fail)
//Storyboard Layer 2 (Pass)
//Storyboard Layer 3 (Foreground)
//Storyboard Sound Samples
//Background Colour Transformations
3,100,163,162,255

[TimingPoints]
1651,475.812846946868,4,2,0,100,1,0

[HitObjects]
80,32,937,1,0
80,128,1293,1,0
192,128,1650,2,0,C|272:128,2,70
256,128,2364,1,0
320,128,2602,1,0
432,128,2959,1,0
432,240,3316,1,0
368,240,3553,1,0
256,240,3911,2,0,C|144:240,1,105
80,240,4505,1,0
80,32,5219,6,0,C|160:32,1,70
288,32,5933,1,0
352,32,6170,1,0
496,32,6646,1,0
496,176,7122,1,0
352,176,7598,2,0,C|272:176,2,70
288,176,8312,2,0,B|112:176,1,140
272,240,9265,6,0,C|272:352,2,105
336,240,10216,2,0,C|472:240,2,105
272,240,11166,2,0,B|160:240,1,105
80,176,11881,1,0
32,128,12119,1,0
240,80,12833,1,0
304,80,13071,1,0
304,224,13547,1,0
240,224,13785,1,0
304,32,14498,1,0
240,32,14735,1,0
256,192,14735,12,0,17092
80,32,17829,5,0
224,32,18305,1,0
368,32,18781,1,0
416,80,19017,1,0
368,128,19255,1,0
304,176,19493,1,0
240,224,19731,1,0
176,272,19969,1,0
112,320,20207,1,0
48,368,20445,1,0
48,304,20683,2,0,C|48:240,13,35
48,160,22586,5,0
80,160,22705,1,0
112,160,22824,1,0
144,160,22943,1,0
176,160,23062,1,0
208,160,23181,1,0
240,160,23300,2,0,B|240:112,3,35
240,224,24015,1,0
240,288,24253,2,0,C|144:224|176:80|368:64,1,455
448,224,26393,2,0,B|400:224,2,35
416,224,26750,1,0
384,224,26869,1,0
352,224,26988,1,0
320,224,27106,2,0,B|272:224,2,35
288,224,27463,2,0,B|240:224,1,35
224,224,27701,1,0
192,224,27820,2,0,B|144:224,1,35
176,192,28059,2,0,C|336:192|352:336|208:352,1,455
384,288,30199,5,0
352,288,30318,1,0
320,288,30437,1,0
288,288,30556,1,0
256,288,30675,2,0,B|256:240,1,35
256,176,31032,2,0,B|192:176,2,35
224,176,31389,1,0
160,176,31628,1,0
144,240,31866,2,0,C|224:16|48:32,1,420
256,32,34006,6,0,B|192:32,2,35
224,32,34363,1,0
224,96,34601,2,0,B|272:96,2,35
224,160,35076,1,0
224,224,35314,1,0
224,256,35434,1,0
224,320,35671,2,0,B|288:368|432:336|496:256|496:160|416:96,1,420
256,192,37336,12,0,37812
80,112,39002,5,0
256,192,37812,12,0,39002
224,112,39478,5,0
224,176,39716,2,0,B|224:304|320:288,1,140
352,288,40429,1,0
80,272,41381,2,0,B|80:192,1,70
416,288,42808,2,0,B|416:256|384:256|352:288,2,70
352,320,43523,1,0
288,320,43760,2,0,B|128:256|144:80,1,280
176,32,44949,2,0,B|208:0|304:16|304:48,1,140
304,48,45426,6,0,C|64:48,1,210
64,192,46615,1,0
208,192,47091,1,0
272,192,47330,1,0
480,192,48042,1,0
304,320,48756,1,0
176,288,49232,2,0,B|48:288|48:144|176:144|272:96,1,350
368,192,50897,2,0,B|288:192,1,70
160,192,51611,1,0
96,192,51848,1,0
96,48,52324,1,0
160,48,52562,1,0
256,192,52562,12,0,53752
112,96,54228,5,0
256,96,54704,1,0
320,96,54942,2,0,B|464:96,1,140
416,176,55417,2,0,B|416:192|400:192|384:192|352:192|352:240,1,70
288,208,55893,2,0,B|288:224|272:224|256:224|224:224|224:288,2,105
336,160,56845,1,0
192,160,57321,2,0,B|96:160,2,70
384,64,58510,5,0
384,128,58748,1,0
384,272,59224,1,0
320,272,59462,1,0
176,272,59938,1,0
320,272,60413,1,0
464,272,60889,1,0
464,208,61127,2,0,B|464:128,1,70
464,64,61603,1,0
208,192,62555,5,0
144,192,62911,1,0
32,192,63268,1,0
0,128,63506,1,0
112,128,63863,1,0
224,128,64220,2,0,B|320:128,1,70
400,128,64815,2,0,B|448:128|448:176|448:208,1,105
448,272,65409,1,0
240,288,66123,5,0
240,224,66361,1,0
240,80,66837,2,0,B|304:80|352:144,1,105
256,288,67788,1,0
256,224,68026,1,0
256,192,68026,12,0,69097
112,112,69454,5,0
256,112,69930,1,0
256,176,70168,2,0,B|112:176,1,140
192,176,70881,1,0
192,112,71119,1,0
80,112,71476,1,0
192,112,71833,2,0,B|288:112,1,70
400,112,72428,1,0
400,224,72785,2,0,B|400:304|352:304,1,70
384,288,73022,2,0,B|336:224|288:288|256:304,1,140
176,288,73736,5,0
112,240,73974,1,0
0,160,74450,1,0
64,160,74688,2,0,B|208:160,1,140
64,160,75639,1,0
208,160,76115,2,0,B|288:160,3,70
32,288,77781,5,0
96,288,78018,1,0
160,288,78137,1,0
240,288,78494,2,0,B|320:288,1,70
400,224,79089,2,0,B|400:304|352:304,1,70
384,288,79326,2,0,B|336:224|288:288|288:288,1,105
256,336,80041,1,0
144,336,80398,1,0
80,336,80635,1,0
304,304,81349,5,0
240,304,81587,1,0
304,176,82063,1,0
240,176,82301,1,0
112,160,83014,5,0
176,160,83252,1,0
256,192,83252,12,0,85844
96,176,86346,5,0
208,176,86822,1,0
320,176,87298,1,0
