osu file format v12

[General]
AudioFilename: 03 Pandemic.mp3
AudioLeadIn: 0
PreviewTime: 81015
Countdown: 0
SampleSet: Normal
StackLeniency: 0.4
Mode: 0
LetterboxInBreaks: 1
WidescreenStoryboard: 1

[Editor]
Bookmarks: 82594,144555
DistanceSpacing: 1.2
BeatDivisor: 2
GridSize: 4

[Metadata]
Title:Pandemic
TitleUnicode:Pandemic
Artist:lily-an, Peko
ArtistUnicode:lily-an, Peko
Creator:Shinde
Version:Ordinary
Source:Touhou
Tags:Liz Triangle B2 kaztora eba Misaki Nakajima azuki ZUN Touhou Seirensen Heian Alien Undefined Fantastic Object Nue Houjuu
BeatmapID:354504
BeatmapSetID:28689

[Difficulty]
HPDrainRate:3
CircleSize:4
OverallDifficulty:4
ApproachRate:6
SliderMultiplier:0.8
SliderTickRate:2

[Events]
//Background and Video events
0,0,"wp.jpg",0,0
//Break Periods
2,106829,112777
2,127196,165260
2,167913,176488
2,178966,198944
2,200194,210172
2,211422,254137
//Storyboard Layer 0 (Background)
//Storyboard Layer 1 (Fail)
//Storyboard Layer 2 (Pass)
//Storyboard Layer 3 (Foreground)
//Storyboard Sound Samples
//Background Colour Transformations
3,100,0,0,0

[TimingPoints]
648,355.029585798817,4,1,0,70,1,0
4908,342.857142857143,4,1,0,70,1,0
6279,350.877192982456,4,2,0,70,1,0
12156,-100,4,1,0,70,0,0
13033,-100,4,2,0,70,0,0
13559,-100,4,1,0,70,0,0
14349,-100,4,2,0,70,0,0
14612,-100,4,1,0,70,0,0
15314,-100,4,2,0,70,0,0
15489,-100,4,1,0,70,0,0
15664,-100,4,2,0,70,0,0
15840,-100,4,1,0,70,0,0
17068,-100,4,2,0,70,0,0
17243,-100,4,1,0,70,0,0
18735,-100,4,2,0,70,0,0
19173,-100,4,1,0,70,0,0
19349,-100,4,2,0,70,0,0
19524,-100,4,1,0,70,0,0
19700,-100,4,2,0,70,0,0
19875,-100,4,1,0,80,0,0
20050,-100,4,2,0,70,0,0
20226,-100,4,1,0,70,0,0
20752,-100,4,2,0,70,0,0
20928,-100,4,1,0,70,0,0
21542,-100,4,2,0,70,0,0
22507,-100,4,2,0,70,0,0
22857,-100,4,1,0,70,0,0
23121,-100,4,2,0,70,0,0
31542,-100,4,2,0,70,0,0
34349,-100,4,2,0,70,0,0
42594,-100,4,2,0,50,0,0
45577,-100,4,2,0,70,0,0
51717,-100,4,1,0,70,0,0
54173,-100,4,2,0,70,0,0
56015,-100,4,1,0,45,0,0
56629,-100,4,1,0,70,0,0
67770,-100,4,1,0,63,0,0
67857,-100,4,1,0,56,0,0
67945,-100,4,1,0,49,0,0
68033,-100,4,1,0,42,0,0
68208,-100,4,2,0,70,0,0
72156,-100,4,1,0,50,0,0
72331,-100,4,2,0,70,0,0
72507,-100,4,1,0,60,0,0
72682,-100,4,2,0,70,0,0
72857,-100,4,1,0,70,0,0
73033,-100,4,2,0,70,0,0
73208,-100,4,1,0,80,0,0
73384,-100,4,1,0,70,0,0
73471,-100,4,1,0,61,0,0
73559,-100,4,1,0,53,0,0
73647,-100,4,1,0,46,0,0
73822,-100,4,2,0,70,0,0
77594,-100,4,1,0,50,0,0
77857,-100,4,2,0,70,0,0
78471,-100,4,2,0,100,0,0
79261,-100,4,1,0,70,0,0
80664,-100,4,1,0,70,0,0
82068,-100,4,1,0,70,0,1
87331,-100,4,1,0,70,0,1
92243,-100,4,1,0,70,0,0
93296,-100,4,1,0,70,0,1
95577,-100,4,2,0,70,0,1
95928,-100,4,1,0,70,0,1
98384,-100,4,2,0,70,0,1
98735,-100,4,1,0,70,0,1
104524,-100,4,1,0,70,0,0
105050,-100,4,1,0,50,0,0
105577,-100,4,1,0,25,0,0
106103,-100,4,1,0,5,0,0
107331,351.185250219491,4,1,0,70,1,0
112598,-100,4,2,0,70,0,0
113652,-100,4,1,0,70,0,0
115759,-100,4,2,0,70,0,0
117339,-100,4,1,0,70,0,0
121641,-100,4,2,0,70,0,0
121817,-100,4,1,0,70,0,0
122344,-100,4,2,0,70,0,0
122519,-100,4,1,0,70,0,0
127260,-100,4,2,0,70,0,0
127611,-100,4,1,0,70,0,0
127963,-100,4,2,0,70,0,0
128314,-100,4,1,0,70,0,0
129719,-100,4,2,0,70,0,0
133933,-100,4,1,0,50,0,0
134108,-100,4,2,0,70,0,0
134284,-100,4,1,0,60,0,0
134460,-100,4,2,0,70,0,0
134635,-100,4,1,0,70,0,0
134811,-100,4,2,0,70,0,0
134986,-100,4,1,0,80,0,0
135162,-100,4,1,0,70,0,0
135250,-100,4,1,0,60,0,0
135338,-100,4,1,0,50,0,0
135425,-100,4,1,0,40,0,0
135601,-100,4,2,0,70,0,0
139376,-100,4,1,0,50,0,0
139640,-100,4,2,0,70,0,0
140254,-100,4,2,0,100,0,0
141044,-100,4,1,0,70,0,0
142449,-100,4,1,0,70,0,0
142800,-100,4,2,0,50,0,0
143503,-100,4,1,0,70,0,0
143854,350.877192982456,4,1,0,70,1,0
143854,-100,4,1,0,70,0,1
149117,-100,4,1,0,70,0,1
153854,-100,4,1,0,70,0,1
154029,-100,4,1,0,70,0,0
155082,-100,4,1,0,70,0,1
157362,-100,4,2,0,70,0,1
157713,-100,4,1,0,70,0,1
160169,-100,4,2,0,70,0,1
160432,-100,4,1,0,70,0,1
166310,-100,4,1,0,70,0,0
166397,-100,4,1,0,70,0,0
167625,-100,4,2,0,70,0,0
167801,-100,4,1,0,70,0,0
172538,-100,4,2,0,70,0,0
173239,-100,4,1,0,70,0,0
173941,-100,4,2,0,70,0,0
174643,-100,4,1,0,70,0,0
175345,-100,4,2,0,70,0,0
176046,-100,4,1,0,70,0,0
177538,-100,4,2,0,90,0,0
178064,-100,4,2,0,90,0,0
187976,-100,4,1,0,60,0,0
188327,-100,4,1,0,50,0,0
188503,-100,4,1,0,45,0,0
188590,-100,4,1,0,40,0,0
188678,-100,4,1,0,35,0,0
188853,-100,4,2,0,90,0,0
191134,-100,4,2,0,60,0,0
191310,-100,4,2,0,90,0,0
193941,-100,4,2,0,60,0,0
194117,-100,4,2,0,90,0,0
196222,-100,4,2,0,60,0,0
196485,-100,4,2,0,90,0,0
199204,-100,4,2,0,60,0,0
199380,-100,4,2,0,90,0,0
202801,-100,4,1,0,70,0,0
211134,-100,4,2,0,70,0,0
212538,-100,4,1,0,70,0,0
212713,-100,4,2,0,70,0,0
212889,-100,4,1,0,70,0,0
213327,-100,4,2,0,70,0,0
213678,-100,4,1,0,70,0,0
214029,-100,4,2,0,70,0,0
214643,-100,4,1,0,50,0,0
214994,-100,4,2,0,70,0,0
220871,-100,4,1,0,70,0,0
221134,-100,4,2,0,70,0,0
221573,-100,4,2,0,40,0,0
221924,-100,4,2,0,25,0,0
222362,-100,4,2,0,10,0,0
223783,350.877192982456,4,2,0,16,1,0
223959,350.877192982456,4,1,0,70,1,1
223959,-100,4,1,0,70,0,1
229748,-100,4,1,0,70,0,1
232730,-100,4,1,0,70,0,1
232906,-100,4,1,0,70,0,1
233783,-100,4,1,0,70,0,0
234134,-100,4,1,0,70,0,0
234485,-100,4,1,0,70,0,0
235187,-100,4,1,0,70,0,1
237467,-100,4,2,0,70,0,1
237818,-100,4,1,0,70,0,1
240713,-100,4,2,0,70,0,1
240976,-100,4,1,0,70,0,1
241151,-100,4,1,0,70,0,1
243608,-100,4,1,0,70,0,0
249046,-100,4,2,0,70,0,0
249397,-100,4,1,0,70,0,0
254660,-100,4,2,0,70,0,0
254923,-100,4,1,0,60,0,0
255537,-100,4,1,0,40,0,0
256064,-100,4,1,0,20,0,0
256415,-100,4,2,0,5,0,0
257292,-100,4,1,0,70,0,0
273695,-100,4,1,0,70,0,0
274309,-100,4,1,0,70,0,0
274836,-100,4,1,0,60,0,0
275537,-100,4,1,0,50,0,0
276239,-100,4,1,0,40,0,0
276941,-100,4,1,0,30,0,0
277643,-100,4,1,0,20,0,0
278344,-100,4,1,0,10,0,0
278695,-100,4,2,0,5,0,0

[Colours]
Combo1 : 40,183,175
Combo2 : 251,0,113
Combo3 : 202,181,213

[HitObjects]
448,121,12243,5,0,0:0:0:0:
380,53,12594,1,0,0:0:0:0:
312,120,12945,1,0,0:0:0:0:
64,121,13647,5,0,0:0:0:0:
132,53,13998,1,0,0:0:0:0:
200,120,14349,1,0,0:0:0:0:
132,187,14700,6,0,B|71:220|72:288|72:288,2,120
384,332,16454,5,0,0:0:0:0:
436,251,16805,1,0,0:0:0:0:
436,251,17156,1,0,0:0:0:0:
496,56,17857,6,0,L|464:144,1,80
372,56,18559,1,0,0:0:0:0:
328,192,19261,6,0,L|296:280,1,80
204,192,19963,1,0,0:0:0:0:
168,104,20314,5,0,0:0:0:0:
168,104,20664,1,0,0:0:0:0:
92,44,21015,1,0,0:0:0:0:
92,44,21366,1,0,0:0:0:0:
32,232,22068,5,0,0:0:0:0:
32,232,22419,1,0,0:0:0:0:
204,364,23121,6,0,P|256:339|308:364,1,120
364,288,23998,1,0,0:0:0:0:
312,208,24349,1,0,0:0:0:0:
407,195,24700,1,0,0:0:0:0:
358,59,25226,2,0,L|291:117,1,80
432,112,25928,6,0,P|412:164|431:222,1,120,0|0,0:3|0:3,0:3:0:0:
508,165,26805,1,0,0:0:0:0:
508,68,27156,1,0,0:0:0:0:
432,112,27507,1,0,0:0:0:0:
288,112,28033,2,0,L|214:151,1,80
172,64,28735,6,0,B|120:92|120:92|120:156,1,120
188,220,29612,2,0,L|188:304,1,80
108,372,30314,2,0,L|108:252,1,120
108,155,31191,1,0,0:0:0:0:
108,51,31542,6,0,B|204:59|211:155|211:155,1,160
4,155,32945,2,0,B|14:246|107:259|107:259|107:259,1,160
256,32,34349,5,0,0:0:0:0:
440,88,35050,1,0,0:0:0:0:
348,60,35401,1,0,0:0:0:0:
256,32,35752,2,0,B|224:82|160:120|160:120,1,120
128,139,36454,2,0,B|92:156|69:192|69:192,1,80
20,276,37156,5,0,0:0:0:0:
92,336,37507,1,0,0:0:0:0:
92,336,37682,2,0,B|132:328|172:336|172:336,1,80
268,348,38384,2,0,B|308:356|348:348|348:348,1,80
464,260,39261,2,0,B|424:252|384:260|384:260,1,80
384,259,39963,5,0,0:0:0:0:
430,122,40489,2,0,B|422:82|430:42|430:42,2,80
352,179,41542,1,0,0:0:0:0:
331,37,42068,2,0,L|267:85|267:85,1,80
167,53,42770,6,0,L|190:130,1,80
97,103,43471,2,0,L|74:180,1,80,0|0,0:0|0:0,0:0:0:0:
159,224,44173,2,0,L|236:201,1,80
230,297,44874,2,0,L|307:320,1,80,0|0,0:0|0:0,0:0:0:0:
399,346,45577,5,0,0:0:0:0:
399,346,46278,1,0,0:0:0:0:
508,192,46980,5,0,0:0:0:0:
456,112,47331,1,0,0:0:0:0:
456,112,47507,2,0,B|416:120|372:112|372:112,1,80
284,92,48208,1,0,0:0:0:0:
192,68,48559,6,0,L|176:32,3,40
116,128,49436,1,0,0:0:0:0:
60,48,49787,6,0,B|3:91|24:154|24:154,1,120
61,243,50664,2,0,B|84:274|76:320|76:320,1,80
70,367,51191,1,0,0:0:0:0:
292,280,52068,6,0,L|240:310,2,60
292,280,53296,5,0,0:0:0:0:
376,232,53647,1,0,0:0:0:0:
376,232,53998,1,0,0:0:0:0:
292,184,54349,5,0,0:0:0:0:
292,184,54524,2,0,B|291:142|316:109|316:109,1,80
358,86,55050,2,0,B|400:85|433:110|433:110,1,80
259,27,56103,5,0,0:0:0:0:
259,27,56454,1,0,0:0:0:0:
169,60,56805,6,0,B|113:94|144:116|90:147,1,120
90,195,57507,2,0,B|144:226|113:248|169:282,1,120
208,308,58208,1,0,0:0:0:0:
347,346,58735,5,0,0:0:0:0:
327,252,59086,1,0,0:0:0:0:
412,294,59436,1,0,0:0:0:0:
420,148,59963,5,0,0:0:0:0:
420,148,60314,2,0,P|396:95|350:54,1,120
305,37,61015,1,0,0:0:0:0:
208,140,61542,5,0,0:0:0:0:
154,59,61893,1,0,0:0:0:0:
104,140,62243,1,0,0:0:0:0:
32,264,62770,5,0,0:0:0:0:
100,332,63121,2,0,B|144:332|156:284|156:284|168:332|212:332,1,160
280,264,64173,5,0,0:0:0:0:
224,185,64524,2,0,B|240:145|280:129|280:129|320:145|336:185,1,160
280,264,65577,5,0,0:0:0:0:
367,303,65928,1,0,0:0:0:0:
356,207,66278,1,0,0:0:0:0:
446,240,66629,2,0,B|455:197|445:159|445:159,1,80
478,125,67156,2,0,B|464:83|436:55|436:55,1,80
312,124,68033,5,0,0:0:0:0:
256,48,68384,1,0,0:0:0:0:
160,48,68735,1,0,0:0:0:0:
100,124,69086,1,0,0:0:0:0:
160,48,69436,6,0,B|226:104|206:193|206:193,1,160
184,288,70489,1,0,0:0:0:0:
108,229,70840,2,0,B|171:170|257:201|257:201,1,160
350,228,71893,1,0,0:0:0:0:
402,308,72243,5,0,0:0:0:0:
486,223,72594,1,0,0:0:0:0:
401,138,72945,1,0,0:0:0:0:
485,53,73296,1,0,0:0:0:0:
367,28,73647,6,0,B|272:36|264:136|264:136,1,160
247,228,74700,1,0,0:0:0:0:
174,165,75050,1,0,0:0:0:0:
19,278,75752,5,0,0:0:0:0:
81,350,76103,1,0,0:0:0:0:
120,262,76454,2,0,B|216:300|249:194|349:232,1,240
437,268,77857,5,0,0:0:0:0:
462,175,78208,2,0,L|490:134,2,40
411,93,78910,1,0,0:0:0:0:
336,32,79261,6,0,B|336:96|336:96|280:116,2,120
240,24,80664,1,0,0:0:0:0:
200,340,82068,6,0,P|256:322|313:340,2,120
100,236,83647,1,0,0:0:0:0:
132,96,84173,2,0,B|100:120|100:120|100:160,1,80
188,200,84875,6,0,B|233:219|259:180|304:200,1,120
260,64,85928,2,0,B|285:105|329:88|355:130,1,120
448,240,86980,1,0,0:0:0:0:
388,316,87331,5,0,0:0:0:0:
388,316,87507,1,0,0:0:0:0:
256,256,88033,1,0,0:0:0:0:
184,320,88384,2,0,P|160:288|160:244,2,80
96,356,89436,1,0,0:0:0:0:
20,296,89787,2,0,L|4:212,1,80
208,24,90840,5,0,0:0:0:0:
208,24,91191,2,0,P|184:72|208:136,1,120
280,192,92068,1,0,0:0:0:0:
280,192,92243,1,0,0:0:0:0:
480,48,93296,6,0,B|480:104|444:104|444:160,1,120
456,336,94349,2,0,B|456:280|492:280|492:224,1,120,0|0,0:0|0:0,0:0:0:0:
348,223,95401,1,0,0:0:0:0:
396,140,95752,1,0,0:0:0:0:
300,140,96103,6,0,B|241:172|255:246|255:246,1,120
249,338,96980,1,0,0:0:0:0:
249,338,97156,2,0,L|130:338,1,120
4,272,98208,1,0,0:0:0:0:
87,224,98559,1,0,0:0:0:0:
4,176,98910,1,0,0:0:0:0:
256,192,99086,12,0,101366,0:0:0:0:
367,73,101717,6,0,P|402:142|368:216,1,160
304,148,102770,1,0,0:0:0:0:
208,147,103121,1,0,0:0:0:0:
256,64,103471,1,0,0:0:0:0:
159,65,103822,2,0,P|107:122|121:202,1,160
256,192,104700,12,0,106629,0:0:0:0:
398,59,113827,6,0,B|340:92|355:163|355:163,1,120
451,160,114705,1,0,0:0:0:0:
446,256,115057,1,0,0:0:0:0:
370,315,115408,1,0,0:0:0:0:
370,315,115583,1,0,0:0:0:0:
256,224,116110,5,0,0:0:0:0:
256,224,116461,1,0,0:0:0:0:
168,260,116813,2,0,P|160:220|172:180,4,80
192,352,118568,6,0,L|112:352,1,80
40,288,119271,1,0,0:0:0:0:
40,288,119622,1,0,0:0:0:0:
72,196,119973,6,0,L|152:196,1,80
224,132,120676,1,0,0:0:0:0:
224,132,121027,1,0,0:0:0:0:
280,56,121378,6,0,L|340:112,1,80
404,40,122080,2,0,L|424:120,1,80
460,208,122783,1,0,0:0:0:0:
460,208,123134,1,0,0:0:0:0:
460,208,123485,2,0,B|421:222|382:206,1,80
160,56,124539,5,0,0:0:0:0:
88,119,124890,2,0,B|57:154|80:193|80:193,2,80
171,165,125943,5,0,0:0:0:0:
157,259,126294,2,0,B|192:289|231:266|231:266,2,80
512,102,166310,5,0,0:0:0:0:
256,192,166397,12,0,167713,0:0:0:0:
512,211,177538,5,0,0:0:0:0:
512,211,178415,1,0,0:0:0:0:
512,211,178766,1,0,0:0:0:0:
512,279,199994,5,0,0:0:0:0:
512,290,211222,5,0,0:0:0:0:
256,192,255187,12,0,256941,0:0:0:0:
