osu file format v6

[General]
AudioFilename: 1+White+Lotus....mp3
AudioLeadIn: 0
PreviewTime: 109077
Countdown: 0
SampleSet: Soft
StackLeniency: 0.7
Mode: 0
LetterboxInBreaks: 0
StoryFireInFront: 0

[Editor]
Bookmarks: 52185,79744,109077,141966,152633,181077,210411,243299,268188,301077,325966,358855
DistanceSpacing: 2
BeatDivisor: 8
GridSize: 8

[Metadata]
Title:White Lotus...
Artist:lily-an
Creator:happy30
Version:Collab
Source:Liz Triangle
Tags:touhou 12 cosmic mind Kaztora Azuki ZUN hijiri byakuren niedzwiedz1124 buraimaster1234 dangaard gabi lesjuh

[Difficulty]
HPDrainRate:3
CircleSize:4
OverallDifficulty:7
SliderMultiplier:1.6
SliderTickRate:1

[Events]
//Background and Video events
0,0,"07c6cddfbe19c16475725dcacb1880fa.jpg"
//Break Periods
2,142166,151733
2,243499,267288
//Storyboard Layer 0 (Background)
//Storyboard Layer 1 (Fail)
//Storyboard Layer 2 (Pass)
//Storyboard Layer 3 (Foreground)
//Storyboard Sound Samples
//Background Colour Transformations
3,100,163,162,255

[TimingPoints]
19300,444.444444444444,4,1,0,100,1,0
19300,-100,4,2,0,0,0,0
19300,-100,4,2,0,0,0,0
22411,-100,4,2,0,85,0,0
22411,-100,4,2,0,85,0,0
23077,-100,4,1,0,85,0,0
23077,-100,4,1,0,85,0,0
23522,-100,4,2,0,85,0,0
23522,-100,4,2,0,85,0,0
23966,-100,4,1,0,85,0,0
23966,-100,4,1,0,85,0,0
24299,-100,4,2,0,85,0,0
24299,-100,4,2,0,85,0,0
24855,-100,4,1,0,85,0,0
24855,-100,4,1,0,85,0,0
25299,-100,4,2,0,85,0,0
25299,-100,4,2,0,85,0,0
25966,-100,4,1,0,85,0,0
25966,-100,4,1,0,85,0,0
26299,-100,4,2,0,85,0,0
26299,-100,4,2,0,85,0,0
26633,-100,4,1,0,85,0,0
26633,-100,4,1,0,85,0,0
27077,-100,4,2,0,85,0,0
27077,-100,4,2,0,85,0,0
27522,-100,4,1,0,85,0,0
27522,-100,4,1,0,85,0,0
27966,-100,4,2,0,85,0,0
27966,-100,4,2,0,85,0,0
29411,-100,4,1,0,85,0,0
29411,-100,4,1,0,85,0,0
29855,-100,4,2,0,85,0,0
29855,-100,4,2,0,85,0,0
30411,-100,4,1,0,85,0,0
30411,-100,4,1,0,85,0,0
30522,-100,4,2,0,85,0,0
30522,-100,4,2,0,85,0,0
31188,-100,4,1,0,85,0,0
31188,-100,4,1,0,85,0,0
31411,-100,4,2,0,85,0,0
31411,-100,4,2,0,85,0,0
31966,-100,4,1,0,85,0,0
31966,-100,4,1,0,85,0,0
32411,-100,4,2,0,85,0,0
32411,-100,4,2,0,85,0,0
33077,-100,4,1,0,85,0,0
33077,-100,4,1,0,85,0,0
33411,-100,4,2,0,85,0,0
33411,-100,4,2,0,85,0,0
33966,-100,4,1,0,85,0,0
33966,-100,4,1,0,85,0,0
34077,-100,4,2,0,85,0,0
34077,-100,4,2,0,85,0,0
34744,-100,4,1,0,85,0,0
34744,-100,4,1,0,85,0,0
35077,-100,4,2,0,85,0,0
35077,-100,4,2,0,85,0,0
35633,-100,4,1,0,85,0,0
35633,-100,4,1,0,85,0,0
36077,-100,4,2,0,85,0,0
36077,-100,4,2,0,85,0,0
36633,-100,4,1,0,85,0,0
36633,-100,4,1,0,85,0,0
36966,-100,4,2,0,85,0,0
36966,-100,4,2,0,85,0,0
37299,-100,4,1,0,85,0,0
37299,-100,4,1,0,85,0,0
37633,-100,4,2,0,85,0,0
37633,-100,4,2,0,85,0,0
38299,-100,4,1,0,85,0,0
38299,-100,4,1,0,85,0,0
38633,-100,4,2,0,85,0,0
38633,-100,4,2,0,85,0,0
39077,-100,4,1,0,85,0,0
39077,-100,4,1,0,85,0,0
39522,-100,4,2,0,85,0,0
39522,-100,4,2,0,85,0,0
40077,-100,4,1,0,85,0,0
40077,-100,4,1,0,85,0,0
40522,-100,4,2,0,85,0,0
40522,-100,4,2,0,85,0,0
41077,-100,4,1,0,85,0,0
41077,-100,4,1,0,85,0,0
41188,-100,4,2,0,85,0,0
41188,-100,4,2,0,85,0,0
41855,-100,4,1,0,85,0,0
41855,-100,4,1,0,85,0,0
42188,-100,4,2,0,85,0,0
42188,-100,4,2,0,85,0,0
42633,-100,4,1,0,85,0,0
42633,-100,4,1,0,85,0,0
43077,-100,4,2,0,85,0,0
43077,-100,4,2,0,85,0,0
43633,-100,4,1,0,85,0,0
43633,-100,4,1,0,85,0,0
44077,-100,4,2,0,85,0,0
44077,-100,4,2,0,85,0,0
44633,-100,4,1,0,85,0,0
44633,-100,4,1,0,85,0,0
44744,-100,4,2,0,85,0,0
44744,-100,4,2,0,85,0,0
45411,-100,4,1,0,85,0,0
45411,-100,4,1,0,85,0,0
45855,-100,4,2,0,85,0,0
45855,-100,4,2,0,85,0,0
46299,-100,4,1,0,85,0,0
46299,-100,4,1,0,85,0,0
46744,-100,4,2,0,85,0,0
46744,-100,4,2,0,85,0,0
46966,-100,4,1,0,65,0,0
46966,-100,4,1,0,65,0,0
47744,-200,4,2,0,80,0,0
47744,-200,4,2,0,80,0,0
51299,-100,4,2,0,80,0,0
51299,-100,4,2,1,60,0,0
52188,-100,4,2,1,60,0,0
58855,-200,4,2,1,60,0,0
59299,-100,4,2,1,60,0,0
63299,-200,4,2,1,60,0,0
63522,-100,4,2,1,60,0,0
67744,-200,4,2,1,60,0,0
67966,-100,4,2,1,60,0,0
69522,-200,4,2,1,60,0,0
69744,-100,4,2,1,60,0,0
72411,-200,4,2,1,60,0,0
72633,-100,4,2,1,60,0,0
79522,-100,4,2,1,60,0,0
79633,-100,4,1,1,60,0,0
109966,-100,4,1,1,70,0,1
137411,-200,4,2,1,60,0,0
138522,-100,4,2,1,60,0,0
153077,-100,4,1,0,80,0,0
153521,-100,4,2,0,80,0,0
153966,-100,4,1,0,80,0,0
154188,-100,4,2,0,80,0,0
154855,-100,4,1,0,80,0,0
154966,-100,4,2,0,80,0,0
155743,-100,4,1,0,80,0,0
155854,-100,4,2,0,80,0,0
156633,-100,4,1,0,80,0,0
156855,-100,4,2,0,80,0,0
157522,-100,4,1,0,80,0,0
157633,-100,4,2,0,80,0,0
158410,-100,4,1,0,80,0,0
158521,-100,4,2,0,80,0,0
159299,-100,4,1,0,80,0,0
159744,-100,4,2,0,80,0,0
160188,-100,4,1,0,80,0,0
160410,-100,4,2,0,80,0,0
161076,-100,4,1,0,80,0,0
161298,-100,4,2,0,80,0,0
161966,-100,4,1,0,80,0,0
162188,-100,4,2,0,80,0,0
162855,-100,4,1,0,80,0,0
163077,-100,4,2,0,80,0,0
167299,-100,4,1,0,80,0,0
168411,-100,4,2,0,80,0,0
169077,-100,4,1,0,80,0,0
169299,-100,4,2,0,80,0,0
169965,-100,4,1,0,80,0,0
170188,-100,4,2,0,80,0,0
170853,-100,4,1,0,80,0,0
171077,-100,4,2,0,80,0,0
171744,-100,4,1,0,80,0,0
173411,-100,4,2,0,80,0,0
173522,-100,4,1,0,80,0,0
173966,-100,4,2,0,80,0,0
174411,-100,4,1,0,80,0,0
174522,-100,4,2,0,80,0,0
175299,-100,4,1,0,80,0,0
175410,-100,4,2,0,80,0,0
176187,-100,4,1,0,80,0,0
176298,-100,4,2,0,80,0,0
177077,-100,4,1,0,80,0,0
177188,-100,4,2,0,80,0,0
177966,-100,4,1,0,80,0,0
178188,-100,4,2,0,80,0,0
178855,-100,4,1,0,80,0,0
179077,-100,4,2,0,80,0,0
179299,-100,4,1,0,80,0,0
179744,-100,4,2,0,80,0,0
179966,-100,4,1,0,80,0,0
180966,-100,4,2,1,90,0,0
210411,-100,4,2,1,80,0,0
211299,-100,4,2,1,80,0,1
223299,-200,4,2,1,80,0,1
223744,-100,4,2,1,80,0,1
226855,-200,4,2,1,79,0,1
227299,-100,4,2,1,80,0,1
228188,-200,4,2,1,80,0,1
228633,-100,4,2,1,80,0,1
231299,-200,4,2,1,80,0,1
231744,-100,4,2,1,80,0,1
232633,-200,4,2,1,80,0,1
233077,-100,4,2,1,80,0,1
234411,-200,4,2,1,80,0,1
234855,-100,4,2,1,80,0,1
236188,-200,4,2,1,80,0,1
236633,-100,4,2,1,80,0,1
237522,-200,4,2,1,80,0,1
237966,-100,4,2,1,80,0,1
239299,-200,4,2,1,80,0,1
243299,-100,4,2,1,0,0,0
268188,-200,4,2,1,65,0,0
282411,-100,4,2,0,80,0,0
282855,-100,4,1,0,56,0,0
282966,-100,4,2,0,80,0,0
283522,-100,4,1,0,56,0,0
283855,-100,4,2,0,80,0,0
284522,-100,4,1,0,56,0,0
284744,-100,4,2,0,80,0,0
285299,-100,4,1,0,56,0,0
285855,-100,4,2,0,80,0,0
286855,-100,4,1,0,56,0,0
287411,-100,4,2,0,80,0,0
288188,-100,4,1,0,56,0,0
288966,-100,4,2,0,80,0,0
289299,-100,4,1,0,50,0,0
291299,-100,4,1,0,71,0,0
292188,-100,4,1,0,74,0,0
292522,-100,4,1,0,92,0,0
292744,-100,4,1,0,94,0,0
293077,296.296296296296,4,1,0,82,1,0
293077,-100,4,2,0,82,0,1
293299,-100,4,1,0,82,0,1
293743,444.444444444444,4,1,0,82,1,1
294262,-100,4,1,0,100,0,1
294706,-100,4,2,0,100,0,1
294854,296.296296296296,4,2,0,100,1,1
295077,-100,4,1,0,100,0,1
295520,444.444444444444,4,1,0,100,1,1
295891,-100,4,1,0,100,0,1
296484,-100,4,2,0,100,0,1
296631,296.296296296296,4,2,0,100,1,1
296854,-100,4,1,0,100,0,1
298114,-100,4,2,0,100,0,1
300188,444.444444444444,4,2,0,65,1,1
300966,-100,4,2,1,90,0,0
301965,-100,4,2,1,90,0,1
325855,-100,4,1,0,50,0,0
326855,-100,4,2,0,90,0,1
329411,-100,4,1,0,90,0,1
329633,-100,4,2,0,90,0,1
332966,-100,4,1,0,90,0,1
333855,-100,4,2,0,90,0,1
334744,-100,4,1,0,90,0,1
334966,-100,4,2,0,90,0,1
335633,-100,4,1,0,90,0,1
335855,-100,4,2,0,90,0,1
346522,-100,4,1,0,90,0,1
346744,-100,4,2,0,90,0,1
354188,-100,4,1,0,90,0,1
355077,-100,4,2,0,90,0,1
355410,-100,4,2,0,0,0,1
358854,-100,4,2,0,0,0,0

[Colours]
Combo1 : 63,0,125
Combo2 : 230,143,15
Combo3 : 192,74,255

[HitObjects]
256,192,19744,12,0,22133
256,192,22855,5,4
376,296,23299,1,0
400,136,23744,1,2
256,192,24188,1,0
216,264,24411,1,2
256,336,24633,5,2
112,264,25077,1,0
256,192,25522,1,2
184,152,25744,2,0,B|160:112|192:56,1,80,2|0
344,112,26188,2,0,B|368:152|336:208,1,80,0|4
208,280,26855,5,0
208,120,27299,1,2
352,192,27744,1,0
208,280,28188,1,2
160,344,28411,2,0,B|200:262|114:196,1,160,2|2
72,264,29077,5,2
152,264,29299,1,2
232,264,29522,1,0
312,264,29744,1,0
288,336,29966,6,0,B|247:254|333:188,1,160,4|0
464,128,30633,2,0,B|504:209|418:275,1,160,2|2
344,280,31299,1,0
352,120,31744,1,2
208,192,32188,1,0
344,280,32633,1,2
408,232,32855,2,0,B|432:328,2,80,2|0|0
384,152,33522,6,0,B|296:184|216:96,1,160,4|0
176,64,34188,1,2
120,128,34411,1,2
264,200,34855,1,0
128,288,35299,1,2
123,207,35522,1,2
120,128,35744,1,0
120,128,35966,1,0
192,160,36188,2,0,B|264:208|352:136,1,160,4|0
340,145,36855,1,0
384,216,37077,5,4
256,320,37522,1,0
272,240,37744,2,0,B|184:200|128:288,1,160,2|2
80,224,38411,1,0
96,64,38855,1,2
232,152,39299,1,0
80,224,39744,5,2
88,144,39966,1,2
152,192,40188,1,0
80,224,40411,1,0
40,152,40633,6,0,B|72:64|176:80,1,160,4|0
208,144,41299,2,0,B|240:232|344:216,1,160,2|2
352,136,41966,1,0
432,272,42411,1,2
272,272,42855,1,0
352,136,43299,5,2
400,200,43522,1,2
320,208,43744,1,0
352,136,43966,1,0
424,176,44188,6,0,B|472:256|400:336,1,160,4|0
336,296,44855,2,0,B|256:248|176:320,1,160,2|2
128,256,45522,5,0
88,184,45744,2,0,B|272:184,1,160,0|2
312,104,46411,1,0
408,152,46633,1,0
400,256,46855,1,4
296,272,47077,5,0
296,272,47188,1,0
296,272,47299,1,0
240,184,47522,1,0
240,184,47633,1,0
240,184,47744,2,0,B|320:96|360:240|464:128,1,240,0|0
256,192,49522,12,4,51299
112,96,52188,5,0
256,32,52633,1,0
256,112,52855,2,2,B|240:160|280:152|248:224,1,80
256,352,53522,5,0
328,312,53744,1,2
400,272,53966,2,2,B|464:200|384:104,1,160
256,192,54855,1,0
112,272,55299,1,0
56,216,55522,2,2,B|-8:144|72:48,1,160
112,16,56188,1,2
256,88,56633,5,0
304,24,56855,1,0
352,88,57077,1,2
400,152,57299,2,2,B|424:192|400:240,1,80
384,304,57744,1,0
368,336,57855,1,8
336,360,57966,1,10
256,360,58188,1,8
296,288,58411,1,6
144,224,58855,6,2,B|112:176|160:120,1,80,2|2
256,32,59744,1,10
312,88,59966,2,0,B|376:160,1,80
368,232,60411,1,2
256,344,60855,5,2
104,288,61299,1,0
40,240,61522,1,8
104,192,61744,1,2
192,64,62188,5,0
256,112,62411,2,2,B|278:157|301:123|329:196,1,80,10|2
256,216,62855,2,2,B|233:261|210:227|182:300,1,80
256,320,63299,2,2,B|256:368,1,40,10|2
256,360,63744,1,4
336,368,63966,1,0
408,336,64188,2,2,B|464:240,1,80,10|2
224,264,64855,5,0
144,272,65077,1,8
72,240,65299,2,2,B|16:144,1,80,2|6
31,170,65966,1,8
104,24,66411,1,2
256,80,66855,5,8
216,152,67077,1,0
296,152,67299,1,2
424,248,67744,2,2,B|424:304,1,40,8|2
424,288,68188,1,2
272,344,68632,1,8
199,197,69077,5,2
272,56,69522,2,2,B|272:8,1,40,8|2
400,112,70188,2,0,B|400:200,1,80,0|8
464,232,70633,2,0,B|392:296|296:216,1,160
256,184,71299,1,8
192,232,71522,1,2
176,248,71633,1,0
160,264,71744,1,8
96,320,71966,1,2
80,336,72077,1,10
64,352,72188,5,8
40,280,72411,2,2,B|40:208,1,40,8|6
120,96,73077,1,8
256,16,73522,1,2
392,96,73966,5,8
456,144,74188,1,0
480,224,74411,1,2
336,296,74855,2,0,B|256:336,1,80,8|0
264,331,75299,1,2
112,288,75744,6,0,B|88:248|112:200,1,80,8|0
136,136,76188,1,0
176,64,76411,1,2
248,24,76633,1,8
376,248,77299,5,2
336,320,77522,1,8
264,360,77744,1,2
256,192,77966,12,4,79299
80,224,79744,5,4
32,160,79966,1,2
32,80,80188,1,0
80,16,80411,1,0
128,80,80633,2,0,B|304:80,1,160,2|0
432,160,81299,6,0,B|256:160,1,160,0|2
224,224,81966,1,0
224,304,82188,1,0
272,368,82411,1,2
320,304,82633,1,0
96,64,83077,5,2
96,64,83299,2,0,C|112:112|96:176|128:240,1,160,8|0
208,336,83966,1,2
208,336,84188,2,0,C|192:288|208:224|176:160,1,160,0|0
480,336,85077,6,0,B|304:336,1,160,8|2
416,256,85744,2,0,B|224:256,1,160,8|0
176,256,86411,1,2
96,256,86633,1,2
48,144,86855,6,0,B|136:80,1,80,4|2
176,48,87299,1,0
192,128,87522,2,0,B|280:192,1,80,0|2
320,224,87966,1,0
320,224,88188,1,0
384,256,88411,6,0,B|358:313|270:309|251:245,1,160,0|2
176,256,89077,1,0
128,192,89300,1,0
176,128,89522,2,0,B|272:128,1,80,2|0
336,128,89966,1,0
464,48,90188,5,2
464,48,90411,2,0,B|272:48,1,160,8|0
16,192,91299,2,0,B|208:192,1,160,0|0
464,336,92188,6,0,B|272:336,1,160,8|2
240,288,92855,1,0
176,336,93077,2,0,B|80:336,2,80,0|0|2
240,288,93744,1,2
176,240,93966,6,0,B|119:214|123:126|187:107,2,160,4|0|0
208,176,95077,1,2
240,112,95299,1,2
272,176,95522,6,0,B|329:150|325:62|261:43,2,160,4|0|0
208,224,96633,2,0,B|208:320,1,80,0|0
272,352,97077,1,2
432,336,97299,5,2
432,336,97521,2,0,C|416:288|432:224|400:160,1,160,8|0
320,64,98188,2,0,C|336:112|320:176|352:240,1,160,8|0
272,256,98855,2,0,B|176:256,1,80,2|2
48,176,99299,6,0,B|224:176,1,160,8|2
480,352,100188,2,0,B|288:352,1,160,0|2
80,352,101077,6,0,B|142:357|182:279|136:231,1,160,4|0
84,280,101744,1,0
32,224,101966,2,0,B|32:48,1,160,2|0
112,16,102633,6,0,B|112:192,1,160,4|0
176,224,103299,1,0
240,176,103522,1,0
240,96,103744,2,0,B|266:39|354:43|373:107,1,160,2|0
400,352,104633,5,4
464,304,104855,1,2
400,256,105077,1,0
336,304,105299,2,0,B|144:304,1,160,2|0
112,352,105966,1,2
112,352,106411,6,0,B|45:186|189:51|381:62|451:237|398:356,1,640,4|4
256,280,108633,1,0
256,48,109077,5,0
256,48,109522,1,0
96,320,109966,6,0,B|48:224|112:144,1,160,4|0
224,272,110633,2,0,B|352:256|320:368|448:352,1,240,2|2
464,192,111522,1,2
336,96,111744,6,0,B|279:122|283:210|347:229,1,160,0|0
176,208,112411,2,0,B|233:234|229:322|165:341,1,160,2|0
336,336,113077,1,2
400,176,113299,5,2
368,256,113522,2,0,B|192:256,1,160,0|0
144,96,114188,1,2
176,176,114411,2,0,B|352:176,1,160,0|0
336,336,115299,5,0
256,336,115744,1,0
176,336,116188,1,0
96,336,116633,1,0
64,176,117077,6,0,B|70:82|169:61,1,160,4|0
208,128,117744,1,2
208,128,118188,2,0,B|169:182|234:223,1,80,0|2
432,112,118855,5,0
368,160,119077,1,0
432,208,119299,1,0
432,288,119522,2,0,B|406:345|318:341|299:277,1,160,2|0
368,256,120188,2,0,B|342:204|274:219,1,80,2|2
224,352,120633,6,0,B|224:160,1,160,0|2
144,336,121299,2,0,B|144:160,1,160,0|0
144,176,121966,1,2
464,240,122411,6,0,B|417:325|307:326|265:224,2,240,2|2|2
416,176,123966,1,2
368,112,124188,6,0,B|176:112,1,160,4|0
64,192,124855,2,0,B|320:192,1,240,2|2
400,64,125966,5,0
448,128,126411,1,0
400,192,126855,1,0
352,128,127299,1,0
352,288,127744,6,0,B|176:288,1,160,4|2
128,256,128411,2,0,B|304:256,1,160,4|2
352,224,129077,2,0,B|176:224,1,160,4|2
480,320,129966,5,0
384,80,130411,1,0
128,80,130855,1,0
32,320,131299,6,0,B|58:263|146:267|165:331,1,160,4|0
160,160,131966,2,0,B|207:245|317:246|359:144,1,240,2|2
480,320,133077,6,0,B|454:263|366:267|347:331,1,160,0|0
352,160,133744,2,0,B|305:245|195:246|153:144,1,240,2|2
400,128,134855,6,0,B|467:294|323:429|131:418|61:243|114:124,1,640,0|4
256,48,137077,1,4
256,48,137522,6,0,C|272:96|256:160|288:224,1,160,0|4
256,192,138522,12,0,141966
206,163,152633,5,4
85,58,153078,1,0
56,216,153522,1,0
206,163,153966,1,0
285,150,154188,1,2
336,213,154411,1,0
307,287,154633,1,2
257,225,154855,2,0,B|202:152|116:178,1,160,0|0
257,225,155744,2,0,B|312:299|399:272,1,160,0|0
400,132,156633,5,0
316,47,156855,1,2
195,47,157078,1,0
111,132,157299,1,2
285,222,157522,2,0,B|371:252|427:182,1,160,0|0
83,222,158411,2,0,B|140:293|226:262,1,160,0|0
399,132,159188,1,0
390,171,159299,1,0
369,248,159522,1,0
348,325,159744,5,4
106,55,160188,1,0
77,130,160411,1,2
130,189,160633,1,0
383,130,161077,1,0
411,205,161300,1,2
358,264,161522,1,4
280,243,161744,1,2
152,304,161966,1,0
81,274,162189,1,2
77,194,162411,1,0
359,76,162855,5,0
432,109,163078,1,2
436,189,163300,1,4
308,249,163522,1,2
256,192,163744,12,4,166855
427,58,167299,5,0
85,81,168188,1,0
316,148,168633,2,0,C|160:114,1,160,0|0
103,171,169522,2,0,C|260:138,1,160,0|0
372,251,170411,2,0,C|215:218,1,160,0|0
128,244,171077,5,2
85,326,171299,1,0
177,322,171522,1,2
219,239,171744,1,0
277,132,172633,1,0
399,132,173411,1,0
390,171,173522,1,0
369,248,173744,1,0
348,325,173966,5,4
253,221,174411,2,0,B|204:222|204:172,2,80,0|2|0
360,129,175299,2,0,B|394:94|429:129,2,80,0|2|4
256,192,175966,1,2
227,308,176188,2,0,B|228:357|178:357,2,80,0|2|0
90,111,177077,6,0,B|56:76|21:111,1,80,0|2
106,197,177522,2,0,B|140:232|175:197,1,80,4|2
243,129,177966,1,0
307,81,178188,2,0,B|381:26|457:82,1,160,2|2
398,137,178855,1,0
330,204,179077,1,2
323,300,179299,5,0
257,346,179522,1,0
190,300,179744,1,0
257,255,179966,1,0
257,83,180411,5,0
257,83,180522,1,0
257,83,180633,1,0
257,83,180855,1,0
368,40,181078,5,14
344,144,181300,1,0
240,168,181522,2,0,B|184:168|184:104,2,80,8|0|0
320,248,182188,1,0
296,352,182411,1,10
192,352,182633,6,0,B|80:352|32:296|40:200,1,240,2|10
40,104,183522,1,0
120,176,183744,1,2
192,104,183966,1,0
296,104,184188,1,10
400,104,184411,6,0,B|400:56|464:56,2,80,0|2|0
296,104,185077,2,0,B|240:104|240:32,2,80,10|0|2
352,192,185744,2,0,B|368:288|280:352,1,160,2|8
200,360,186411,5,10
32,240,186855,1,8
128,200,187077,1,10
296,72,187522,1,8
296,72,187633,1,8
296,72,187744,1,8
200,112,187966,1,8
104,64,188188,6,0,B|24:104|40:224,1,160,4|10
144,200,188855,2,0,B|144:256|104:288,2,80,0|2|0
192,104,189522,1,10
288,56,189744,6,0,B|384:56|424:160,1,160,4|8
414,138,190299,1,8
414,138,190411,1,8
328,192,190633,2,0,B|344:240|416:248,2,80
224,192,191299,1,8
128,240,191522,5,0
96,336,191744,2,0,B|288:336,1,160,6|0
416,264,192411,2,0,B|232:264,1,160,6|0
96,192,193077,2,0,B|288:192,1,160,6|8
352,192,193744,1,8
352,192,193855,1,8
352,192,193966,1,8
408,112,194188,1,8
352,32,194411,1,12
160,32,194744,1,8
160,32,194855,1,8
104,112,195077,1,8
200,120,195299,6,0,B|208:216|160:272,1,160,4|10
72,312,195966,1,0
64,216,196188,1,2
88,120,196411,1,0
160,56,196633,1,10
312,120,196855,6,0,B|312:192|344:272|432:336,1,240,12|10
456,240,197744,1,0
440,144,197967,1,2
384,64,198188,1,0
328,144,198411,1,10
256,240,198633,5,2
216,144,198855,2,0,B|160:216|192:328,1,160,8|8
296,360,199522,2,0,B|352:288|320:176,1,160,8|8
256,120,200188,1,8
216,240,200633,6,0,B|160:168|192:56,1,160,8|8
296,24,201300,2,0,B|352:96|320:208,1,160,8|8
256,264,201966,1,8
256,280,202077,1,8
256,296,202188,1,8
256,312,202299,1,8
256,328,202411,6,0,B|376:328,2,80,12|0|8
256,328,203077,2,0,B|160:328,2,80,0|2|0
256,232,203744,1,10
344,280,203966,6,0,B|408:208|416:104,1,160,14|8
328,88,204633,1,8
240,40,204855,1,8
224,48,204966,1,8
208,56,205077,1,10
208,152,205299,1,8
224,144,205411,1,8
240,136,205522,1,10
256,128,205633,1,8
272,120,205744,1,14
288,112,205855,1,8
304,104,205966,6,0,B|368:72|400:56,2,80,4|0|8
208,152,206633,2,0,B|40:224,1,160,12|0
60,215,207299,1,8
256,352,207744,5,12
288,272,207966,1,0
304,272,208077,1,0
320,272,208188,1,10
224,200,208411,1,0
208,200,208522,1,0
192,200,208633,1,10
256,128,208855,1,0
256,112,208966,1,8
256,96,209077,1,10
256,80,209188,1,0
256,64,209299,1,8
256,48,209411,1,0
256,32,209522,5,14
256,352,209966,1,14
256,32,210411,5,2
416,64,210855,1,0
416,224,211299,2,2,B|416:288|304:280|296:344,1,160,6|8
256,176,212188,1,2
304,328,212633,5,8
144,328,213077,2,2,B|64:280|88:176,1,160,2|8
160,48,213966,1,2
320,80,214411,6,0,B|400:104,2,80,8|0|0
192,176,215299,2,0,B|112:200,2,80,8|0|0
312,280,216188,2,2,B|392:304,1,80,8|2
464,328,216633,1,8
472,208,216966,5,8
488,168,217077,1,10
384,104,217411,1,8
400,64,217522,1,10
280,88,217855,1,10
256,120,217966,2,0,B|256:224,1,80,8|8
208,264,218411,1,4
64,328,218855,5,8
24,256,219077,1,0
64,184,219299,1,2
168,64,219744,6,2,B|240:0|336:80,1,160,8|2
376,112,220411,2,2,B|320:192,1,80,2|8
330,177,220855,1,0
296,248,221077,2,0,B|344:360,2,120,2|2|0
240,144,221966,1,4
104,288,222411,6,2,B|104:336|152:352,1,80,8|2
145,349,222855,1,2
304,352,223299,2,2,B|368:296|368:296,1,80,8|2
364,299,224188,1,8
480,192,224633,2,2,B|480:96|368:96,1,160,2|8
377,96,225522,1,4
224,48,225966,5,8
120,176,226411,1,2
240,280,226855,2,2,B|240:368,1,80,8|0
240,360,227744,1,8
384,288,228188,2,2,B|384:200,1,80,2|8
384,208,229077,5,12
256,8,229744,1,12
128,208,230411,1,12
424,320,231299,6,2,B|440:280|440:232,1,80,8|2
416,80,232188,1,8
264,24,232633,2,2,B|264:120,1,80,0|8
232,264,233522,1,2
96,344,233966,5,8
40,288,234188,1,0
96,232,234411,2,2,B|96:136,1,80,0|8
96,152,235299,1,2
216,40,235744,5,8
288,72,235966,1,0
360,104,236188,2,2,B|456:152,1,80,2|10
288,216,237077,5,2
216,248,237299,1,0
144,280,237522,2,0,C|64:320,1,80,8|8
72,315,238411,1,10
256,128,238855,5,8
256,128,239299,1,10
256,192,239744,12,0,243299
128,256,268188,6,0,B|304:304,1,160,4|0
282,298,269299,1,2
384,160,269744,6,0,B|208:208,1,160,2|2
229,202,270855,1,0
192,136,271077,2,0,B|80:136,1,80,2|2
48,184,271744,5,4
48,184,271966,1,2
112,232,272188,2,0,B|112:288,1,40,0|2
40,328,272633,2,0,B|40:272,1,40,0|2
112,312,273522,6,0,B|280:264,1,160,4|2
408,288,274855,2,0,B|312:312,1,80,2|4
248,352,275522,5,2
248,352,275744,1,0
192,296,275966,1,2
192,296,276188,1,0
192,216,276411,1,2
192,216,276855,6,0,B|256:144,1,80,2|2
245,156,277522,1,0
296,96,277744,1,2
296,96,277966,1,0
256,24,278188,1,2
256,24,278633,5,2
152,80,278855,2,0,B|144:128|184:176,1,80,4|0
360,192,279522,2,0,B|368:240|328:288,1,80,2|2
272,304,280188,1,0
200,272,280411,1,2
184,192,280633,6,0,B|176:144|216:96,1,80,0|2
328,192,281522,2,0,B|336:240|296:288,1,80,2|2
200,272,282188,1,2
144,192,282411,6,0,B|136:144|176:96,2,80,4|2|0
64,136,283077,1,2
24,224,283299,2,0,B|24:280|48:304,1,80
136,328,283744,1,0
216,272,283966,6,0,B|288:208|384:248,1,160,4|0
312,320,284633,2,0,B|280:360|208:352,1,80,0|2
136,328,285077,1,0
104,240,285299,2,0,B|72:152|128:80,1,160
184,16,285966,6,0,B|328:120,1,160,4|0
296,200,286633,2,0,B|216:136,1,80,2|0
233,150,287299,1,0
304,88,287522,1,2
384,136,287744,6,0,B|440:208|384:296,1,160,4|0
328,360,288411,2,0,B|184:256,1,160
128,208,289077,1,4
128,208,289522,5,4
192,136,289744,2,0,B|288:136,1,80
360,216,290188,2,0,B|272:216,1,80
416,136,290633,2,0,B|472:208|424:296,1,160
360,352,291299,5,4
256,352,291522,1,0
152,352,291744,1,0
72,304,291966,2,0,B|48:272|64:208,1,80,0|0
144,96,292411,2,0,B|168:128|152:192,1,80,0|4
232,232,292855,1,0
376,240,293077,6,0,B|432:192|424:112,1,120,4|0
296,72,293521,2,0,B|240:120|248:200,1,120
248,176,294187,1,0
176,112,294409,2,0,B|128:200,1,80,4|0
72,312,294854,6,0,B|120:368|216:328,1,120,4|0
320,288,295298,2,0,B|272:232|176:272,1,120
210,260,295964,1,0
248,176,296186,2,0,B|288:88,1,80,4|0
416,40,296631,2,0,B|472:88|448:168,1,120,4|0
392,280,297075,2,0,B|336:232|360:152,1,120
355,172,297742,5,0
355,172,297964,1,4
256,192,298408,12,4,300185
256,192,300633,5,4
256,56,301077,5,8
160,56,301299,1,8
96,128,301522,2,8,B|64:128,7,20
96,128,301966,2,0,B|73:217|98:285,1,160,12|10
176,344,302633,1,0
176,344,302744,1,0
176,344,302855,1,2
256,288,303077,1,2
336,232,303299,6,0,B|336:320,1,80,10|2
416,256,303744,2,0,B|440:187|416:88,1,160,10|2
336,40,304411,1,0
336,40,304522,1,0
336,40,304633,1,2
256,96,304855,1,2
176,40,305077,6,0,B|176:144,1,80,10|2
80,120,305522,2,0,B|40:200|88:296,1,160,10|2
176,272,306188,1,0
272,272,306411,2,0,B|310:197|270:117,1,160,10|2
176,120,307077,1,0
96,176,307299,5,2
96,176,307411,1,2
176,224,307633,1,2
176,224,307744,1,2
256,176,307966,1,2
336,224,308188,1,10
336,224,308299,1,2
336,224,308411,1,2
336,224,308522,1,10
336,224,308633,1,10
416,176,308855,1,10
336,120,309077,6,0,B|176:120,1,160,4|2
112,192,309744,2,0,B|272:192,1,160,0|2
368,192,310411,1,2
440,256,310633,1,2
368,320,310855,2,0,B|288:320,2,80,2|2|2
440,256,311522,1,0
368,192,311744,2,0,B|400:128|352:48,2,120,2|2|2
312,272,312633,5,2
312,272,312744,1,2
232,328,312966,1,2
232,328,313077,1,2
136,304,313299,1,2
136,304,313411,1,2
96,216,313633,1,2
96,216,313744,1,2
136,128,313966,1,2
232,104,314188,1,2
216,216,314411,5,2
448,80,314855,1,2
272,184,315299,1,2
392,112,315633,1,10
392,112,315744,1,10
336,152,315966,1,10
256,32,316188,6,0,B|176:8|102:75,1,160,4|2
192,120,316855,2,0,B|232:168,2,40,0|0|2
120,184,317299,1,2
64,264,317522,1,0
120,344,317744,1,0
256,352,317966,6,0,B|336:376|409:308,1,160,2|2
328,256,318633,1,2
328,256,318744,1,2
400,192,318966,1,2
400,192,319077,1,2
400,96,319299,1,2
328,160,319522,1,2
216,152,319744,6,0,B|208:120|152:80|72:128|88:176,1,160,0|2
152,192,320411,1,0
216,232,320633,2,0,B|208:264|152:304|72:256|88:208,1,160,0|2
152,192,321299,1,0
216,120,321522,5,2
232,112,321633,1,2
248,104,321744,1,2
264,96,321855,1,2
280,88,321966,1,2
360,144,322188,1,2
360,144,322299,1,2
424,216,322522,1,2
360,288,322744,1,10
360,288,322855,1,10
424,216,323077,1,10
328,216,323299,6,0,B|168:216,2,160,4|0|0
256,40,324633,1,0
256,352,325077,5,6
256,40,325522,1,6
64,72,325966,6,0,B|88:64,7,20
112,80,326411,2,0,B|136:72,7,20
160,88,326855,6,0,B|168:176|144:248,1,160,4|0
288,328,327744,2,0,B|376:312,1,80,0|2
366,313,328188,1,8
424,256,328411,1,0
416,176,328633,6,2,B|360:120|272:88,1,160,0|8
128,56,329522,1,0
88,128,329744,1,2
88,128,329855,1,0
88,128,329966,2,0,B|104:216,1,80,8|2
72,280,330411,6,0,B|216:256|232:376|384:352,1,320,4|2
448,312,331522,1,0
448,312,331633,1,0
448,312,331744,2,0,B|456:224,1,80,10|0
464,152,332188,5,6
336,64,332633,1,10
320,224,333077,2,0,B|256:208|192:200,1,120,0|0
184,208,333522,2,0,B|136:216|96:216,1,80
32,184,333966,5,4
40,104,334188,1,2
40,104,334299,1,0
40,104,334411,1,8
112,64,334633,1,2
192,88,334855,2,0,B|280:80,1,80,0|2
344,120,335299,1,8
496,88,335744,5,0
456,152,335966,2,0,B|448:240,1,80,0|10
448,231,336411,1,2
400,296,336633,2,0,B|320:320|232:312,1,160,4|10
168,280,337299,1,0
168,280,337522,6,2,B|192:168|144:152|168:32,2,240,4|4|6
296,168,339299,5,2
312,184,339411,1,2
328,200,339522,1,2
344,208,339633,1,2
360,216,339744,5,10
376,208,339854,1,2
392,200,339965,1,2
408,192,340076,1,2
416,176,340188,6,0,B|432:120,3,40,0|2|2|2
424,120,340633,2,0,B|432:80,3,40,10|2|2|2
424,56,341077,6,0,B|328:32|296:112|184:88,1,240,4|2
112,64,341966,2,0,B|64:72|32:96,1,80,0|0
16,168,342411,5,10
176,240,342855,1,2
320,136,343299,1,10
480,176,343744,2,2,B|488:256|472:344,1,160,0|10
80,88,344633,6,2,B|72:168|72:256,1,160,6|2
200,120,345299,2,2,B|200:200|192:288,1,160,6|2
312,152,345966,2,2,B|304:232|312:320,1,160,6|2
392,336,346633,1,0
392,336,346855,5,10
472,192,347299,1,2
392,48,347744,1,10
144,40,348188,6,0,B|168:176|72:264,2,240,4|2|10
224,32,349744,1,0
280,88,349966,6,0,B|360:120|440:112,1,160,4|8
232,264,350855,2,0,B|152:296|72:288,1,160,2|8
24,232,351522,1,0
24,232,351744,5,4
168,160,352188,1,10
168,160,352411,1,0
328,160,352855,1,2
328,160,353077,1,8
472,232,353522,5,4
472,232,353966,1,4
336,320,354411,5,0
256,328,354633,1,0
176,320,354855,1,0
256,192,355299,5,0
256,192,355411,12,4,358854
