osu file format v13

[General]
AudioFilename: (c81 Vocal) My Desire (lily-an).mp3
AudioLeadIn: 0
PreviewTime: 71447
Countdown: 0
SampleSet: Soft
StackLeniency: 0.7
Mode: 0
LetterboxInBreaks: 1
WidescreenStoryboard: 1

[Editor]
Bookmarks: 1069,14219,27370,40110,53671,64767,71342,148602,280931
DistanceSpacing: 1
BeatDivisor: 2
GridSize: 4
TimelineZoom: 2.8

[Metadata]
Title:My Desire
TitleUnicode:My Desire
Artist:lily-an
ArtistUnicode:lily-an
Creator:FreeSky
Version:Normal
Source:Touhou
Tags:liz triangle lizsig azuki kaztora eba reunion desire drive
BeatmapID:518535
BeatmapSetID:50922

[Difficulty]
HPDrainRate:4
CircleSize:3
OverallDifficulty:4
ApproachRate:5
SliderMultiplier:1.2
SliderTickRate:2

[Events]
//Background and Video events
0,0,"bg2.jpg",0,0
//Break Periods
//Storyboard Layer 0 (Background)
//Storyboard Layer 1 (Fail)
//Storyboard Layer 2 (Pass)
//Storyboard Layer 3 (Foreground)
//Storyboard Sound Samples
//Background Colour Transformations
3,100,163,162,255

[TimingPoints]
1069,410.958904109589,4,2,1,80,1,0
70315,-100,4,2,1,30,0,0
70726,-100,4,2,1,70,0,0
71342,-100,4,2,2,80,0,1
75041,-100,4,2,1,80,0,1
84082,-100,4,2,1,80,0,1
84904,-100,4,2,2,80,0,1
85110,-100,4,2,1,80,0,1
94767,-100,4,2,1,60,0,0
97233,-100,4,2,1,50,0,0
98466,-100,4,2,1,40,0,0
127027,-100,4,2,2,40,0,0
127438,-100,4,2,1,40,0,0
145110,-100,4,2,2,40,0,0
145521,-100,4,2,1,40,0,0
149630,-100,4,2,1,40,0,1
149836,410.958904109589,4,2,1,80,1,1
151274,-100,4,2,2,80,0,1
172849,-100,4,2,2,80,0,0
182301,-100,4,2,1,80,0,0
186822,-100,4,2,2,80,0,0
187644,-100,4,2,1,80,0,0
189699,-200,4,2,1,80,0,0
204904,-100,4,2,1,80,0,0
233671,-200,4,2,1,80,0,0
246822,-100,4,2,1,30,0,0
247130,-100,4,2,1,35,0,0
247233,-100,4,2,1,40,0,0
247541,-100,4,2,1,45,0,0
247644,-100,4,2,1,50,0,0
247952,-100,4,2,1,55,0,0
248055,-100,4,2,1,60,0,0
248260,-100,4,2,1,80,0,1
249904,-100,4,2,2,80,0,1
254630,-100,4,2,2,80,0,0
256890,-100,4,2,1,80,0,0
258945,-100,4,2,1,70,0,0
259356,-100,4,2,1,60,0,0
259767,-100,4,2,1,50,0,0
260383,-100,4,2,1,40,0,0
261411,-100,4,2,2,80,0,1
280520,-100,4,2,1,80,0,1
281342,-100,4,2,2,80,0,0
281959,-100,4,2,1,80,0,0
284630,-100,4,2,1,70,0,0
302712,-100,4,2,1,60,0,0
304356,-100,4,2,1,50,0,0
305178,-100,4,2,1,40,0,0
305897,-100,4,2,1,80,0,0

[Colours]
Combo1 : 192,192,192
Combo2 : 0,255,255
Combo3 : 5,5,240

[HitObjects]
112,228,1069,6,0,P|152:272|224:288,1,120
272,287,1685,2,0,P|354:254|408:183,1,180
312,112,2712,2,0,P|360:76|432:56,2,120,0|0|0,0:0|0:0|0:0,0:0:0:0:
408,184,3945,1,0,0:0:0:0:
512,244,4356,6,0,P|472:288|400:304,1,120
351,303,4972,2,0,P|268:269|214:198,1,180
100,160,6000,2,0,P|100:224|128:276,2,120,0|0|0,0:0|0:0|0:0,0:0:0:0:
192,84,7233,1,0,0:0:0:0:
308,56,7644,6,0,L|428:56,1,120
368,160,8466,2,0,P|392:184|428:204,2,60,0|0|0,0:0|0:0|0:0,0:0:0:0:
368,160,9082,2,0,P|284:176|204:248,1,180
96,256,10110,6,0,P|120:312|176:348,1,120
272,288,10932,2,0,P|236:192|112:148,1,240
114,147,11959,1,0,0:0:0:0:
32,60,12370,6,0,P|88:40|152:40,1,120
204,56,12986,2,0,L|260:80,1,60
376,52,13603,1,0,0:0:0:0:
440,152,14014,1,0,0:0:0:0:
440,152,14219,6,0,P|432:212|376:256,1,120
380,372,15041,2,0,P|320:360|276:308,1,120
280,200,15863,2,0,L|224:168,1,60
204,116,16274,2,0,L|140:104,1,60
120,160,16685,2,0,P|80:116|56:56,1,120,0|0,0:0|0:0,0:0:0:0:
16,172,17507,6,0,P|36:228|88:272,1,120
79,267,18123,1,0,0:0:0:0:
136,248,18329,2,0,P|212:292|316:292,1,180
356,268,19151,2,0,L|408:240,2,60,0|0|0,0:0|0:0|0:0,0:0:0:0:
304,240,19767,1,0,0:0:0:0:
284,184,19973,2,0,P|304:128|356:84,1,120
240,32,20795,6,0,L|120:64,1,120
88,176,21616,2,0,P|147:177|203:145,1,120
84,112,22438,2,0,P|36:192|12:280,1,180
64,308,23260,2,0,P|40:328|12:336,2,60,0|0|0,0:0|0:0|0:0,0:0:0:0:
128,204,24082,6,0,L|248:228,1,120
252,348,24904,2,0,P|304:328|356:288,1,120
388,236,25521,1,0,0:0:0:0:
428,192,25726,2,0,P|456:192|496:176,2,60,0|0|0,0:0|0:0|0:0,0:0:0:0:
372,176,26342,1,0,0:0:0:0:
320,144,26548,2,0,P|288:96|284:32,1,120
164,40,27370,6,0,P|112:68|60:116,1,120
64,228,28192,2,0,P|116:200|168:152,1,120
40,164,29014,2,0,P|36:248|92:336,1,180
192,276,30041,2,0,P|256:272|336:296,1,120,0|0,0:0|0:0,0:0:0:0:
310,284,30658,1,0,0:0:0:0:
428,260,31069,2,0,P|452:284|456:316,2,60,0|0|0,0:0|0:0|0:0,0:0:0:0:
384,220,31685,2,0,P|356:168|356:92,1,120
384,56,32301,6,0,P|408:44|508:64,2,120,0|0|0,0:0|0:0|0:0,0:0:0:0:
384,56,33329,2,0,L|324:48,1,60
324,48,33740,1,0,0:0:0:0:
268,64,33945,6,0,P|240:120|236:176,1,120
268,292,34767,2,0,P|208:287|155:260,1,120
164,140,35589,2,0,P|257:143|336:196,1,180
442,151,36616,2,0,P|442:211|419:266,1,120,0|0,0:0|0:0,0:0:0:0:
419,265,37233,5,0,0:0:0:0:
328,344,37644,1,0,0:0:0:0:
216,300,38055,1,0,0:0:0:0:
100,324,38466,1,0,0:0:0:0:
100,324,38671,6,0,P|72:268|72:204,1,120
180,160,39493,2,0,P|177:100|150:47,1,120
150,47,40110,1,0,0:0:0:0:
108,160,40521,6,0,P|136:212|200:228,1,120
309,206,41342,2,0,P|369:214|425:254,1,120
301,276,42164,2,0,P|277:301|248:316,2,60,0|0|0,0:0|0:0|0:0,0:0:0:0:
258,163,42986,2,0,P|206:134|166:83,1,120
287,71,43808,6,0,L|414:86,1,120
357,195,44630,2,0,P|317:240|254:262,1,120,0|0,0:0|0:0,0:0:0:0:
142,266,45452,2,0,P|86:287|47:332,2,120,0|0|0,0:0|0:0|0:0,0:0:0:0:
68,170,46685,2,0,L|95:116,1,60
138,74,47096,6,0,L|255:46,1,120
297,88,47712,2,0,L|426:102,1,120
476,106,48329,2,0,P|463:48|423:-4,2,120,0|0|0,0:0|0:0|0:0,0:0:0:0:
435,219,49562,1,0,0:0:0:0:
355,308,49973,1,0,0:0:0:0:
256,192,50384,12,0,51822,0:0:0:0:
60,248,52849,6,0,L|60:126,1,120
178,106,53671,6,0,P|220:148|238:210,1,120
178,217,54288,2,0,P|195:273|237:315,1,120
294,335,54904,2,0,P|318:280|320:217,1,120,0|0,0:0|0:0,0:0:0:0:
301,163,55521,2,0,L|407:107,1,120
459,137,56137,2,0,P|463:163|458:196,2,60,0|0|0,0:0|0:0|0:0,0:0:0:0:
392,36,56959,6,0,L|273:24,1,120
235,70,57575,2,0,P|178:62|119:38,1,120
120,38,58192,1,0,0:0:0:0:
66,64,58397,2,0,P|83:121|125:169,1,120
174,195,59014,1,0,0:0:0:0:
288,231,59425,6,0,L|347:209,4,60,0|0|0|0|0,0:0|0:0|0:0|0:0|0:0,0:0:0:0:
174,269,60658,1,0,0:0:0:0:
61,228,61068,6,0,P|29:279|19:339,2,120,0|0|0,0:0|0:0|0:0,0:0:0:0:
153,153,62301,1,0,0:0:0:0:
211,139,62507,2,0,P|272:145|331:164,2,120,0|0|0,0:0|0:0|0:0,0:0:0:0:
153,153,63534,6,0,P|110:113|83:56,1,120
83,58,64151,1,0,0:0:0:0:
203,48,64562,1,0,0:0:0:0:
320,76,64973,6,0,L|436:48,2,120,0|0|0,0:0|0:0|0:0,0:0:0:0:
276,116,66000,2,0,P|277:151|288:176,1,60
380,248,66616,2,0,P|412:300|416:364,2,120,0|0|0,0:0|0:0|0:0,0:0:0:0:
324,228,67644,2,0,P|292:236|264:256,1,60
232,300,68055,1,0,0:0:0:0:
256,192,68466,12,0,70110,0:0:0:0:
120,90,70726,6,0,L|57:67,2,60,0|0|0,0:0|0:0|0:0,0:0:0:0:
163,202,71548,6,0,P|190:262|253:290,1,120
295,286,72164,2,0,L|355:277,1,60
414,277,72575,2,0,P|442:300|455:323,2,60,0|0|0,0:0|0:0|0:0,0:0:0:0:
361,246,73192,2,0,P|314:210|269:157,1,120
253,107,73808,2,0,L|285:48,1,60
338,35,74219,2,0,P|368:42|402:62,2,60,0|0|0,0:0|0:0|0:0,0:0:0:0:
216,40,75041,6,0,L|100:72,1,120
24,164,75863,2,0,P|48:220|104:256,1,120
161,353,76685,2,0,P|222:343|276:320,1,120
403,271,77507,2,0,P|429:219|438:155,1,120
412,103,78123,6,0,P|342:60|239:47,1,180
186,150,79151,2,0,P|139:114|122:47,1,120
66,81,79767,2,0,L|33:260,1,180
141,310,80795,2,0,P|119:336|85:352,2,60,0|0|0,0:0|0:0|0:0,0:0:0:0:
247,254,81616,6,0,L|366:285,1,120
340,166,82438,2,0,L|221:135,1,120
105,155,83260,2,0,L|126:211,1,60
32,144,83671,2,0,L|67:91,1,60
125,89,84082,2,0,L|239:50,1,120
298,44,84699,6,0,P|364:100|383:227,1,180
279,235,85726,2,0,L|217:235,2,60,0|0|0,0:0|0:0|0:0,0:0:0:0:
332,262,86342,2,0,P|375:299|442:318,2,120,0|0|0,0:0|0:0|0:0,0:0:0:0:
322,202,87370,1,0,0:0:0:0:
273,167,87575,2,0,L|210:162,1,60
94,180,88192,5,0,0:0:0:0:
69,297,88603,1,0,0:0:0:0:
160,219,89014,1,0,0:0:0:0:
114,108,89425,1,0,0:0:0:0:
219,50,89836,2,0,L|279:67,1,60
332,88,90247,2,0,L|405:191,1,120
292,235,91068,5,0,0:0:0:0:
292,235,91274,2,0,L|174:259,1,120
122,290,91890,2,0,P|169:327|239:346,2,120,0|0|0,0:0|0:0|0:0,0:0:0:0:
105,231,92918,2,0,P|127:175|169:128,1,120
224,115,93534,2,0,L|282:127,1,60,0|0,0:0|0:0,0:0:0:0:
339,108,93945,2,0,L|396:144,1,60
