osu file format v13

[General]
AudioFilename: (c81 Vocal) My Desire (lily-an).mp3
AudioLeadIn: 0
PreviewTime: 71447
Countdown: 0
SampleSet: Soft
StackLeniency: 0.7
Mode: 0
LetterboxInBreaks: 1
WidescreenStoryboard: 1

[Editor]
Bookmarks: 1069,14219,27370,40110,53671,64767,71342,148602,280931
DistanceSpacing: 1
BeatDivisor: 4
GridSize: 4
TimelineZoom: 2.8

[Metadata]
Title:My Desire
TitleUnicode:My Desire
Artist:lily-an
ArtistUnicode:lily-an
Creator:FreeSky
Version:Lunatic
Source:Touhou
Tags:liz triangle lizsig azuki kaztora eba reunion desire drive
BeatmapID:497226
BeatmapSetID:50922

[Difficulty]
HPDrainRate:7
CircleSize:4
OverallDifficulty:8
ApproachRate:8
SliderMultiplier:1.8
SliderTickRate:2

[Events]
//Background and Video events
0,0,"bg2.jpg",0,0
//Break Periods
2,101542,103469
2,137707,139428
2,234693,246072
//Storyboard Layer 0 (Background)
//Storyboard Layer 1 (Fail)
//Storyboard Layer 2 (Pass)
//Storyboard Layer 3 (Foreground)
//Storyboard Sound Samples

[TimingPoints]
1069,410.958904109589,4,2,1,80,1,0
70315,-100,4,2,1,30,0,0
70726,-100,4,2,1,70,0,0
71342,-100,4,2,2,80,0,1
84082,-100,4,2,1,80,0,1
84904,-100,4,2,2,80,0,1
85110,-100,4,2,1,80,0,1
94767,-100,4,2,1,60,0,0
97233,-100,4,2,1,50,0,0
98466,-100,4,2,1,40,0,0
127027,-100,4,2,2,40,0,0
127438,-100,4,2,1,40,0,0
145110,-100,4,2,2,40,0,0
145521,-100,4,2,1,40,0,0
149630,-100,4,2,1,40,0,1
149836,410.958904109589,4,2,1,80,1,1
151274,-100,4,2,2,80,0,1
172849,-100,4,2,2,80,0,0
182301,-100,4,2,1,80,0,0
186822,-100,4,2,2,80,0,0
187644,-100,4,2,1,80,0,0
189699,-200,4,2,1,80,0,0
204904,-100,4,2,1,80,0,0
233671,-200,4,2,1,80,0,0
246822,-100,4,2,1,30,0,0
247130,-100,4,2,1,35,0,0
247233,-100,4,2,1,40,0,0
247541,-100,4,2,1,45,0,0
247644,-100,4,2,1,50,0,0
247952,-100,4,2,1,55,0,0
248055,-100,4,2,1,60,0,0
248260,-100,4,2,1,80,0,1
249904,-100,4,2,2,80,0,1
254630,-100,4,2,2,80,0,0
256890,-100,4,2,1,80,0,0
258945,-100,4,2,1,70,0,0
259356,-100,4,2,1,60,0,0
259767,-100,4,2,1,50,0,0
260383,-100,4,2,1,40,0,0
261411,-100,4,2,2,80,0,1
280520,-100,4,2,1,80,0,1
281342,-100,4,2,2,80,0,0
281959,-100,4,2,1,80,0,0
284630,-100,4,2,1,70,0,0
302712,-100,4,2,1,60,0,0
304356,-100,4,2,1,50,0,0
305178,-100,4,2,1,40,0,0
305897,-100,4,2,1,80,0,0

[Colours]
Combo1 : 192,192,192
Combo2 : 0,255,255
Combo3 : 5,5,240

[HitObjects]
76,210,1069,5,6,0:0:0:0:
137,275,1274,2,0,P|219:308|319:282,1,180,0|6,0:0|0:0,0:0:0:0:
396,290,1890,2,0,P|384:250|354:213,1,90
220,133,2301,2,0,P|232:173|262:210,1,90
451,220,2712,1,0,0:0:0:0:
451,220,2918,1,0,0:0:0:0:
220,133,3123,2,0,P|171:133|128:154,1,90
359,48,3534,1,0,0:0:0:0:
359,48,3740,1,0,0:0:0:0:
135,150,3945,2,0,P|100:184|84:229,1,90
176,226,4356,5,6,0:0:0:0:
41,124,4562,2,0,P|108:66|202:41,1,180,0|6,0:0|0:0,0:0:0:0:
362,79,5178,2,0,P|332:114|286:128,1,90
249,208,5589,2,0,P|215:179|201:138,1,90
241,57,6000,1,0,0:0:0:0:
358,192,6205,1,0,0:0:0:0:
241,57,6411,1,0,0:0:0:0:
358,192,6616,1,0,0:0:0:0:
420,256,6822,2,0,L|382:340,1,90
304,123,7233,2,0,L|342:39,1,90
298,250,7644,6,0,P|234:311|143:327,1,180,4|4,0:0|0:0,0:0:0:0:
146,327,8260,1,0,0:0:0:0:
64,290,8466,2,0,P|94:254|139:235,1,90
218,95,8877,2,0,L|308:95,1,90,4|4,0:0|0:0,0:0:0:0:
498,178,9288,6,0,L|408:178,1,90,0|0,0:0|0:0,0:0:0:0:
367,323,9699,2,0,L|340:238,1,90
258,198,10110,1,4,0:0:0:0:
171,221,10315,1,0,0:0:0:0:
2,136,10521,1,4,0:0:0:0:
88,113,10726,1,0,0:0:0:0:
171,221,10932,6,0,P|236:160|259:74,1,180,4|4,0:0|0:0,0:0:0:0:
258,74,11548,1,0,0:0:0:0:
451,143,11753,2,0,L|427:231,1,90
366,296,12164,1,4,0:0:0:0:
307,226,12370,1,4,0:0:0:0:
226,266,12575,5,4,0:0:0:0:
186,288,12678,1,0,0:0:0:0:
136,212,12884,1,4,0:0:0:0:
96,191,12986,1,4,0:0:0:0:
23,125,13192,1,4,0:0:0:0:
65,110,13295,1,0,0:0:0:0:
107,97,13397,1,0,0:0:0:0:
150,83,13500,1,0,0:0:0:0:
192,69,13603,1,0,0:0:0:0:
235,56,13705,1,0,0:0:0:0:
278,45,13808,1,4,0:0:0:0:
453,86,14014,1,6,0:0:0:0:
344,164,14219,5,0,0:0:0:0:
344,164,14425,2,0,P|317:202|305:244,1,90,0|4,0:0|0:0,0:0:0:0:
480,284,14836,2,0,P|442:257|400:245,1,90
213,229,15247,2,0,P|220:273|242:313,1,90,0|4,0:0|0:0,0:0:0:0:
318,360,15658,1,0,0:0:0:0:
430,139,15863,6,0,P|402:98|363:78,1,90
187,60,16274,1,4,0:0:0:0:
99,79,16479,1,0,0:0:0:0:
30,195,16685,1,0,0:0:0:0:
213,239,16890,1,0,0:0:0:0:
20,122,17096,1,4,0:0:0:0:
145,264,17301,1,0,0:0:0:0:
302,251,17507,6,0,P|329:213|341:171,1,90
166,131,17918,2,0,P|204:158|246:170,1,90,4|0,0:0|0:0,0:0:0:0:
432,185,18329,2,0,P|424:140|403:101,1,90
341,36,18740,1,4,0:0:0:0:
159,217,18945,1,2,0:0:0:0:
159,217,19048,1,0,0:0:0:0:
159,217,19151,1,0,0:0:0:0:
246,76,19356,1,0,0:0:0:0:
75,136,19562,1,4,0:0:0:0:
249,179,19767,1,0,0:0:0:0:
77,236,19973,2,0,L|29:221,2,45,0|0|0,0:0|0:0|0:0,0:0:0:0:
251,280,20384,1,4,0:0:0:0:
424,236,20589,1,0,0:0:0:0:
370,308,20795,6,0,P|341:270|334:224,1,90
246,206,21205,2,0,P|264:161|300:132,1,90,4|0,0:0|0:0,0:0:0:0:
261,51,21616,2,0,P|308:44|351:61,1,90
450,189,22027,2,0,P|402:195|359:178,1,90,4|0,0:0|0:0,0:0:0:0:
187,80,22438,1,0,0:0:0:0:
61,131,22644,1,0,0:0:0:0:
187,180,22849,1,4,0:0:0:0:
314,131,23055,1,0,0:0:0:0:
132,130,23260,1,0,0:0:0:0:
84,206,23466,1,0,0:0:0:0:
118,288,23671,1,4,0:0:0:0:
201,323,23877,1,0,0:0:0:0:
290,312,24082,6,0,L|379:295,1,90
474,188,24493,2,0,L|385:205,1,90,4|0,0:0|0:0,0:0:0:0:
298,229,24904,1,2,0:0:0:0:
209,211,25110,1,0,0:0:0:0:
170,188,25212,1,0,0:0:0:0:
129,41,25418,1,2,0:0:0:0:
168,64,25520,1,0,0:0:0:0:
249,103,25726,5,4,0:0:0:0:
292,115,25829,1,0,0:0:0:0:
336,107,25932,1,0,0:0:0:0:
375,86,26034,1,0,0:0:0:0:
416,67,26137,1,4,0:0:0:0:
456,147,26342,2,0,L|431:234,1,90,0|4,0:0|0:0,0:0:0:0:
431,233,26651,1,0,0:0:0:0:
431,233,26753,1,0,0:0:0:0:
356,284,26959,1,4,0:0:0:0:
356,284,27370,6,0,P|266:291|176:260,1,180,0|4,0:0|0:0,0:0:0:0:
181,263,27986,1,0,0:0:0:0:
86,96,28192,2,0,P|176:89|266:120,1,180,0|4,0:0|0:0,0:0:0:0:
260,116,28808,1,0,0:0:0:0:
300,196,29014,2,0,P|333:166|354:121,1,90
434,87,29425,2,0,P|404:54|359:33,1,90,4|0,0:0|0:0,0:0:0:0:
363,34,29836,1,0,0:0:0:0:
406,165,30041,1,0,0:0:0:0:
412,186,30144,1,0,0:0:0:0:
411,208,30247,1,4,0:0:0:0:
327,349,30452,6,0,P|344:308|340:264,1,90
254,293,30863,2,0,P|237:251|202:224,1,90,0|4,0:0|0:0,0:0:0:0:
94,356,31274,2,0,P|135:339|163:305,1,90
193,137,31685,1,0,0:0:0:0:
201,47,31890,2,0,P|119:80|105:164,1,180,4|0,0:0|0:0,0:0:0:0:
104,162,32404,5,0,0:0:0:0:
104,162,32507,1,0,0:0:0:0:
279,204,32712,1,4,0:0:0:0:
145,239,32918,1,0,0:0:0:0:
274,114,33123,1,0,0:0:0:0:
217,285,33329,1,0,0:0:0:0:
341,260,33534,2,0,P|362:221|360:177,1,90,4|0,0:0|0:0,0:0:0:0:
379,80,33945,6,0,P|442:149|445:236,1,180,2|4,0:0|0:0,0:0:0:0:
446,231,34562,1,0,0:0:0:0:
323,344,34767,2,0,L|229:355,1,90
46,336,35178,2,0,L|140:325,1,90,4|0,0:0|0:0,0:0:0:0:
210,276,35589,2,0,P|242:242|258:197,1,90
257,202,36000,1,4,0:0:0:0:
104,78,36205,2,0,P|72:112|56:157,1,90
58,242,36616,1,0,0:0:0:0:
58,242,36719,1,0,0:0:0:0:
58,242,36822,1,4,0:0:0:0:
115,311,37027,1,0,0:0:0:0:
242,356,37233,6,0,P|288:358|330:334,1,90
413,360,37644,2,0,P|415:314|391:272,1,90,4|0,0:0|0:0,0:0:0:0:
394,276,37952,1,0,0:0:0:0:
394,276,38055,1,0,0:0:0:0:
262,199,38260,1,0,0:0:0:0:
262,199,38466,1,4,0:0:0:0:
127,205,38671,6,0,P|140:120|247:71,1,180,2|4,0:0|0:0,0:0:0:0:
262,199,39288,1,0,0:0:0:0:
297,312,39493,2,0,P|371:265|385:179,1,180,4|0,0:0|0:0,0:0:0:0:
307,67,40110,1,6,0:0:0:0:
272,77,40212,1,0,0:0:0:0:
237,86,40315,1,2,0:0:0:0:
202,96,40418,1,0,0:0:0:0:
167,107,40521,1,2,0:0:0:0:
48,244,40726,6,0,P|94:246|137:223,1,90,0|4,0:0|0:0,0:0:0:0:
53,75,41137,2,0,P|51:119|71:160,1,90
218,239,41548,1,0,0:0:0:0:
218,239,41753,2,0,P|308:233|386:187,1,180,4|0,0:0|0:0,0:0:0:0:
425,107,42370,2,0,P|462:136|482:181,1,90,0|4,0:0|0:0,0:0:0:0:
383,294,42781,2,0,P|346:265|326:220,1,90
344,138,43192,1,0,0:0:0:0:
406,202,43397,1,4,0:0:0:0:
354,49,43603,1,0,0:0:0:0:
239,162,43808,2,0,P|169:218|82:256,1,180,0|4,0:0|0:0,0:0:0:0:
86,254,44425,1,0,0:0:0:0:
26,188,44630,5,0,0:0:0:0:
37,168,44733,1,0,0:0:0:0:
48,148,44836,1,0,0:0:0:0:
145,23,45041,1,4,0:0:0:0:
155,54,45144,1,0,0:0:0:0:
166,84,45247,1,0,0:0:0:0:
269,329,45452,1,0,0:0:0:0:
285,287,45555,1,0,0:0:0:0:
300,245,45657,1,0,0:0:0:0:
315,203,45760,1,0,0:0:0:0:
328,160,45863,1,4,0:0:0:0:
432,74,46068,1,0,0:0:0:0:
432,74,46274,1,0,0:0:0:0:
432,74,46685,5,4,0:0:0:0:
163,102,47096,2,0,B|108:157|148:194|148:194|97:271,1,180,0|4,0:0|0:0,0:0:0:0:
147,336,47712,2,0,L|200:258,1,90
197,261,48123,1,0,0:0:0:0:
320,205,48329,2,0,P|362:222|385:266,1,90,4|0,0:0|0:0,0:0:0:0:
250,202,48740,2,0,P|267:160|311:137,1,90
304,138,49048,1,0,0:0:0:0:
304,138,49151,1,4,0:0:0:0:
304,138,49356,1,0,0:0:0:0:
141,61,49562,5,0,0:0:0:0:
56,90,49767,1,0,0:0:0:0:
123,150,49973,1,4,0:0:0:0:
77,23,50178,1,0,0:0:0:0:
53,156,50384,2,0,P|75:198|115:222,1,90
164,344,50795,2,0,P|206:322|230:282,1,90,4|0,0:0|0:0,0:0:0:0:
216,197,51205,1,0,0:0:0:0:
123,150,51411,1,0,0:0:0:0:
216,197,51616,1,4,0:0:0:0:
319,211,51822,6,0,P|385:152|408:53,1,180,2|0,0:0|0:0,0:0:0:0:
408,66,52438,1,4,0:0:0:0:
278,103,52644,1,0,0:0:0:0:
482,181,52849,1,4,0:0:0:0:
302,309,53055,1,0,0:0:0:0:
436,304,53260,1,4,0:0:0:0:
365,190,53466,1,0,0:0:0:0:
302,309,53671,1,4,0:0:0:0:
302,309,53877,6,0,P|215:313|126:266,1,180,0|0,0:0|0:0,0:0:0:0:
133,272,54493,1,4,0:0:0:0:
70,207,54699,2,0,P|113:186|157:187,2,90,0|4|0,0:0|0:0|0:0,0:0:0:0:
242,188,55315,2,0,P|230:144|199:111,1,90,0|4,0:0|0:0,0:0:0:0:
293,18,55932,1,0,0:0:0:0:
260,78,56137,2,0,P|286:114|303:158,1,90,4|0,0:0|0:0,0:0:0:0:
280,301,56548,2,0,P|327:300|368:276,1,90,4|0,0:0|0:0,0:0:0:0:
450,255,56959,5,4,0:0:0:0:
430,167,57164,1,0,0:0:0:0:
385,88,57370,1,0,0:0:0:0:
338,164,57575,5,4,0:0:0:0:
262,116,57780,1,0,0:0:0:0:
174,94,57986,1,0,0:0:0:0:
193,182,58192,5,4,0:0:0:0:
105,202,58397,2,0,P|31:255|0:337,1,180,4|0,0:0|0:0,0:0:0:0:
155,334,59014,2,0,L|247:318,1,90,4|0,0:0|0:0,0:0:0:0:
331,297,59425,1,2,0:0:0:0:
365,286,59527,1,0,0:0:0:0:
397,269,59630,1,0,0:0:0:0:
418,239,59733,1,0,0:0:0:0:
426,203,59836,1,0,0:0:0:0:
409,171,59938,1,0,0:0:0:0:
386,142,60041,1,0,0:0:0:0:
386,105,60144,1,0,0:0:0:0:
404,74,60247,1,0,0:0:0:0:
228,32,60863,5,4,0:0:0:0:
57,87,61068,1,4,0:0:0:0:
195,201,61479,5,0,0:0:0:0:
177,367,61890,1,4,0:0:0:0:
267,355,62096,1,0,0:0:0:0:
338,300,62301,1,4,0:0:0:0:
374,218,62507,1,0,0:0:0:0:
264,51,62712,1,4,0:0:0:0:
174,63,62918,1,0,0:0:0:0:
103,118,63123,1,0,0:0:0:0:
67,200,63329,1,0,0:0:0:0:
125,268,63534,2,0,P|154:235|154:182,2,90,4|0|0,0:0|0:0|0:0,0:0:0:0:
67,200,64151,1,4,0:0:0:0:
236,253,64356,2,0,P|281:235|314:207,1,90,0|4,0:0|0:0,0:0:0:0:
312,208,64767,5,0,0:0:0:0:
231,168,64973,2,0,P|309:119|393:167,1,180,4|0,0:0|0:0,0:0:0:0:
382,151,65589,1,4,0:0:0:0:
149,249,65795,2,0,P|100:171|148:87,1,180,4|0,0:0|0:0,0:0:0:0:
132,97,66411,1,4,0:0:0:0:
220,76,66616,5,4,0:0:0:0:
235,59,66719,1,0,0:0:0:0:
250,42,66822,1,0,0:0:0:0:
338,25,67027,1,0,0:0:0:0:
458,133,67233,1,4,0:0:0:0:
332,235,67438,1,4,0:0:0:0:
301,149,67644,5,0,0:0:0:0:
451,208,67849,1,0,0:0:0:0:
292,308,68055,1,4,0:0:0:0:
277,325,68158,1,0,0:0:0:0:
262,342,68261,1,0,0:0:0:0:
146,356,68466,6,0,P|109:324|90:284,1,90,4|0,0:0|0:0,0:0:0:0:
5,258,68877,2,0,P|37:221|77:202,1,90,0|4,0:0|0:0,0:0:0:0:
137,139,69288,1,4,0:0:0:0:
267,171,69493,1,4,0:0:0:0:
267,171,69596,1,4,0:0:0:0:
337,56,69801,1,0,0:0:0:0:
418,164,70007,1,0,0:0:0:0:
381,190,70110,2,0,P|354:264|488:254,1,270,4|0,0:0|0:0,0:0:0:0:
501,213,70932,1,4,0:0:0:0:
489,166,71137,1,6,0:0:0:0:
374,62,71548,6,0,L|308:128,1,90,2|4,0:0|0:0,0:0:0:0:
156,186,71959,2,0,L|220:123,1,90,0|8,0:0|0:0,0:0:0:0:
248,37,72370,2,0,P|198:38|152:69,1,90,0|4,0:0|0:0,0:0:0:0:
62,184,72781,1,0,0:0:0:0:
184,289,72986,1,8,0:0:0:0:
140,368,73192,2,0,P|230:370|278:298,1,180,2|0,0:0|0:0,0:0:0:0:
294,147,73808,2,0,L|379:186,1,90,8|0,0:0|0:0,0:0:0:0:
426,310,74219,1,4,0:0:0:0:
398,294,74322,1,0,0:0:0:0:
370,277,74425,1,0,0:0:0:0:
219,171,74630,2,0,P|218:125|247:84,1,90,8|0,0:0|0:0,0:0:0:0:
316,38,75041,5,4,0:0:0:0:
316,38,75247,1,0,0:0:0:0:
102,132,75452,1,8,0:0:0:0:
102,132,75658,1,0,0:0:0:0:
410,252,75863,1,4,0:0:0:0:
410,252,76069,1,0,0:0:0:0:
196,346,76274,1,8,0:0:0:0:
196,346,76479,2,0,P|112:319|60:243,1,180
140,42,77096,2,0,P|177:65|198:105,1,90,8|0,0:0|0:0,0:0:0:0:
182,194,77507,1,4,0:0:0:0:
51,160,77712,1,0,0:0:0:0:
198,105,77918,1,8,0:0:0:0:
267,161,78123,6,0,P|355:156|432:83,1,180,2|0,0:0|0:0,0:0:0:0:
477,171,78740,2,0,L|453:258,1,90,8|0,0:0|0:0,0:0:0:0:
299,301,79151,1,4,0:0:0:0:
311,272,79254,1,0,0:0:0:0:
323,243,79356,1,0,0:0:0:0:
278,74,79562,2,0,P|234:79|198:105,1,90,8|2,0:0|0:0,0:0:0:0:
153,183,79973,5,4,0:0:0:0:
132,270,80178,2,0,P|108:312|65:339,1,90,0|8,0:0|0:0,0:0:0:0:
41,251,80589,1,0,0:0:0:0:
226,243,80795,1,4,0:0:0:0:
226,243,80897,1,0,0:0:0:0:
226,243,81000,1,0,0:0:0:0:
63,167,81205,1,8,0:0:0:0:
243,154,81411,1,0,0:0:0:0:
403,234,81616,6,0,P|423:273|420:317,1,90,4|0,0:0|0:0,0:0:0:0:
333,294,82027,2,0,P|293:314|249:311,1,90,4|0,0:0|0:0,0:0:0:0:
183,373,82438,2,0,P|162:333|165:289,1,90,4|0,0:0|0:0,0:0:0:0:
109,218,82849,2,0,P|148:197|192:200,1,90,4|0,0:0|0:0,0:0:0:0:
279,227,83260,1,12,0:0:0:0:
249,312,83466,1,0,0:0:0:0:
109,137,83671,1,8,0:0:0:0:
268,51,83877,1,0,0:0:0:0:
220,144,84082,2,0,P|319:142|371:74,1,180,12|8,0:0|0:0,0:0:0:0:
456,66,84699,6,0,P|424:151|350:214,1,180,2|0,0:0|0:0,0:0:0:0:
393,292,85315,2,0,P|348:296|304:278,1,90,8|0,0:0|0:0,0:0:0:0:
229,233,85726,1,4,0:0:0:0:
206,237,85829,1,0,0:0:0:0:
184,242,85932,1,0,0:0:0:0:
105,284,86137,1,8,0:0:0:0:
105,284,86342,6,0,B|76:222|76:222|17:182|45:121,1,180,2|0,0:0|0:0,0:0:0:0:
45,35,86959,2,0,P|89:43|121:78,1,90,8|0,0:0|0:0,0:0:0:0:
160,155,87370,1,4,0:0:0:0:
181,161,87473,1,0,0:0:0:0:
202,166,87575,1,0,0:0:0:0:
288,141,87781,1,8,0:0:0:0:
431,215,87986,1,0,0:0:0:0:
411,332,88192,6,0,P|367:318|333:280,1,90,4|0,0:0|0:0,0:0:0:0:
288,141,88603,1,4,0:0:0:0:
288,141,88808,1,0,0:0:0:0:
428,60,89014,1,4,0:0:0:0:
288,141,89219,1,0,0:0:0:0:
138,204,89425,1,4,0:0:0:0:
138,204,89527,1,0,0:0:0:0:
138,204,89630,1,0,0:0:0:0:
273,293,89836,5,8,0:0:0:0:
273,293,89938,1,0,0:0:0:0:
113,323,90144,1,0,0:0:0:0:
113,323,90247,1,8,0:0:0:0:
227,208,90452,1,0,0:0:0:0:
389,218,90658,1,8,0:0:0:0:
407,192,90760,1,0,0:0:0:0:
421,163,90863,1,0,0:0:0:0:
407,134,90966,1,0,0:0:0:0:
389,107,91068,1,8,0:0:0:0:
320,165,91274,6,0,P|266:96|184:59,1,180,2|0,0:0|0:0,0:0:0:0:
19,115,91890,2,0,P|30:160|62:192,1,90,8|0,0:0|0:0,0:0:0:0:
111,116,92301,1,4,0:0:0:0:
13,267,92507,1,0,0:0:0:0:
148,201,92712,1,8,0:0:0:0:
148,200,92918,2,0,P|218:146|306:130,1,180,2|0,0:0|0:0,0:0:0:0:
370,66,93534,1,8,0:0:0:0:
306,130,93740,1,0,0:0:0:0:
411,219,93945,1,4,0:0:0:0:
412,246,94048,1,0,0:0:0:0:
413,273,94151,1,0,0:0:0:0:
307,331,94356,1,12,0:0:0:0:
306,304,94459,1,0,0:0:0:0:
305,277,94562,1,0,0:0:0:0:
238,216,94767,6,0,P|204:183|195:132,1,90,4|0,0:0|0:0,0:0:0:0:
194,142,95178,1,0,0:0:0:0:
46,75,95384,2,0,P|74:35|114:13,1,90,4|0,0:0|0:0,0:0:0:0:
108,14,95795,1,4,0:0:0:0:
121,175,96000,1,0,0:0:0:0:
121,175,96205,2,0,P|207:155|274:80,1,180,4|4,0:0|0:0,0:0:0:0:
423,39,96822,1,4,0:0:0:0:
423,39,97027,1,0,0:0:0:0:
419,201,97233,5,6,0:0:0:0:
404,228,97336,1,0,0:0:0:0:
300,256,97541,1,4,0:0:0:0:
270,266,97644,1,0,0:0:0:0:
180,254,97849,1,4,0:0:0:0:
91,271,98055,2,0,P|63:235|53:192,2,90,6|0|4,0:0|0:0|0:0,0:0:0:0:
256,192,98671,12,0,101342,0:0:0:0:
96,132,104219,5,4,0:0:0:0:
96,132,104630,6,0,P|166:79|272:72,1,180,2|4,0:0|0:0,0:0:0:0:
325,11,105247,2,0,P|343:54|334:104,1,90
279,237,105658,2,0,P|261:196|267:152,1,90,0|4,0:0|0:0,0:0:0:0:
267,152,106068,1,0,0:0:0:0:
352,180,106274,2,0,P|430:118|426:33,1,180,0|4,0:0|0:0,0:0:0:0:
430,43,106890,1,0,0:0:0:0:
430,43,107301,1,0,0:0:0:0:
430,43,107712,1,0,0:0:0:0:
352,88,107918,6,0,P|306:85|263:64,1,90
202,2,108329,1,4,0:0:0:0:
266,66,108534,2,0,P|263:110|244:151,1,90
180,216,108945,1,0,0:0:0:0:
159,127,109151,2,0,P|204:132|245:151,1,90,4|0,0:0|0:0,0:0:0:0:
245,151,109459,1,0,0:0:0:0:
245,151,109562,5,0,0:0:0:0:
301,220,109767,1,0,0:0:0:0:
259,300,109973,1,4,0:0:0:0:
171,319,110178,1,0,0:0:0:0:
73,225,110384,1,0,0:0:0:0:
91,91,110589,1,0,0:0:0:0:
213,33,110795,2,0,L|303:33,1,90,4|0,0:0|0:0,0:0:0:0:
423,92,111205,6,0,P|362:157|251:149,1,180,2|4,0:0|0:0,0:0:0:0:
275,160,111822,1,0,0:0:0:0:
178,254,112027,2,0,L|90:232,1,90
39,98,112438,2,0,L|126:119,1,90,4|0,0:0|0:0,0:0:0:0:
126,119,112849,1,0,0:0:0:0:
273,246,113055,2,0,P|316:270|363:279,1,90,0|4,0:0|0:0,0:0:0:0:
432,355,113466,2,0,P|456:312|465:265,1,90
400,143,113877,2,0,P|410:99|432:60,2,90,0|4|0,0:0|0:0|0:0,0:0:0:0:
400,143,114493,6,0,P|322:100|216:98,1,180,0|4,0:0|0:0,0:0:0:0:
232,94,115007,1,0,0:0:0:0:
232,94,115110,1,0,0:0:0:0:
150,131,115315,1,0,0:0:0:0:
220,187,115521,1,4,0:0:0:0:
160,47,115726,1,4,0:0:0:0:
71,177,115932,2,0,P|70:266|137:347,1,180
121,337,116548,1,4,0:0:0:0:
441,207,116753,2,0,P|442:118|375:37,1,180
249,123,117370,5,4,0:0:0:0:
248,155,117473,1,0,0:0:0:0:
253,186,117575,1,0,0:0:0:0:
266,215,117678,1,0,0:0:0:0:
283,242,117781,1,2,0:0:0:0:
352,298,117986,2,0,P|366:252|360:208,1,90,0|4,0:0|0:0,0:0:0:0:
360,211,118397,1,0,0:0:0:0:
249,123,118603,2,0,P|167:91|71:117,1,180,0|4,0:0|0:0,0:0:0:0:
80,111,119219,1,0,0:0:0:0:
2,243,119425,2,0,P|40:259|97:260,1,90
119,345,119836,2,0,P|176:278|137:187,1,180,4|0,0:0|0:0,0:0:0:0:
150,197,120452,1,0,0:0:0:0:
80,111,120658,6,0,L|131:35,1,90,4|0,0:0|0:0,0:0:0:0:
309,66,121068,1,0,0:0:0:0:
352,144,121274,2,0,P|354:192|331:240,1,90,0|4,0:0|0:0,0:0:0:0:
370,314,121685,2,0,P|325:316|283:300,1,90
199,333,122096,2,0,P|197:285|220:237,1,90
212,246,122507,1,0,0:0:0:0:
352,145,122712,5,4,0:0:0:0:
219,50,123021,1,4,0:0:0:0:
66,104,123329,1,4,0:0:0:0:
66,104,123534,1,0,0:0:0:0:
48,246,123740,6,0,P|70:297|94:328,1,90,0|4,0:0|0:0,0:0:0:0:
113,345,124048,1,0,0:0:0:0:
140,360,124151,1,0,0:0:0:0:
242,367,124356,6,0,P|314:314|347:219,1,180,2|4,0:0|0:0,0:0:0:0:
270,17,124973,2,0,P|198:70|165:165,1,180,2|0,0:0|0:0,0:0:0:0:
431,206,125589,2,0,P|378:134|283:101,1,180,6|0,0:0|0:0,0:0:0:0:
86,142,126205,1,0,0:0:0:0:
86,142,126411,1,4,0:0:0:0:
86,142,126616,1,0,0:0:0:0:
283,188,126822,1,0,0:0:0:0:
283,188,127027,2,0,P|364:150|428:66,1,180
248,35,127644,6,0,L|156:47,1,90,2|0,0:0|0:0,0:0:0:0:
145,50,127952,1,0,0:0:0:0:
24,137,128158,1,0,0:0:0:0:
30,181,128260,1,4,0:0:0:0:
109,311,128466,1,0,0:0:0:0:
135,274,128568,1,0,0:0:0:0:
157,234,128671,1,0,0:0:0:0:
218,154,128877,1,4,0:0:0:0:
218,154,128979,1,0,0:0:0:0:
218,154,129082,6,0,P|289:214|383:231,1,180,4|0,0:0|0:0,0:0:0:0:
461,213,129699,1,4,0:0:0:0:
399,147,129904,1,0,0:0:0:0:
313,306,130110,1,4,0:0:0:0:
218,154,130315,1,0,0:0:0:0:
334,85,130521,1,4,0:0:0:0:
121,161,130726,2,0,P|79:145|41:107,1,90,0|2,0:0|0:0,0:0:0:0:
220,64,131342,6,0,P|260:28|300:12,1,90,4|4,0:0|0:0,0:0:0:0:
456,88,131959,1,0,0:0:0:0:
456,88,132164,2,0,L|436:176,1,90,4|0,0:0|0:0,0:0:0:0:
380,248,132575,1,0,0:0:0:0:
352,136,132781,1,0,0:0:0:0:
276,260,132986,1,4,0:0:0:0:
224,96,133192,1,0,0:0:0:0:
140,60,133397,2,0,P|91:68|56:92,1,90
0,304,133808,2,0,P|48:295|84:272,1,90,4|0,0:0|0:0,0:0:0:0:
16,212,134219,6,0,P|96:180|168:248,1,180,0|4,0:0|0:0,0:0:0:0:
216,308,134836,2,0,L|308:300,1,90,4|0,0:0|0:0,0:0:0:0:
305,300,135247,1,0,0:0:0:0:
437,212,135452,2,0,L|348:220,1,90,4|0,0:0|0:0,0:0:0:0:
260,196,135863,1,0,0:0:0:0:
196,132,136069,1,0,0:0:0:0:
228,48,136274,1,4,0:0:0:0:
406,64,136479,1,0,0:0:0:0:
470,128,136685,1,4,0:0:0:0:
438,212,136890,1,0,0:0:0:0:
284,307,137096,5,4,0:0:0:0:
253,316,137199,1,0,0:0:0:0:
221,318,137301,1,0,0:0:0:0:
189,315,137404,1,0,0:0:0:0:
158,308,137507,1,2,0:0:0:0:
35,277,140178,6,0,P|79:273|121:249,1,90,0|4,0:0|0:0,0:0:0:0:
118,251,140589,1,0,0:0:0:0:
240,143,140795,2,0,P|326:112|419:120,1,180,0|4,0:0|0:0,0:0:0:0:
461,194,141411,1,0,0:0:0:0:
461,194,141514,1,0,0:0:0:0:
461,194,141616,2,0,P|420:204|371:194,1,90
240,143,142027,1,4,0:0:0:0:
72,90,142233,6,0,P|117:86|160:99,1,90
42,226,142644,2,0,P|69:191|109:170,1,90,0|4,0:0|0:0,0:0:0:0:
128,258,143055,2,0,P|216:265|310:202,1,180,4|0,0:0|0:0,0:0:0:0:
293,221,143671,1,4,0:0:0:0:
421,308,143877,2,0,P|376:312|333:299,1,90,0|0,0:0|0:0,0:0:0:0:
452,173,144288,2,0,P|424:207|384:228,1,90,0|4,0:0|0:0,0:0:0:0:
384,228,144699,1,4,0:0:0:0:
239,299,144904,1,0,0:0:0:0:
239,299,145110,2,0,P|184:234|186:135,1,180
255,28,145726,5,4,0:0:0:0:
284,40,145829,1,4,0:0:0:0:
420,147,146034,1,0,0:0:0:0:
391,135,146137,1,4,0:0:0:0:
240,152,146342,1,4,0:0:0:0:
320,256,146548,1,4,0:0:0:0:
240,300,146753,5,4,0:0:0:0:
208,308,146856,1,0,0:0:0:0:
176,308,146959,1,0,0:0:0:0:
148,296,147062,1,0,0:0:0:0:
120,284,147164,1,4,0:0:0:0:
92,272,147267,1,0,0:0:0:0:
60,264,147370,1,4,0:0:0:0:
256,192,147781,12,0,148397,0:0:0:0:
414,182,148603,5,2,0:0:0:0:
382,177,148705,1,0,0:0:0:0:
358,156,148808,2,0,L|297:86,1,90,0|4,0:0|0:0,0:0:0:0:
219,45,149219,2,0,B|188:131|263:168|263:168|246:222,1,180,4|2,0:0|0:0,0:0:0:0:
206,277,149836,6,0,P|168:305|122:315,1,90,4|0,0:0|0:0,0:0:0:0:
0,275,150246,2,0,P|35:248|79:238,1,90,8|0,0:0|0:0,0:0:0:0:
297,274,150657,1,4,0:0:0:0:
381,304,150863,1,0,0:0:0:0:
440,237,151068,1,8,0:0:0:0:
370,179,151274,2,0,P|285:142|222:72,1,180,2|0,0:0|0:0,0:0:0:0:
145,38,151890,2,0,P|101:44|65:69,1,90,8|0,0:0|0:0,0:0:0:0:
208,176,152301,2,0,P|252:170|288:145,1,90,4|0,0:0|0:0,0:0:0:0:
344,73,152712,2,0,P|369:109|375:153,1,90,8|0,0:0|0:0,0:0:0:0:
465,152,153123,5,4,0:0:0:0:
465,152,153226,1,0,0:0:0:0:
465,152,153329,2,0,P|457:195|430:230,1,90,0|12,0:0|0:0,0:0:0:0:
354,281,153740,1,0,0:0:0:0:
354,281,153945,1,4,0:0:0:0:
177,253,154151,1,0,0:0:0:0:
295,120,154356,1,12,0:0:0:0:
295,120,154562,2,0,P|216:79|127:76,1,180
13,221,155178,2,0,P|37:259|74:285,1,90,12|0,0:0|0:0,0:0:0:0:
129,384,155589,2,0,P|167:360|193:323,1,90,4|0,0:0|0:0,0:0:0:0:
192,323,156000,1,12,0:0:0:0:
136,175,156205,6,0,P|229:173|304:214,1,180,2|0,0:0|0:0,0:0:0:0:
393,199,156822,2,0,P|390:247|364:284,1,90,8|0,0:0|0:0,0:0:0:0:
279,301,157233,1,4,0:0:0:0:
279,301,157336,1,0,0:0:0:0:
279,301,157438,1,0,0:0:0:0:
332,131,157644,2,0,P|374:110|421:105,2,90,8|2|4,0:0|0:0|0:0,0:0:0:0:
267,194,158260,2,0,P|225:215|178:220,1,90,0|8,0:0|0:0,0:0:0:0:
95,195,158671,1,0,0:0:0:0:
95,195,158774,1,0,0:0:0:0:
95,195,158877,1,4,0:0:0:0:
41,123,159082,1,0,0:0:0:0:
224,51,159288,1,8,0:0:0:0:
81,44,159493,5,0,0:0:0:0:
81,44,159596,1,0,0:0:0:0:
81,44,159699,1,4,0:0:0:0:
207,133,159904,2,0,P|260:128|302:94,1,90,0|4,0:0|0:0,0:0:0:0:
354,44,160315,2,0,P|376:82|378:126,1,90,0|4,0:0|0:0,0:0:0:0:
442,190,160726,2,0,P|403:212|359:214,1,90,0|4,0:0|0:0,0:0:0:0:
358,213,161137,1,0,0:0:0:0:
207,132,161342,5,12,0:0:0:0:
207,132,161548,1,0,0:0:0:0:
92,203,161753,1,12,0:0:0:0:
92,203,161959,1,0,0:0:0:0:
210,266,162164,1,12,0:0:0:0:
96,339,162370,1,0,0:0:0:0:
307,287,162575,1,12,0:0:0:0:
359,214,162781,6,0,P|378:128|354:41,1,180,2|0,0:0|0:0,0:0:0:0:
197,27,163397,2,0,L|109:48,1,90,8|0,0:0|0:0,0:0:0:0:
23,75,163808,2,0,P|53:114|98:135,1,90,4|0,0:0|0:0,0:0:0:0:
88,132,164219,1,8,0:0:0:0:
194,229,164425,2,0,P|164:313|67:359,1,180,2|0,0:0|0:0,0:0:0:0:
17,300,165041,2,0,P|56:273|97:266,1,90,8|0,0:0|0:0,0:0:0:0:
259,316,165452,1,4,0:0:0:0:
290,318,165555,1,0,0:0:0:0:
321,315,165657,1,0,0:0:0:0:
404,279,165863,1,8,0:0:0:0:
467,215,166068,6,0,P|428:193|381:192,1,90,0|4,0:0|0:0,0:0:0:0:
296,215,166479,2,0,P|265:182|253:139,1,90,0|12,0:0|0:0,0:0:0:0:
276,52,166890,1,0,0:0:0:0:
276,52,166993,1,0,0:0:0:0:
276,52,167096,1,4,0:0:0:0:
421,108,167301,1,0,0:0:0:0:
164,202,167507,1,12,0:0:0:0:
357,137,167712,1,0,0:0:0:0:
164,202,167918,6,0,P|122:186|87:159,1,90,12|0,0:0|0:0,0:0:0:0:
227,34,168329,2,0,P|211:76|184:112,1,90,12|0,0:0|0:0,0:0:0:0:
39,226,168740,1,12,0:0:0:0:
164,202,168945,1,0,0:0:0:0:
164,202,169048,1,0,0:0:0:0:
164,202,169151,1,12,0:0:0:0:
265,238,169356,6,0,P|354:249|444:214,1,180,10|0,0:0|0:0,0:0:0:0:
462,131,169972,2,0,L|428:48,1,90,8|0,0:0|0:0,0:0:0:0:
278,50,170383,2,0,L|312:133,1,90,4|0,0:0|0:0,0:0:0:0:
365,249,170794,1,8,0:0:0:0:
257,318,171000,2,0,P|171:315|89:232,1,180,10|0,0:0|0:0,0:0:0:0:
14,232,171616,2,0,P|38:194|79:171,1,90,8|0,0:0|0:0,0:0:0:0:
164,154,172027,1,4,0:0:0:0:
293,193,172233,1,0,0:0:0:0:
324,187,172336,1,0,0:0:0:0:
354,181,172438,1,8,0:0:0:0:
458,95,172644,1,0,0:0:0:0:
330,50,172849,5,4,0:0:0:0:
215,228,173055,1,4,0:0:0:0:
226,317,173260,1,0,0:0:0:0:
215,228,173466,1,4,0:0:0:0:
239,141,173671,2,0,P|235:93|215:55,1,90,0|4,0:0|0:0,0:0:0:0:
216,56,174082,1,0,0:0:0:0:
31,143,174288,2,0,P|45:232|108:318,1,180,4|0,0:0|0:0,0:0:0:0:
288,349,174904,1,4,0:0:0:0:
288,349,175109,1,0,0:0:0:0:
403,278,175315,5,4,0:0:0:0:
412,248,175418,1,4,0:0:0:0:
386,87,175623,1,0,0:0:0:0:
377,117,175726,1,4,0:0:0:0:
281,211,175931,1,4,0:0:0:0:
154,258,176137,1,4,0:0:0:0:
133,234,176240,1,0,0:0:0:0:
117,207,176342,1,0,0:0:0:0:
112,175,176445,1,0,0:0:0:0:
110,143,176548,1,4,0:0:0:0:
256,192,176753,12,4,179425,0:0:0:0:
368,84,179836,6,0,P|288:44|196:52,1,180,4|0,0:0|0:0,0:0:0:0:
144,300,180657,2,0,P|224:340|316:332,1,180,4|0,0:0|0:0,0:0:0:0:
260,160,181479,2,0,L|172:176,1,90,4|0,0:0|0:0,0:0:0:0:
8,240,181890,2,0,L|96:224,1,90,4|0,0:0|0:0,0:0:0:0:
260,160,182301,6,0,P|338:115|384:96,1,135,4|0,0:0|0:0,0:0:0:0:
379,97,182712,2,0,P|391:184|341:272,1,180,4|4,0:0|0:0,0:0:0:0:
280,320,183329,1,4,0:0:0:0:
260,328,183431,1,0,0:0:0:0:
236,328,183534,1,0,0:0:0:0:
156,288,183740,2,0,P|129:252|114:209,1,90,0|4,0:0|0:0,0:0:0:0:
40,156,184151,2,0,P|75:129|118:114,1,90,0|0,0:0|0:0,0:0:0:0:
164,36,184562,2,0,P|190:71|205:114,1,90,0|4,0:0|0:0,0:0:0:0:
205,114,184972,1,0,0:0:0:0:
160,372,185178,1,4,0:0:0:0:
300,248,185383,1,4,0:0:0:0:
364,179,185589,2,0,L|379:91,1,90,4|0,0:0|0:0,0:0:0:0:
477,153,186000,6,0,L|462:241,1,90,4|0,0:0|0:0,0:0:0:0:
372,380,186411,2,0,L|387:292,1,90
364,180,186822,2,0,P|276:176|191:136,1,180,4|0,0:0|0:0,0:0:0:0:
193,137,187438,1,4,0:0:0:0:
154,56,187644,5,2,0:0:0:0:
133,32,187746,1,0,0:0:0:0:
101,26,187849,1,0,0:0:0:0:
71,36,187952,1,0,0:0:0:0:
51,60,188055,1,0,0:0:0:0:
35,87,188157,1,0,0:0:0:0:
28,117,188260,1,0,0:0:0:0:
26,148,188363,1,0,0:0:0:0:
26,179,188466,5,0,0:0:0:0:
32,232,188568,2,0,L|47:284,1,45
106,291,188774,2,0,L|152:320,1,45
214,297,188979,2,0,L|265:290,1,45
329,250,189185,2,0,L|369:228,1,45
436,96,189699,6,0,L|400:68,1,45,4|0,0:0|0:0,0:0:0:0:
400,68,190109,1,4,0:0:0:0:
228,120,190520,1,0,0:0:0:0:
228,120,190726,2,4,L|184:120,1,45,4|0,0:0|0:0,0:0:0:0:
104,160,191137,2,0,L|148:160,1,45,0|4,0:0|0:0,0:0:0:0:
224,208,191548,1,0,0:0:0:0:
304,248,191753,1,4,0:0:0:0:
384,208,191959,1,0,0:0:0:0:
304,164,192164,1,4,0:0:0:0:
152,248,192370,1,0,0:0:0:0:
76,300,192575,6,0,P|51:338|44:384,2,90,4|0|4,0:0|0:0|0:0,0:0:0:0:
152,248,193603,1,4,0:0:0:0:
384,208,193808,1,0,0:0:0:0:
456,116,194014,2,0,L|456:72,1,45,4|0,0:0|0:0,0:0:0:0:
304,28,194425,2,0,L|304:72,1,45,4|4,0:0|0:0,0:0:0:0:
304,73,194836,1,0,0:0:0:0:
224,160,195041,1,4,0:0:0:0:
136,176,195246,1,0,0:0:0:0:
60,124,195452,1,4,0:0:0:0:
60,124,195657,1,0,0:0:0:0:
196,244,195863,6,0,P|200:288|180:336,1,90,4|0,0:0|0:0,0:0:0:0:
112,280,196479,1,4,0:0:0:0:
224,160,196685,2,0,P|257:188|277:236,1,90,4|0,0:0|0:0,0:0:0:0:
276,229,197301,1,4,0:0:0:0:
344,292,197507,2,0,L|388:280,1,45,0|0,0:0|0:0,0:0:0:0:
472,160,197918,2,0,L|428:172,1,45,4|0,0:0|0:0,0:0:0:0:
340,192,198329,1,4,0:0:0:0:
256,160,198534,1,0,0:0:0:0:
256,160,198740,1,4,0:0:0:0:
256,160,198945,1,0,0:0:0:0:
40,224,199151,6,0,L|84:212,1,45,4|0,0:0|0:0,0:0:0:0:
172,188,199562,1,0,0:0:0:0:
344,284,199767,2,0,L|300:296,1,45,4|0,0:0|0:0,0:0:0:0:
212,320,200178,1,0,0:0:0:0:
212,320,200383,1,4,0:0:0:0:
300,64,200589,1,4,0:0:0:0:
256,192,200794,12,0,202027,0:0:0:0:
192,72,202438,5,2,0:0:0:0:
160,88,204082,5,0,0:0:0:0:
123,248,204904,6,0,P|79:234|42:205,2,90,2|0|0,0:0|0:0|0:0,0:0:0:0:
212,241,205520,1,0,0:0:0:0:
212,241,205623,1,0,0:0:0:0:
212,241,205726,1,4,0:0:0:0:
385,194,205931,1,0,0:0:0:0:
385,194,206034,1,0,0:0:0:0:
385,194,206137,1,4,0:0:0:0:
256,70,206342,1,0,0:0:0:0:
256,70,206445,1,0,0:0:0:0:
256,70,206548,1,4,0:0:0:0:
90,137,206753,2,0,L|60:227,2,90,0|4|0,0:0|0:0|0:0,0:0:0:0:
197,30,207370,6,0,P|270:29|332:60,1,135,4|0,0:0|0:0,0:0:0:0:
325,54,207781,1,4,0:0:0:0:
438,148,207986,1,0,0:0:0:0:
449,177,208089,1,0,0:0:0:0:
461,205,208192,1,4,0:0:0:0:
361,335,208397,1,0,0:0:0:0:
354,304,208500,1,0,0:0:0:0:
347,273,208603,1,4,0:0:0:0:
279,136,208808,1,0,0:0:0:0:
192,160,209014,6,0,P|145:160|99:148,1,90,4|0,0:0|0:0,0:0:0:0:
26,101,209425,1,4,0:0:0:0:
104,56,209630,1,0,0:0:0:0:
127,235,209836,2,0,P|162:295|224:336,1,135,4|0,0:0|0:0,0:0:0:0:
214,332,210246,1,4,0:0:0:0:
349,338,210452,1,0,0:0:0:0:
448,248,210657,6,0,L|418:163,1,90,4|0,0:0|0:0,0:0:0:0:
418,163,210966,1,0,0:0:0:0:
418,163,211068,1,4,0:0:0:0:
335,125,211274,1,0,0:0:0:0:
253,163,211479,1,4,0:0:0:0:
226,145,211582,1,0,0:0:0:0:
208,118,211685,1,0,0:0:0:0:
197,88,211788,1,0,0:0:0:0:
199,56,211890,1,4,0:0:0:0:
199,56,212096,1,0,0:0:0:0:
336,60,212301,6,0,P|383:74|403:113,1,90,4|0,0:0|0:0,0:0:0:0:
402,107,212712,1,0,0:0:0:0:
470,210,212918,2,0,P|426:233|385:219,1,90,4|4,0:0|0:0,0:0:0:0:
389,223,213329,1,0,0:0:0:0:
282,153,213534,2,0,L|194:182,1,90,4|0,0:0|0:0,0:0:0:0:
110,208,213945,1,0,0:0:0:0:
167,330,214151,1,4,0:0:0:0:
167,54,214356,1,4,0:0:0:0:
282,153,214562,1,0,0:0:0:0:
367,181,214767,6,0,P|438:175|495:122,2,135,4|4|4,0:0|0:0|0:0,0:0:0:0:
203,130,215589,2,0,P|122:169|63:237,1,180,4|0,0:0|0:0,0:0:0:0:
309,254,216205,2,0,P|390:215|449:147,1,180,4|0,0:0|0:0,0:0:0:0:
448,148,216822,1,4,0:0:0:0:
230,61,217027,1,4,0:0:0:0:
198,58,217130,1,0,0:0:0:0:
167,67,217233,1,0,0:0:0:0:
146,90,217336,1,0,0:0:0:0:
136,119,217438,1,4,0:0:0:0:
175,256,217644,2,0,L|212:343,1,90,4|0,0:0|0:0,0:0:0:0:
210,338,218055,5,0,0:0:0:0:
210,338,218466,1,0,0:0:0:0:
388,363,218877,6,0,P|429:346|464:314,1,90,4|0,0:0|0:0,0:0:0:0:
462,225,219288,1,0,0:0:0:0:
388,173,219493,2,0,L|293:153,1,90,4|0,0:0|0:0,0:0:0:0:
287,124,219801,2,0,L|196:151,1,90,4|0,0:0|0:0,0:0:0:0:
189,180,220109,2,0,L|98:172,1,90,4|4,0:0|0:0,0:0:0:0:
95,194,220418,1,0,0:0:0:0:
91,216,220520,1,0,0:0:0:0:
87,238,220623,1,0,0:0:0:0:
83,260,220726,1,0,0:0:0:0:
79,282,220829,1,0,0:0:0:0:
75,304,220931,2,0,P|160:335|268:329,1,180,4|4,0:0|0:0,0:0:0:0:
374,267,221548,6,0,L|332:182,1,90,4|0,0:0|0:0,0:0:0:0:
334,186,221959,1,4,0:0:0:0:
434,96,222164,2,0,P|398:68|350:56,1,90,4|0,0:0|0:0,0:0:0:0:
337,82,222472,2,0,P|293:69|258:42,1,90,4|0,0:0|0:0,0:0:0:0:
226,36,222781,2,0,P|198:72|186:120,1,90,4|0,0:0|0:0,0:0:0:0:
201,156,223089,1,0,0:0:0:0:
207,200,223192,1,4,0:0:0:0:
192,242,223294,1,0,0:0:0:0:
156,269,223397,1,0,0:0:0:0:
111,276,223500,1,0,0:0:0:0:
75,248,223603,2,0,P|47:200|67:80,1,180,4|4,0:0|0:0,0:0:0:0:
148,117,224219,6,0,P|135:165|150:200,1,90,4|0,0:0|0:0,0:0:0:0:
364,267,224630,2,0,P|377:219|362:184,1,90,4|0,0:0|0:0,0:0:0:0:
308,110,225041,1,4,0:0:0:0:
269,231,225246,1,0,0:0:0:0:
463,194,225452,1,4,0:0:0:0:
308,110,225863,6,0,L|128:84,1,180,4|4,0:0|0:0,0:0:0:0:
69,17,226479,1,0,0:0:0:0:
41,104,226685,2,0,P|61:147|111:168,1,90,4|0,0:0|0:0,0:0:0:0:
126,178,226993,1,0,0:0:0:0:
157,180,227096,2,0,P|195:202|213:242,1,90,4|0,0:0|0:0,0:0:0:0:
213,242,227404,1,0,0:0:0:0:
213,242,227507,1,4,0:0:0:0:
125,262,227712,1,0,0:0:0:0:
279,170,227918,1,4,0:0:0:0:
368,164,228123,2,0,P|413:150|448:119,1,90,0|4,0:0|0:0,0:0:0:0:
366,78,228534,1,0,0:0:0:0:
326,249,228740,6,0,P|287:297|207:335,1,135,4|4,0:0|0:0,0:0:0:0:
223,331,229151,1,0,0:0:0:0:
31,223,229356,2,0,L|78:201,1,45,4|0,0:0|0:0,0:0:0:0:
196,257,229767,1,0,0:0:0:0:
186,135,229972,2,0,P|225:87|305:49,1,135,4|4,0:0|0:0,0:0:0:0:
288,52,230383,1,0,0:0:0:0:
481,161,230589,2,0,L|434:183,1,45,4|0,0:0|0:0,0:0:0:0:
469,312,231000,6,0,P|423:314|379:295,1,90,0|4,0:0|0:0,0:0:0:0:
296,326,231411,2,0,P|294:282|311:240,1,90,0|4,0:0|0:0,0:0:0:0:
423,48,231822,2,0,P|425:94|406:138,1,90,0|4,0:0|0:0,0:0:0:0:
408,134,232130,1,0,0:0:0:0:
408,134,232233,1,0,0:0:0:0:
311,241,232438,1,4,0:0:0:0:
220,239,232644,2,0,P|176:228|133:195,1,90,0|4,0:0|0:0,0:0:0:0:
63,39,233260,1,4,0:0:0:0:
256,192,233671,12,2,234493,0:0:0:0:
403,257,246822,6,0,P|345:295|276:304,1,135,2|0,0:0|0:0,0:0:0:0:
217,368,247233,2,0,P|179:310|170:241,1,135,2|0,0:0|0:0,0:0:0:0:
105,182,247644,2,0,P|163:144|232:135,1,135,2|0,0:0|0:0,0:0:0:0:
302,184,248055,2,0,P|341:155|362:111,1,90,2|2,0:0|0:0,0:0:0:0:
365,28,248466,5,4,0:0:0:0:
285,68,248671,1,0,0:0:0:0:
437,165,248877,1,8,0:0:0:0:
288,265,249082,1,0,0:0:0:0:
241,345,249288,2,0,P|208:316|198:273,1,90,4|0,0:0|0:0,0:0:0:0:
198,272,249699,1,8,0:0:0:0:
120,317,249904,2,0,P|121:231|188:160,1,180,2|0,0:0|0:0,0:0:0:0:
270,156,250520,2,0,P|254:110|218:82,1,90,8|0,0:0|0:0,0:0:0:0:
180,4,250931,2,0,P|143:36|130:82,1,90,4|0,0:0|0:0,0:0:0:0:
130,73,251342,1,8,0:0:0:0:
226,236,251548,6,0,P|270:247|318:234,1,90,0|4,0:0|0:0,0:0:0:0:
312,236,251856,1,0,0:0:0:0:
312,236,251959,1,0,0:0:0:0:
445,144,252164,1,12,0:0:0:0:
445,144,252267,1,0,0:0:0:0:
445,144,252370,1,0,0:0:0:0:
296,81,252575,1,4,0:0:0:0:
296,81,252678,1,0,0:0:0:0:
296,81,252781,1,0,0:0:0:0:
159,126,252986,1,12,0:0:0:0:
297,165,253192,1,0,0:0:0:0:
181,250,253397,5,12,0:0:0:0:
218,73,253603,1,0,0:0:0:0:
290,237,253808,1,12,0:0:0:0:
111,213,254014,1,0,0:0:0:0:
46,150,254219,1,12,0:0:0:0:
46,118,254322,1,0,0:0:0:0:
59,89,254425,1,0,0:0:0:0:
122,25,254630,5,8,0:0:0:0:
147,111,254836,2,0,P|211:173|292:153,1,180,8|0,0:0|0:0,0:0:0:0:
340,76,255452,2,0,P|375:109|388:156,1,90,8|0,0:0|0:0,0:0:0:0:
467,190,255863,2,0,P|434:225|387:238,1,90,4|0,0:0|0:0,0:0:0:0:
303,336,256274,2,0,P|269:306|255:264,1,90,8|8,0:0|0:0,0:0:0:0:
309,192,256685,2,0,P|229:177|165:256,1,180,4|8,0:0|0:0,0:0:0:0:
195,329,257301,1,0,0:0:0:0:
195,329,257507,1,4,0:0:0:0:
255,264,257712,1,0,0:0:0:0:
186,97,257918,1,8,0:0:0:0:
246,32,258123,1,0,0:0:0:0:
405,70,258329,6,0,L|429:159,1,90,4|4,0:0|0:0,0:0:0:0:
428,156,258740,1,0,0:0:0:0:
423,246,258945,2,0,P|377:233|350:194,1,90,4|0,0:0|0:0,0:0:0:0:
262,195,259356,2,0,P|275:149|314:122,1,90,4|0,0:0|0:0,0:0:0:0:
302,278,259767,2,0,P|212:272|169:199,1,180,4|4,0:0|0:0,0:0:0:0:
180,111,260383,1,4,0:0:0:0:
256,192,260589,12,0,261205,0:0:0:0:
339,142,261411,6,0,P|334:229|252:246,1,180,2|0,0:0|0:0,0:0:0:0:
128,199,262027,2,0,L|105:111,1,90,8|0,0:0|0:0,0:0:0:0:
221,43,262438,2,0,L|313:57,1,90,4|0,0:0|0:0,0:0:0:0:
466,117,262849,1,8,0:0:0:0:
324,195,263055,2,0,P|345:276|429:278,1,180,2|0,0:0|0:0,0:0:0:0:
361,130,263671,2,0,P|309:123|268:144,1,90,8|0,0:0|0:0,0:0:0:0:
155,246,264082,1,4,0:0:0:0:
259,273,264288,1,0,0:0:0:0:
204,179,264493,1,8,0:0:0:0:
106,131,264699,6,0,B|147:68|217:75|217:75|259:37,1,180
252,42,265212,1,0,0:0:0:0:
252,42,265315,1,12,0:0:0:0:
428,74,265520,1,0,0:0:0:0:
284,183,265726,1,4,0:0:0:0:
351,66,265931,1,0,0:0:0:0:
439,223,266137,1,12,0:0:0:0:
209,151,266342,6,0,B|190:232|255:258|255:258|248:324,1,180
162,334,266959,2,0,P|162:287|192:246,1,90,12|0,0:0|0:0,0:0:0:0:
367,160,267370,2,0,P|343:123|295:100,1,90,4|0,0:0|0:0,0:0:0:0:
303,101,267781,1,12,0:0:0:0:
194,22,267986,6,0,P|113:62|61:159,1,180,2|0,0:0|0:0,0:0:0:0:
94,222,268603,2,0,P|132:200|153:161,1,90,8|0,0:0|0:0,0:0:0:0:
152,161,269014,1,4,0:0:0:0:
359,222,269219,1,0,0:0:0:0:
152,161,269425,1,8,0:0:0:0:
226,210,269630,2,0,P|235:125|142:68,1,180,2|0,0:0|0:0,0:0:0:0:
68,141,270246,2,0,P|69:185|94:221,1,90,8|0,0:0|0:0,0:0:0:0:
94,221,270657,1,4,0:0:0:0:
417,162,270863,1,0,0:0:0:0:
483,223,271068,6,0,P|448:244|394:247,1,90,8|0,0:0|0:0,0:0:0:0:
399,248,271377,1,0,0:0:0:0:
399,248,271479,1,4,0:0:0:0:
291,202,271685,2,0,L|208:235,1,90,0|4,0:0|0:0,0:0:0:0:
124,150,272096,2,0,L|207:117,1,90,0|4,0:0|0:0,0:0:0:0:
314,69,272507,1,0,0:0:0:0:
314,69,272609,1,0,0:0:0:0:
314,69,272712,1,4,0:0:0:0:
198,315,272918,1,0,0:0:0:0:
108,314,273123,6,0,P|64:296|30:266,1,90,12|0,0:0|0:0,0:0:0:0:
11,180,273534,1,12,0:0:0:0:
11,180,273740,1,0,0:0:0:0:
155,107,273945,1,12,0:0:0:0:
275,215,274151,1,8,0:0:0:0:
419,142,274356,1,12,0:0:0:0:
302,125,274562,6,0,P|220:159|184:245,1,180,8|0,0:0|0:0,0:0:0:0:
290,288,275178,2,0,P|332:267|351:219,1,90,8|0,0:0|0:0,0:0:0:0:
302,125,275589,1,12,0:0:0:0:
153,61,275794,1,2,0:0:0:0:
25,161,276000,1,2,0:0:0:0:
174,222,276205,6,0,B|237:256|285:182|355:221,1,180,8|0,0:0|0:0,0:0:0:0:
412,309,276822,2,0,P|449:285|463:243,1,90,8|0,0:0|0:0,0:0:0:0:
425,131,277233,1,12,0:0:0:0:
172,222,277438,1,2,0:0:0:0:
86,249,277644,2,0,P|109:288|158:311,1,90,2|0,0:0|0:0,0:0:0:0:
282,319,278055,5,12,0:0:0:0:
282,319,278260,1,0,0:0:0:0:
310,159,278466,1,12,0:0:0:0:
310,159,278671,1,0,0:0:0:0:
420,40,278877,1,12,0:0:0:0:
310,159,279082,1,0,0:0:0:0:
155,108,279288,1,12,0:0:0:0:
65,114,279493,1,0,0:0:0:0:
244,101,279699,1,12,0:0:0:0:
158,258,279904,1,0,0:0:0:0:
99,47,280109,2,0,P|140:32|189:30,1,90,8|0,0:0|0:0,0:0:0:0:
357,84,280520,5,12,0:0:0:0:
357,84,280623,1,0,0:0:0:0:
357,84,280726,1,0,0:0:0:0:
224,205,280931,1,8,0:0:0:0:
308,236,281137,2,0,P|398:232|474:153,1,180,2|0,0:0|0:0,0:0:0:0:
373,166,281753,2,0,L|249:296,1,180,8|4,0:0|0:0,0:0:0:0:
163,328,282370,2,0,P|117:313|80:281,1,90,0|8,0:0|0:0,0:0:0:0:
41,208,282781,2,0,P|13:243|0:285,1,90,2|4,0:0|0:0,0:0:0:0:
132,217,283192,2,0,P|159:181|172:139,1,90,0|8,0:0|0:0,0:0:0:0:
162,49,283603,1,0,0:0:0:0:
93,106,283808,5,4,0:0:0:0:
257,32,284014,1,0,0:0:0:0:
286,42,284116,1,0,0:0:0:0:
316,51,284219,1,8,0:0:0:0:
429,154,284425,2,0,L|383:187,1,45
392,180,284630,1,4,0:0:0:0:
356,263,284836,2,0,P|310:260|263:235,1,90,4|0,0:0|0:0,0:0:0:0:
156,121,285246,2,0,P|202:124|249:149,1,90,4|0,0:0|0:0,0:0:0:0:
241,142,285657,1,4,0:0:0:0:
180,209,285863,1,0,0:0:0:0:
180,209,286068,6,0,P|188:300|260:365,1,180,4|0,0:0|0:0,0:0:0:0:
248,359,286582,1,0,0:0:0:0:
248,359,286685,1,4,0:0:0:0:
312,241,286890,1,0,0:0:0:0:
379,123,287096,2,8,P|418:145|437:188,1,90,4|0,0:0|0:0,0:0:0:0:
297,313,287507,2,0,P|258:291|239:248,1,90,0|0,0:0|0:0,0:0:0:0:
237,115,287918,6,0,L|154:60,1,90,4|0,0:0|0:0,0:0:0:0:
161,65,288329,1,0,0:0:0:0:
36,113,288534,1,4,0:0:0:0:
36,113,288740,2,0,L|58:203,1,90,0|4,0:0|0:0,0:0:0:0:
143,304,289151,2,0,L|160:215,1,90,0|2,0:0|0:0,0:0:0:0:
374,51,289767,5,0,0:0:0:0:
374,51,289972,1,4,0:0:0:0:
413,180,290178,1,0,0:0:0:0:
291,237,290383,2,0,L|246:246,1,45,4|0,0:0|0:0,0:0:0:0:
152,148,290692,1,4,0:0:0:0:
152,148,290794,1,0,0:0:0:0:
62,249,291000,1,4,0:0:0:0:
62,249,291103,1,0,0:0:0:0:
398,163,292233,5,2,0:0:0:0:
256,192,292849,12,0,295726,0:0:0:0:
123,102,296137,6,0,P|164:82|214:81,1,90
276,20,296548,2,0,P|295:59|299:104,1,90,4|0,0:0|0:0,0:0:0:0:
364,167,296959,2,0,P|324:186|279:190,1,90
192,164,297370,2,0,P|195:208|215:248,1,90,4|0,0:0|0:0,0:0:0:0:
215,248,297678,1,0,0:0:0:0:
215,248,297781,1,0,0:0:0:0:
429,211,297986,1,0,0:0:0:0:
215,248,298192,1,4,0:0:0:0:
345,279,298397,1,0,0:0:0:0:
299,105,298603,1,0,0:0:0:0:
472,152,298808,1,0,0:0:0:0:
295,189,299014,2,0,P|250:182|207:168,1,90,4|0,0:0|0:0,0:0:0:0:
131,119,299425,5,2,0:0:0:0:
131,119,299527,1,0,0:0:0:0:
131,119,299630,1,0,0:0:0:0:
48,156,299836,2,0,P|74:192|118:210,1,90,4|0,0:0|0:0,0:0:0:0:
295,189,300246,1,0,0:0:0:0:
295,189,300349,1,0,0:0:0:0:
295,189,300452,1,0,0:0:0:0:
383,206,300657,2,0,P|365:246|329:272,1,90,4|0,0:0|0:0,0:0:0:0:
239,266,301068,5,0,0:0:0:0:
48,156,301274,1,0,0:0:0:0:
163,55,301479,1,4,0:0:0:0:
194,205,301685,1,0,0:0:0:0:
388,287,301890,2,0,P|436:282|477:267,1,90
451,106,302301,2,0,P|403:111|362:126,1,90,4|0,0:0|0:0,0:0:0:0:
276,103,302712,6,0,P|276:148|295:189,1,90,0|0,0:0|0:0,0:0:0:0:
388,288,303123,1,4,0:0:0:0:
399,198,303329,1,0,0:0:0:0:
276,260,303534,2,0,P|230:252|192:227,1,90
104,243,303945,2,0,P|112:197|137:159,1,90,4|0,0:0|0:0,0:0:0:0:
135,161,304253,1,0,0:0:0:0:
135,161,304356,5,4,0:0:0:0:
286,71,304562,1,0,0:0:0:0:
352,218,304767,1,4,0:0:0:0:
352,218,304870,1,0,0:0:0:0:
352,218,304972,1,4,0:0:0:0:
193,249,305178,1,0,0:0:0:0:
413,140,305383,1,4,0:0:0:0:
413,140,305486,1,0,0:0:0:0:
413,140,305589,1,4,0:0:0:0:
102,62,305794,1,4,0:0:0:0:
102,62,305897,1,0,0:0:0:0:
