osu file format v14

[General]
AudioFilename: Onaji Hoshi ga Mitai (Short Ver.).mp3
AudioLeadIn: 0
PreviewTime: 60346
Countdown: 0
SampleSet: Normal
StackLeniency: 0.7
Mode: 1
LetterboxInBreaks: 0
WidescreenStoryboard: 0

[Editor]
Bookmarks: 13230,25009,36788,48567,60346,72125
DistanceSpacing: 0.8
BeatDivisor: 4
GridSize: 32
TimelineZoom: 1.800001

[Metadata]
Title:Onaji Hoshi ga Mitai
TitleUnicode:同じ星が見たい
Artist:lily white
ArtistUnicode:lily white
Creator:[Asuka_Langley]
Version:Muzukashii
Source:ラブライブ! School idol project
Tags:love live! 東條希 Tojo Nozomi 園田海未 Sonoda Umi 星空凛 Hoshizora Rin 楠田亜衣奈 kusuda aina 三森すずこ mimori suzuko 飯田里穂 iida riho μ's u's
BeatmapID:776635
BeatmapSetID:352245

[Difficulty]
HPDrainRate:5
CircleSize:5
OverallDifficulty:4
ApproachRate:5
SliderMultiplier:1.4
SliderTickRate:1

[Events]
//Background and Video events
0,0,"lily white bg.jpg",0,0
//Break Periods
//Storyboard Layer 0 (Background)
//Storyboard Layer 1 (Fail)
//Storyboard Layer 2 (Pass)
//Storyboard Layer 3 (Foreground)
//Storyboard Sound Samples

[TimingPoints]
1451,368.098159509202,4,1,0,70,1,0
13230,-100,4,1,0,90,0,0
25009,-100,4,1,0,80,0,0
60346,-100,4,1,0,90,0,1
80960,-100,4,1,0,80,0,0

[HitObjects]
256,192,714,5,2,0:0:0:0:
256,192,1082,1,2,0:0:0:0:
256,192,1451,5,2,0:0:0:0:
256,192,2187,1,2,0:0:0:0:
256,192,2923,1,0,0:0:0:0:
256,192,3291,1,2,0:0:0:0:
256,192,3659,1,2,0:0:0:0:
256,192,4027,1,0,0:0:0:0:
256,192,4395,1,0,0:0:0:0:
256,192,4763,1,2,0:0:0:0:
256,192,5131,1,0,0:0:0:0:
256,192,5499,1,2,0:0:0:0:
256,192,5868,1,2,0:0:0:0:
256,192,7340,1,2,0:0:0:0:
256,192,8076,1,2,0:0:0:0:
256,192,8812,1,0,0:0:0:0:
256,192,9181,1,2,0:0:0:0:
256,192,9549,1,0,0:0:0:0:
256,192,9917,1,2,0:0:0:0:
256,192,10285,1,2,0:0:0:0:
256,192,11205,1,2,0:0:0:0:
256,192,11389,1,2,0:0:0:0:
256,192,11573,1,0,0:0:0:0:
256,192,12493,1,0,0:0:0:0:
256,192,12585,1,0,0:0:0:0:
256,192,12677,1,0,0:0:0:0:
256,192,12862,1,2,0:0:0:0:
256,192,13230,1,4,0:0:0:0:
256,192,13598,1,0,0:0:0:0:
256,192,13782,1,2,0:0:0:0:
256,192,13966,1,0,0:0:0:0:
256,192,14150,1,2,0:0:0:0:
256,192,14334,1,0,0:0:0:0:
256,192,14702,1,0,0:0:0:0:
256,192,15070,1,0,0:0:0:0:
256,192,15254,1,2,0:0:0:0:
256,192,15438,1,0,0:0:0:0:
256,192,15622,1,2,0:0:0:0:
256,192,15806,1,0,0:0:0:0:
256,192,16174,1,0,0:0:0:0:
256,192,16543,1,0,0:0:0:0:
256,192,16727,1,2,0:0:0:0:
256,192,17279,1,0,0:0:0:0:
256,192,17463,1,2,0:0:0:0:
256,192,17647,1,2,0:0:0:0:
256,192,17831,1,0,0:0:0:0:
256,192,18015,1,2,0:0:0:0:
256,192,18199,1,0,0:0:0:0:
256,192,18567,1,2,0:0:0:0:
256,192,18659,1,2,0:0:0:0:
256,192,18751,1,2,0:0:0:0:
256,192,19119,1,0,0:0:0:0:
256,192,19487,1,0,0:0:0:0:
256,192,19671,1,2,0:0:0:0:
256,192,19855,1,0,0:0:0:0:
256,192,20039,1,2,0:0:0:0:
256,192,20224,1,0,0:0:0:0:
256,192,20592,1,0,0:0:0:0:
256,192,20960,1,0,0:0:0:0:
256,192,21144,1,2,0:0:0:0:
256,192,21328,1,0,0:0:0:0:
256,192,21512,1,2,0:0:0:0:
256,192,21696,1,0,0:0:0:0:
256,192,22064,1,0,0:0:0:0:
256,192,22432,1,0,0:0:0:0:
256,192,22616,1,2,0:0:0:0:
256,192,23168,1,0,0:0:0:0:
256,192,23352,1,2,0:0:0:0:
256,192,23536,1,2,0:0:0:0:
256,192,23720,1,0,0:0:0:0:
256,192,23904,1,2,0:0:0:0:
256,192,24089,1,0,0:0:0:0:
256,192,24457,1,2,0:0:0:0:
256,192,24549,1,2,0:0:0:0:
256,192,24641,1,2,0:0:0:0:
256,192,25009,1,4,0:0:0:0:
256,192,25377,1,2,0:0:0:0:
256,192,25561,1,0,0:0:0:0:
256,192,25929,1,2,0:0:0:0:
256,192,26113,1,2,0:0:0:0:
256,192,26297,1,0,0:0:0:0:
256,192,26665,1,0,0:0:0:0:
256,192,26849,1,2,0:0:0:0:
256,192,27033,1,0,0:0:0:0:
256,192,27585,1,2,0:0:0:0:
256,192,27770,1,0,0:0:0:0:
256,192,27954,1,0,0:0:0:0:
256,192,28322,1,2,0:0:0:0:
256,192,28506,1,0,0:0:0:0:
256,192,28874,1,0,0:0:0:0:
256,192,29058,1,0,0:0:0:0:
256,192,29242,1,2,0:0:0:0:
256,192,29610,1,0,0:0:0:0:
256,192,29794,1,2,0:0:0:0:
256,192,29978,1,0,0:0:0:0:
256,192,30162,1,0,0:0:0:0:
256,192,30530,1,2,0:0:0:0:
256,192,30898,1,0,0:0:0:0:
256,192,31266,1,2,0:0:0:0:
256,192,31450,1,0,0:0:0:0:
256,192,31819,1,2,0:0:0:0:
256,192,32003,1,2,0:0:0:0:
256,192,32187,1,0,0:0:0:0:
256,192,32555,1,0,0:0:0:0:
256,192,32739,1,2,0:0:0:0:
256,192,32923,1,0,0:0:0:0:
256,192,33291,1,0,0:0:0:0:
256,192,33475,1,0,0:0:0:0:
256,192,33659,1,2,0:0:0:0:
256,192,33843,1,2,0:0:0:0:
256,192,34211,1,2,0:0:0:0:
256,192,34395,1,0,0:0:0:0:
256,192,34763,1,2,0:0:0:0:
256,192,34947,1,2,0:0:0:0:
256,192,35131,1,0,0:0:0:0:
256,192,35316,1,2,0:0:0:0:
256,192,35684,1,2,0:0:0:0:
256,192,35868,1,0,0:0:0:0:
256,192,36236,1,2,0:0:0:0:
256,192,36328,1,2,0:0:0:0:
256,192,36420,1,2,0:0:0:0:
256,192,36788,1,4,0:0:0:0:
256,192,37156,1,2,0:0:0:0:
256,192,37340,1,0,0:0:0:0:
256,192,37708,1,2,0:0:0:0:
256,192,37892,1,2,0:0:0:0:
256,192,38076,1,0,0:0:0:0:
256,192,38444,1,0,0:0:0:0:
256,192,38628,1,2,0:0:0:0:
256,192,38812,1,0,0:0:0:0:
256,192,39365,1,2,0:0:0:0:
256,192,39549,1,0,0:0:0:0:
256,192,39733,1,0,0:0:0:0:
256,192,40101,1,2,0:0:0:0:
256,192,40285,1,0,0:0:0:0:
256,192,40653,1,0,0:0:0:0:
256,192,40837,1,0,0:0:0:0:
256,192,41021,1,2,0:0:0:0:
256,192,41389,1,2,0:0:0:0:
256,192,41573,1,2,0:0:0:0:
256,192,41757,1,2,0:0:0:0:
256,192,41941,1,0,0:0:0:0:
256,192,42309,1,6,0:0:0:0:
256,192,42677,1,0,0:0:0:0:
256,192,43046,1,2,0:0:0:0:
256,192,43230,1,0,0:0:0:0:
256,192,43598,1,2,0:0:0:0:
256,192,43782,1,2,0:0:0:0:
256,192,43966,1,0,0:0:0:0:
256,192,44334,1,0,0:0:0:0:
256,192,44518,1,2,0:0:0:0:
256,192,44702,1,0,0:0:0:0:
256,192,45070,1,0,0:0:0:0:
256,192,45254,1,0,0:0:0:0:
256,192,45438,1,2,0:0:0:0:
256,192,45622,1,2,0:0:0:0:
256,192,45990,1,2,0:0:0:0:
256,192,46174,1,0,0:0:0:0:
256,192,46543,1,0,0:0:0:0:
256,192,46727,1,2,0:0:0:0:
256,192,46911,1,2,0:0:0:0:
256,192,47095,1,0,0:0:0:0:
256,192,47463,1,2,0:0:0:0:
256,192,47647,1,2,0:0:0:0:
256,192,48015,1,0,0:0:0:0:
256,192,48199,1,2,0:0:0:0:
256,192,48383,1,0,0:0:0:0:
256,192,48475,1,0,0:0:0:0:
256,192,48567,1,0,0:0:0:0:
256,192,48935,1,0,0:0:0:0:
256,192,49303,1,0,0:0:0:0:
256,192,49487,1,0,0:0:0:0:
256,192,49671,1,2,0:0:0:0:
256,192,49855,1,2,0:0:0:0:
256,192,50408,1,2,0:0:0:0:
256,192,50776,1,2,0:0:0:0:
256,192,51144,1,0,0:0:0:0:
256,192,51512,1,0,0:0:0:0:
256,192,51880,1,0,0:0:0:0:
256,192,52064,1,2,0:0:0:0:
256,192,52248,1,0,0:0:0:0:
256,192,52432,1,0,0:0:0:0:
256,192,52616,1,2,0:0:0:0:
256,192,52984,1,4,0:0:0:0:
256,192,53536,1,6,0:0:0:0:
256,192,53904,1,0,0:0:0:0:
256,192,54089,1,0,0:0:0:0:
256,192,54273,1,2,0:0:0:0:
256,192,54457,1,4,0:0:0:0:
256,192,54825,1,0,0:0:0:0:
256,192,55009,1,2,0:0:0:0:
256,192,55377,1,0,0:0:0:0:
256,192,55745,1,2,0:0:0:0:
256,192,56297,1,2,0:0:0:0:
256,192,56481,1,2,0:0:0:0:
256,192,56849,1,2,0:0:0:0:
256,192,57033,1,0,0:0:0:0:
256,192,57217,1,0,0:0:0:0:
256,192,57401,1,2,0:0:0:0:
256,192,57770,1,2,0:0:0:0:
256,192,57954,1,0,0:0:0:0:
256,192,58322,1,0,0:0:0:0:
256,192,58690,1,2,0:0:0:0:
256,192,59242,1,2,0:0:0:0:
256,192,59426,1,2,0:0:0:0:
256,192,59610,1,0,0:0:0:0:
256,192,59702,1,0,0:0:0:0:
256,192,59794,1,0,0:0:0:0:
256,192,59978,1,2,0:0:0:0:
256,192,60162,1,2,0:0:0:0:
256,192,60346,1,4,0:0:0:0:
256,192,60714,1,0,0:0:0:0:
256,192,60898,1,0,0:0:0:0:
256,192,61082,1,2,0:0:0:0:
256,192,61266,1,2,0:0:0:0:
256,192,61450,1,0,0:0:0:0:
256,192,61819,1,2,0:0:0:0:
256,192,62003,1,0,0:0:0:0:
256,192,62187,1,0,0:0:0:0:
256,192,62371,1,2,0:0:0:0:
256,192,62555,1,0,0:0:0:0:
256,192,62923,1,2,0:0:0:0:
256,192,63291,1,0,0:0:0:0:
256,192,63475,1,0,0:0:0:0:
256,192,63659,1,2,0:0:0:0:
256,192,64027,1,0,0:0:0:0:
256,192,64119,1,0,0:0:0:0:
256,192,64211,1,0,0:0:0:0:
256,192,64395,1,2,0:0:0:0:
256,192,64763,1,2,0:0:0:0:
256,192,64947,1,2,0:0:0:0:
256,192,65131,1,0,0:0:0:0:
256,192,65316,1,2,0:0:0:0:
256,192,65500,1,0,0:0:0:0:
256,192,65868,1,0,0:0:0:0:
256,192,66236,1,6,0:0:0:0:
256,192,66604,1,0,0:0:0:0:
256,192,66788,1,0,0:0:0:0:
256,192,66972,1,2,0:0:0:0:
256,192,67156,1,2,0:0:0:0:
256,192,67340,1,0,0:0:0:0:
256,192,67708,1,2,0:0:0:0:
256,192,67892,1,0,0:0:0:0:
256,192,68076,1,0,0:0:0:0:
256,192,68260,1,2,0:0:0:0:
256,192,68444,1,0,0:0:0:0:
256,192,68812,1,2,0:0:0:0:
256,192,69181,1,0,0:0:0:0:
256,192,69365,1,0,0:0:0:0:
256,192,69549,1,2,0:0:0:0:
256,192,69733,1,0,0:0:0:0:
256,192,69917,1,0,0:0:0:0:
256,192,70285,1,2,0:0:0:0:
256,192,70653,1,2,0:0:0:0:
256,192,70837,1,2,0:0:0:0:
256,192,71021,1,0,0:0:0:0:
256,192,71205,1,0,0:0:0:0:
256,192,71389,1,2,0:0:0:0:
256,192,71757,1,0,0:0:0:0:
256,192,71941,1,2,0:0:0:0:
256,192,72125,1,4,0:0:0:0:
256,192,72493,1,0,0:0:0:0:
256,192,72585,1,0,0:0:0:0:
256,192,72677,1,0,0:0:0:0:
256,192,73046,1,2,0:0:0:0:
256,192,73414,1,0,0:0:0:0:
256,192,73782,1,0,0:0:0:0:
256,192,73966,1,2,0:0:0:0:
256,192,74150,1,2,0:0:0:0:
256,192,74702,1,2,0:0:0:0:
256,192,75070,1,4,0:0:0:0:
256,192,75438,1,0,0:0:0:0:
256,192,75530,1,0,0:0:0:0:
256,192,75622,1,0,0:0:0:0:
256,192,75990,1,2,0:0:0:0:
256,192,76358,1,0,0:0:0:0:
256,192,76727,1,0,0:0:0:0:
256,192,76911,1,2,0:0:0:0:
256,192,77095,1,2,0:0:0:0:
256,192,77647,1,0,0:0:0:0:
256,192,77831,1,0,0:0:0:0:
256,192,78015,1,6,0:0:0:0:
256,192,78751,1,2,0:0:0:0:
256,192,79119,1,0,0:0:0:0:
256,192,79487,1,6,0:0:0:0:
256,192,79855,1,2,0:0:0:0:
256,192,80224,1,0,0:0:0:0:
256,192,80592,1,2,0:0:0:0:
256,192,80960,12,0,83904,0:0:0:0:
