osu file format v14

[General]
AudioFilename: Onaji Hoshi ga Mitai (Short Ver.).mp3
AudioLeadIn: 0
PreviewTime: 60346
Countdown: 0
SampleSet: Normal
StackLeniency: 0.7
Mode: 1
LetterboxInBreaks: 0
WidescreenStoryboard: 0

[Editor]
Bookmarks: 13230,25009,36788,48567,60346,72125
DistanceSpacing: 0.8
BeatDivisor: 4
GridSize: 32
TimelineZoom: 1.000001

[Metadata]
Title:Onaji Hoshi ga Mitai
TitleUnicode:同じ星が見たい
Artist:lily white
ArtistUnicode:lily white
Creator:[Asuka_Langley]
Version:Kantan
Source:ラブライブ! School idol project
Tags:love live! 東條希 Tojo Nozomi 園田海未 Sonoda Umi 星空凛 Hoshizora Rin 楠田亜衣奈 kusuda aina 三森すずこ mimori suzuko 飯田里穂 iida riho μ's u's
BeatmapID:786575
BeatmapSetID:352245

[Difficulty]
HPDrainRate:5
CircleSize:5
OverallDifficulty:3
ApproachRate:5
SliderMultiplier:1.2
SliderTickRate:1

[Events]
//Background and Video events
0,0,"lily white bg.jpg",0,0
//Break Periods
//Storyboard Layer 0 (Background)
//Storyboard Layer 1 (Fail)
//Storyboard Layer 2 (Pass)
//Storyboard Layer 3 (Foreground)
//Storyboard Sound Samples

[TimingPoints]
1451,368.098159509202,4,1,0,70,1,0
13230,-100,4,1,0,90,0,0
25009,-100,4,1,0,80,0,0
60346,-100,4,1,0,90,0,1
80960,-100,4,1,0,80,0,0

[HitObjects]
256,192,1451,5,2,0:0:0:0:
256,192,2923,1,0,0:0:0:0:
256,192,4395,1,0,0:0:0:0:
256,192,5131,1,0,0:0:0:0:
256,192,5868,1,0,0:0:0:0:
256,192,7340,1,2,0:0:0:0:
256,192,8812,1,0,0:0:0:0:
256,192,10285,1,2,0:0:0:0:
256,192,11757,1,0,0:0:0:0:
256,192,13230,5,4,0:0:0:0:
256,192,14702,1,0,0:0:0:0:
256,192,16174,1,0,0:0:0:0:
256,192,16911,1,0,0:0:0:0:
256,192,17647,1,2,0:0:0:0:
256,192,18383,1,0,0:0:0:0:
256,192,18751,1,0,0:0:0:0:
256,192,19119,1,0,0:0:0:0:
256,192,20591,1,0,0:0:0:0:
256,192,22063,1,0,0:0:0:0:
256,192,22800,1,0,0:0:0:0:
256,192,23536,1,2,0:0:0:0:
256,192,24273,1,0,0:0:0:0:
256,192,24641,1,0,0:0:0:0:
256,192,25009,1,4,0:0:0:0:
256,192,26481,1,0,0:0:0:0:
256,192,27954,1,2,0:0:0:0:
256,192,28690,1,0,0:0:0:0:
256,192,29426,1,0,0:0:0:0:
256,192,30898,1,0,0:0:0:0:
256,192,32371,1,0,0:0:0:0:
256,192,33107,1,0,0:0:0:0:
256,192,33843,1,2,0:0:0:0:
256,192,35316,1,0,0:0:0:0:
256,192,36052,1,2,0:0:0:0:
256,192,36788,1,4,0:0:0:0:
256,192,38260,1,0,0:0:0:0:
256,192,39733,1,2,0:0:0:0:
256,192,40469,1,0,0:0:0:0:
256,192,41205,1,0,0:0:0:0:
256,192,42677,1,0,0:0:0:0:
256,192,44150,1,0,0:0:0:0:
256,192,44886,1,0,0:0:0:0:
256,192,45622,1,2,0:0:0:0:
256,192,47095,1,2,0:0:0:0:
256,192,47831,1,0,0:0:0:0:
256,192,48567,1,4,0:0:0:0:
256,192,50039,1,2,0:0:0:0:
256,192,51512,1,0,0:0:0:0:
256,192,52248,1,0,0:0:0:0:
256,192,52984,1,4,0:0:0:0:
256,192,54457,1,0,0:0:0:0:
256,192,55193,1,2,0:0:0:0:
256,192,55929,1,0,0:0:0:0:
256,192,57401,1,0,0:0:0:0:
256,192,58138,1,0,0:0:0:0:
256,192,58874,1,2,0:0:0:0:
256,192,59610,1,2,0:0:0:0:
256,192,59978,1,2,0:0:0:0:
256,192,60346,1,6,0:0:0:0:
256,192,61082,1,0,0:0:0:0:
256,192,61819,1,2,0:0:0:0:
256,192,62187,1,0,0:0:0:0:
256,192,62555,1,0,0:0:0:0:
256,192,63291,1,0,0:0:0:0:
256,192,64027,1,0,0:0:0:0:
256,192,64395,1,0,0:0:0:0:
256,192,64763,1,2,0:0:0:0:
256,192,66236,1,6,0:0:0:0:
256,192,66972,1,0,0:0:0:0:
256,192,67708,1,2,0:0:0:0:
256,192,68076,1,0,0:0:0:0:
256,192,68444,1,0,0:0:0:0:
256,192,69181,1,2,0:0:0:0:
256,192,69549,1,2,0:0:0:0:
256,192,69917,1,0,0:0:0:0:
256,192,70653,1,2,0:0:0:0:
256,192,72125,1,0,0:0:0:0:
256,192,72862,1,2,0:0:0:0:
256,192,73598,1,0,0:0:0:0:
256,192,73966,1,0,0:0:0:0:
256,192,74334,1,2,0:0:0:0:
256,192,75070,1,0,0:0:0:0:
256,192,75806,1,2,0:0:0:0:
256,192,76543,1,0,0:0:0:0:
256,192,76911,1,2,0:0:0:0:
256,192,77279,1,2,0:0:0:0:
256,192,78015,1,4,0:0:0:0:
256,192,78751,1,2,0:0:0:0:
256,192,79487,1,2,0:0:0:0:
256,192,79855,1,0,0:0:0:0:
256,192,80224,1,0,0:0:0:0:
256,192,80960,12,0,83904,0:0:0:0:
