osu file format v14

[General]
AudioFilename: 04. Futari Happiness.mp3
AudioLeadIn: 0
PreviewTime: 87828
Countdown: 0
SampleSet: Soft
StackLeniency: 0.7
Mode: 0
LetterboxInBreaks: 1
EpilepsyWarning: 1
WidescreenStoryboard: 1
SamplesMatchPlaybackRate: 1

[Editor]
Bookmarks: 12572,24880,37188,43342,49495,55649,61803,63598,64880,66675,67957,74111,77188,81803,82828,84367,87956,93341,100264,108469,115649,118726,124879,131033,135136,139495,143341,161803,162572,167956,174110,180264,186418,188213,189495,191290,192572,198726,201546,206418,207443,208982,212571,217956,224879,233084,264879,270264,277187,280264,285392,292571,295648,301033,307956,316161,323341,326418,332571,338725,342828,347187,351033
DistanceSpacing: 1.2
BeatDivisor: 6
GridSize: 4
TimelineZoom: 1.2

[Metadata]
Title:Futari Happiness
TitleUnicode:ふたりハピネス
Artist:lily white
ArtistUnicode:lily white
Creator:Baraatje123
Version:Aeonian Friendship
Source:Love Live! School Idol Project
Tags:ラブライブ!Aki no Anata no Sora Tooku 秋のあなたの空遠く Rabu raibu! Sonoda Umi 園田 海未 Suzuko Mimori 三森 すずこ Tojo Nozomi 東條希 Kusuda Aina 楠田亜衣奈 Hoshizora Rin 星空凛 Lida Riho 飯田里穂 μ’s u's
BeatmapID:867801
BeatmapSetID:399140

[Difficulty]
HPDrainRate:5
CircleSize:4
OverallDifficulty:5
ApproachRate:7
SliderMultiplier:2
SliderTickRate:1

[Events]
//Background and Video events
0,0,"BG23.jpg",0,0
//Break Periods
2,143591,160953
2,240514,248644
2,265128,276337
2,323591,325568
2,351283,354798
//Storyboard Layer 0 (Background)
//Storyboard Layer 1 (Fail)
//Storyboard Layer 2 (Pass)
//Storyboard Layer 3 (Foreground)
//Storyboard Sound Samples

[TimingPoints]
12622.8846153846,769.230769230769,4,2,1,40,1,0
74161,-133.333333333333,4,2,1,40,0,0
81853,769.230769230769,4,2,1,40,1,0
88006,-83.3333333333333,4,2,1,60,0,1
115699,-100,4,2,1,40,0,0
198776,-133.333333333333,4,2,1,40,0,0
206468,769.230769230769,4,2,1,40,1,0
212621,-83.3333333333333,4,2,1,60,0,1
240314,-100,4,2,1,40,0,0
292621,-90.9090909090909,4,2,1,40,0,0
293391,-83.3333333333333,4,2,1,40,0,0
294160,-76.9230769230769,4,2,1,40,0,0
294929,-71.4285714285714,4,2,1,40,0,0
295698,-66.6666666666667,4,2,1,70,0,1
323391,-100,4,2,1,40,0,0
366468,-100,4,2,1,5,0,0

[Colours]
Combo1 : 0,255,0
Combo2 : 0,0,255
Combo3 : 0,255,255
Combo4 : 255,170,85
Combo5 : 242,79,0
Combo6 : 128,128,255
Combo7 : 255,0,255
Combo8 : 166,255,166

[HitObjects]
227,219,12622,102,0,B|233:151|233:151|217:87,1,133.333333333333,4|0,0:0|0:0,0:0:0:0:
146,124,13392,2,0,B|140:192|140:192|156:256,1,133.333333333333,8|0,0:0|0:0,0:0:0:0:
184,328,14161,2,0,P|236:265|216:204,1,133.333333333333
156,256,14930,1,8,0:0:0:0:
156,256,15443,1,0,0:0:0:0:
227,219,15699,6,0,B|280:180|280:180|328:156|380:192,1,133.333333333333,2|0,0:0|0:0,0:0:0:0:
319,252,16469,2,0,P|263:176|314:98,1,200,10|2,0:0|0:0,0:0:0:0:
317,19,17494,1,0,0:0:0:0:
246,56,17750,1,0,0:0:0:0:
314,97,18007,2,0,L|401:92,2,66.6666666666667,10|0|0,0:0|0:0|0:0,0:0:0:0:
283,172,18776,102,0,B|275:236|275:236|283:304,1,133.333333333333,6|0,0:0|0:0,0:0:0:0:
337,363,19546,2,0,B|269:355|269:355|204:355,1,133.333333333333,8|0,0:0|0:0,0:0:0:0:
206,274,20315,2,0,P|126:282|82:230,1,133.333333333333
158,210,21084,1,8,0:0:0:0:
158,210,21597,1,0,0:0:0:0:
206,274,21853,6,0,B|250:322|250:322|286:346|328:338,1,133.333333333333,2|0,0:0|0:0,0:0:0:0:
302,260,22622,2,0,B|249:199|249:199|236:124|168:112,1,200,10|2,0:0|0:0,0:0:0:0:
177,114,23904,1,0,0:0:0:0:
177,114,24161,2,0,L|104:108,2,66.6666666666667,10|0|0,0:0|0:0|0:0,0:0:0:0:
257,113,24930,102,0,B|251:168|213:183|213:183|194:229,1,133.333333333333,6|0,0:0|0:0,0:0:0:0:
272,252,25699,2,0,B|340:252|340:252|361:227|396:220,1,133.333333333333,8|0,0:0|0:0,0:0:0:0:
473,206,26469,2,0,P|453:273|376:293,1,133.333333333333
396,220,27238,1,8,0:0:0:0:
396,220,27751,1,0,0:0:0:0:
396,220,28007,6,0,B|424:282|424:282|441:333|503:344,1,133.333333333333,2|0,0:0|0:0,0:0:0:0:
502,259,28776,2,0,P|408:273|389:364,1,200,10|2,0:0|0:0,0:0:0:0:
389,364,30058,1,8,0:0:0:0:
389,364,30315,2,8,L|303:346,2,66.6666666666667,10|8|8,0:0|0:0|0:0,0:0:0:0:
452,314,31084,102,0,B|434:247|434:247|403:191,1,133.333333333333,4|0,0:0|0:0,0:0:0:0:
331,160,31853,2,0,B|312:226|312:226|281:282,1,133.333333333333,8|0,0:0|0:0,0:0:0:0:
204,258,32622,2,0,B|223:192|223:192|254:136,1,133.333333333333
331,160,33392,1,8,0:0:0:0:
331,160,33905,1,0,0:0:0:0:
254,181,34161,6,0,B|193:203|193:203|153:226|143:274,1,133.333333333333,4|0,0:0|0:0,0:0:0:0:
228,278,34930,2,0,B|302:249|302:249|377:260|413:202,1,200,12|4,0:0|0:0,0:0:0:0:
409,210,36212,1,8,0:0:0:0:
409,210,36469,2,8,L|441:144,2,66.6666666666667,12|8|8,0:0|0:0|0:0,0:0:0:0:
380,284,37238,70,0,P|312:304|232:288,1,133.333333333333,6|0,0:0|0:0,0:0:0:0:
204,230,38007,2,0,P|267:210|332:218,1,133.333333333333,10|0,0:0|0:0,0:0:0:0:
380,284,38776,2,0,P|441:235|413:111,1,200,2|10,0:0|0:0,0:0:0:0:
372,64,39802,1,0,0:0:0:0:
292,76,40058,1,0,0:0:0:0:
285,154,40315,6,0,P|252:145|227:124,2,66.6666666666667,2|0|0,0:0|0:0|0:0,0:0:0:0:
352,120,41084,2,0,P|361:153|348:200,2,66.6666666666667,10|2|2,0:0|0:0|0:0,0:0:0:0:
292,76,41853,2,0,P|219:100|168:80,1,133.333333333333,2|2,0:0|0:0,0:0:0:0:
116,32,42622,1,10,0:0:0:0:
93,102,42879,1,2,0:0:0:0:
93,102,43392,102,0,B|85:167|85:167|100:247,1,133.333333333333,2|0,0:0|0:0,0:0:0:0:
173,207,44161,2,0,B|163:168|169:132|169:132|230:134,1,133.333333333333,10|0,0:0|0:0,0:0:0:0:
271,199,44930,2,0,P|262:264|306:314,1,133.333333333333,2|0,0:0|0:0,0:0:0:0:
340,241,45699,2,0,P|374:243|405:255,2,66.6666666666667,10|0|0,0:0|0:0|0:0,0:0:0:0:
271,199,46469,6,0,P|216:136|289:42,1,200,2|10,0:0|0:0,0:0:0:0:
292,120,47494,1,0,0:0:0:0:
272,200,47751,1,8,0:0:0:0:
221,138,48007,2,0,P|192:204|227:266,1,133.333333333333,10|0,0:0|0:0,0:0:0:0:
272,200,48776,1,10,0:0:0:0:
334,318,49289,1,8,0:0:0:0:
334,318,49545,102,0,P|358:252|342:172,1,133.333333333333,10|0,0:0|0:0,0:0:0:0:
292,137,50315,2,0,P|268:203|284:283,1,133.333333333333,10|0,0:0|0:0,0:0:0:0:
334,318,51084,1,2,0:0:0:0:
334,318,51597,1,0,0:0:0:0:
256,341,51853,2,0,L|189:340,2,66.6666666666667,10|0|0,0:0|0:0|0:0,0:0:0:0:
334,318,52622,6,0,P|293:271|210:275,1,133.333333333333,2|0,0:0|0:0,0:0:0:0:
145,265,53392,2,0,P|192:224|188:141,1,133.333333333333,10|0,0:0|0:0,0:0:0:0:
248,96,54161,2,0,L|240:16,2,66.6666666666667,2|2|2,0:0|0:0|0:0,0:0:0:0:
328,108,54930,2,0,L|456:152,1,133.333333333333,10|2,0:0|0:0,0:0:0:0:
397,208,55699,102,0,P|309:217|249:181,1,133.333333333333,2|0,0:0|0:0,0:0:0:0:
212,144,56469,2,0,P|192:124|152:120,1,66.6666666666667,10|0,0:0|0:0,0:0:0:0:
88,162,56981,1,2,0:0:0:0:
152,211,57238,2,0,P|162:247|109:324,1,133.333333333333,2|0,0:0|0:0,0:0:0:0:
83,250,58007,2,0,P|47:275|35:317,2,66.6666666666667,10|0|0,0:0|0:0|0:0,0:0:0:0:
152,210,58776,6,0,P|186:160|80:158,1,200,2|10,0:0|0:0,0:0:0:0:
360,210,60315,2,0,P|326:160|432:158,1,200,2|10,0:0|0:0,0:0:0:0:
423,131,61853,38,0,L|438:214,2,66.6666666666667,4|0|0,0:0|0:0|0:0,0:0:0:0:
346,154,62622,2,0,L|372:304,1,133.333333333333,8|4,0:0|0:0,0:0:0:0:
300,328,63392,2,0,L|276:176,1,133.333333333333,6|0,0:0|0:0,0:0:0:0:
258,120,64161,21,8,0:0:0:0:
203,62,64417,1,0,0:0:0:0:
122,58,64674,1,6,0:0:0:0:
89,131,64930,86,0,L|74:214,2,66.6666666666667,4|0|0,0:0|0:0|0:0,0:0:0:0:
166,154,65699,2,0,L|136:304,1,133.333333333333,8|4,0:0|0:0,0:0:0:0:
205,328,66469,2,0,L|236:180,1,133.333333333333,6|0,0:0|0:0,0:0:0:0:
254,120,67238,53,8,0:0:0:0:
309,62,67494,1,4,0:0:0:0:
390,58,67751,1,4,0:0:0:0:
309,62,68007,54,0,P|336:120|398:139,1,133.333333333333,4|0,0:0|0:0,0:0:0:0:
390,58,68776,2,0,L|360:196,1,133.333333333333,8|4,0:0|0:0,0:0:0:0:
440,204,69545,2,0,P|420:240|392:256,1,66.6666666666667,6|0,0:0|0:0,0:0:0:0:
324,280,70058,1,0,0:0:0:0:
313,201,70315,2,0,P|253:181|191:209,1,133.333333333333,8|4,0:0|0:0,0:0:0:0:
256,266,71084,6,0,L|256:84,1,133.333333333333,4|0,0:0|0:0,0:0:0:0:
185,94,71853,2,0,P|175:126|181:159,1,66.6666666666667,8|0,0:0|0:0,0:0:0:0:
256,132,72365,1,4,0:0:0:0:
328,96,72622,2,0,P|333:63|328:28,2,66.6666666666667,6|0|0,0:0|0:0|0:0,0:0:0:0:
397,137,73392,2,0,P|415:74|405:8,1,133.333333333333,8|0,0:0|0:0,0:0:0:0:
404,9,74161,6,0,P|476:14|507:79,2,150.000005722046,4|8|0,0:0|0:0|0:0,0:0:0:0:
363,71,75956,1,8,0:0:0:0:
435,76,76212,1,0,0:0:0:0:
435,76,76469,2,0,L|438:175,1,100.000003814697,8|0,0:0|0:0,0:0:0:0:
439,176,77238,6,0,P|390:171|349:198,1,100.000003814697,4|0,0:0|0:0,0:0:0:0:
340,272,78007,2,0,P|368:304|396:312,1,50.0000019073487,8|0,0:0|0:0,0:0:0:0:
409,242,78520,1,0,0:0:0:0:
482,237,78776,1,8,0:0:0:0:
439,176,79033,1,8,0:0:0:0:
488,316,79546,2,0,P|432:348|388:348,1,100.000003814697,8|0,0:0|0:0,0:0:0:0:
322,350,80315,2,0,L|332:180,1,150.000005722046
332,200,81853,101,12,0:0:0:0:
341,176,82622,1,10,0:0:0:0:
350,152,83391,1,8,0:0:0:0:
359,128,84160,1,10,0:0:0:0:
368,104,84929,6,0,P|315:90|229:88,1,133.333333333333,12|0,0:0|0:0,0:0:0:0:
166,145,85699,2,0,P|219:159|305:161,1,133.333333333333,12|0,0:0|0:0,0:0:0:0:
367,103,86468,1,8,0:0:0:0:
300,308,88006,38,0,L|212:312,2,79.9999975585938,6|0|0,0:0|0:0|0:0,0:0:0:0:
378,357,88776,2,0,P|340:289|367:216,1,159.999995117188,10|0,0:0|0:0,0:0:0:0:
432,284,89545,1,2,0:0:0:0:
432,284,90314,1,10,0:0:0:0:
476,204,90570,1,0,0:0:0:0:
432,124,90827,1,0,0:0:0:0:
346,94,91083,6,0,P|363:59|397:38,2,79.9999975585938,2|0|0,0:0|0:0|0:0,0:0:0:0:
308,180,91853,2,0,P|255:236|178:230,1,159.999995117188,10|0,0:0|0:0,0:0:0:0:
222,151,92622,2,0,L|276:337,1,159.999995117188,2|0,0:0|0:0,0:0:0:0:
341,358,93391,2,0,P|386:284|475:280,1,159.999995117188,10|0,0:0|0:0,0:0:0:0:
435,363,94160,102,0,P|397:294|382:215,1,159.999995117188,2|0,0:0|0:0,0:0:0:0:
416,128,94929,2,0,P|374:196|314:248,1,159.999995117188,10|0,0:0|0:0,0:0:0:0:
221,263,95699,2,0,P|300:264|375:290,1,159.999995117188,2|0,0:0|0:0,0:0:0:0:
435,363,96468,1,10,0:0:0:0:
435,363,97237,6,8,L|452:284,2,79.9999975585938,14|8|8,0:0|0:0|0:0,0:0:0:0:
348,332,98006,2,8,L|331:253,2,79.9999975585938,14|8|8,0:0|0:0|0:0,0:0:0:0:
256,316,98776,1,14,0:0:0:0:
164,332,99032,2,8,L|180:256,2,39.9999987792969
77,363,99545,2,8,L|60:284,2,79.9999975585938,14|8|8,0:0|0:0|0:0,0:0:0:0:
164,332,100314,102,0,L|179:252,2,79.9999975585938,14|0|0,0:0|0:0|0:0,0:0:0:0:
256,316,101083,2,0,L|288:136,1,159.999995117188,10|0,0:0|0:0,0:0:0:0:
192,160,101853,2,0,P|232:228|308:240,1,159.999995117188,2|0,0:0|0:0,0:0:0:0:
398,254,102622,2,0,P|386:292|326:329,2,79.9999975585938,10|0|0,0:0|0:0|0:0,0:0:0:0:
367,167,103391,6,0,P|304:140|284:40,1,159.999995117188,2|0,0:0|0:0,0:0:0:0:
368,76,104160,2,0,L|216:192,1,159.999995117188,10|0,0:0|0:0,0:0:0:0:
336,196,104930,2,0,L|460:96,1,159.999995117188,6|0,0:0|0:0,0:0:0:0:
368,76,105699,2,0,P|386:151|456:188,1,159.999995117188,14|0,0:0|0:0,0:0:0:0:
512,252,106468,102,0,P|384:248|304:164,1,239.999992675781,6|10,0:0|0:0,0:0:0:0:
0,252,108006,2,0,P|128:248|208:164,1,239.999992675781,2|10,0:0|0:0,0:0:0:0:
210,81,109032,1,0,0:0:0:0:
302,81,109288,1,0,0:0:0:0:
308,173,109545,6,0,P|394:252|512:252,2,239.999992675781,2|10|8,0:0|0:0|0:0,0:0:0:0:
228,128,111340,2,8,L|246:91,2,39.9999987792969
225,222,111853,1,14,0:0:0:0:
225,222,112622,101,6,0:0:0:0:
256,192,112750,12,0,115699,0:0:0:0:
375,5,118776,6,0,P|376:70|332:118,1,133.333333333333,6|0,0:0|0:0,0:0:0:0:
253,131,119545,2,0,P|209:179|211:245,1,133.333333333333,10|0,0:0|0:0,0:0:0:0:
284,208,120314,2,0,P|292:268|216:332,1,133.333333333333,2|0,0:0|0:0,0:0:0:0:
177,359,121083,1,10,0:0:0:0:
104,326,121340,2,0,P|113:294|132:267,1,66.6666666666667
184,213,121853,101,2,0:0:0:0:
160,132,122109,1,0,0:0:0:0:
112,194,122365,1,0,0:0:0:0:
160,132,122622,2,0,B|202:125|202:125|234:90|290:107,1,133.333333333333,10|0,0:0|0:0,0:0:0:0:
256,176,123391,2,0,P|320:176|360:120,1,133.333333333333,2|2,0:0|0:0,0:0:0:0:
285,105,124160,2,0,P|300:75|326:55,2,66.6666666666667,10|2|2,0:0|0:0|0:0,0:0:0:0:
256,176,124929,6,0,P|243:231|304:252,1,133.333333333333,2|0,0:0|0:0,0:0:0:0:
379,222,125699,2,0,P|374:287|325:329,1,133.333333333333,10|0,0:0|0:0,0:0:0:0:
304,252,126468,1,2,0:0:0:0:
304,252,127237,1,10,0:0:0:0:
244,304,127494,1,0,0:0:0:0:
228,226,127750,1,0,0:0:0:0:
304,252,128006,102,0,P|324:308|288:368,1,133.333333333333,2|0,0:0|0:0,0:0:0:0:
244,304,128776,2,0,L|400:316,1,133.333333333333,10|0,0:0|0:0,0:0:0:0:
433,365,129545,2,0,P|393:283|472:238,1,200,2|10,0:0|0:0,0:0:0:0:
472,238,131083,6,0,P|446:298|390:332,1,133.333333333333,6|0,0:0|0:0,0:0:0:0:
310,320,131853,2,0,P|336:259|392:225,1,133.333333333333,10|0,0:0|0:0,0:0:0:0:
333,169,132622,2,0,B|344:103|344:103|336:27,1,133.333333333333,2|0,0:0|0:0,0:0:0:0:
257,42,133391,2,0,B|246:108|246:108|254:184,1,133.333333333333,10|0,0:0|0:0,0:0:0:0:
333,169,134160,101,2,0:0:0:0:
399,122,134416,1,0,0:0:0:0:
399,122,134929,2,0,P|411:185|343:245,1,133.333333333333,10|0,0:0|0:0,0:0:0:0:
290,245,135699,2,0,P|244:289|247:353,1,133.333333333333,2|8,0:0|0:0,0:0:0:0:
319,318,136468,2,8,P|325:343|319:386,2,66.6666666666667,10|8|8,0:0|0:0|0:0,0:0:0:0:
290,245,137237,6,0,B|223:242|223:242|154:296,1,133.333333333333,6|8,0:0|0:0,0:0:0:0:
109,334,138006,2,0,P|137:283|137:203,1,133.333333333333,14|8,0:0|0:0,0:0:0:0:
158,133,138775,1,6,0:0:0:0:
158,133,139544,1,8,0:3:0:0:
163,53,139801,1,0,0:0:0:0:
230,97,140057,1,0,0:0:0:0:
158,133,140314,102,0,P|126:149|82:157,2,66.6666666666667,4|0|0,0:0|0:0|0:0,0:0:0:0:
256,192,141083,12,0,143391,0:0:0:0:
111,137,161853,22,0,P|171:99|252:93,1,133.333333333333,6|0,0:0|0:0,0:0:0:0:
300,130,162622,2,0,P|240:168|159:174,1,133.333333333333,10|0,0:0|0:0,0:0:0:0:
111,137,163391,2,0,P|70:199|108:304,1,133.333333333333,2|0,0:0|0:0,0:0:0:0:
105,328,164160,1,10,0:0:0:0:
173,286,164417,1,0,0:0:0:0:
249,309,164673,1,0,0:0:0:0:
238,237,164929,6,0,P|324:283|301:373,1,200,2|10,0:0|0:0,0:0:0:0:
253,313,165955,1,2,0:0:0:0:
237,236,166212,1,2,0:0:0:0:
253,313,166468,2,0,P|322:296|392:356,1,133.333333333333,2|2,0:0|0:0,0:0:0:0:
452,332,167237,1,10,0:0:0:0:
506,272,167494,1,2,0:0:0:0:
504,192,167750,1,2,0:0:0:0:
436,233,168006,102,0,B|401:175|401:175|395:78,1,133.333333333333,2|0,0:0|0:0,0:0:0:0:
320,84,168776,2,0,B|321:174|321:174|311:235,1,133.333333333333,10|0,0:0|0:0,0:0:0:0:
239,188,169545,2,0,P|208:99|120:88,1,133.333333333333,2|0,0:0|0:0,0:0:0:0:
155,163,170314,2,0,P|123:170|90:168,2,66.6666666666667,10|0|0,0:0|0:0|0:0,0:0:0:0:
239,189,171084,6,0,P|309:234|279:347,1,200,2|10,0:0|0:0,0:0:0:0:
233,273,172109,1,0,0:0:0:0:
238,188,172365,1,8,0:0:0:0:
233,273,172622,2,0,P|321:207|295:126,1,200,10|10,0:0|0:0,0:0:0:0:
238,188,173648,2,0,P|224:156|228:100,1,66.6666666666667,0|8,0:0|0:0,0:0:0:0:
146,92,174160,102,0,P|141:162|176:238,1,133.333333333333,10|0,0:0|0:0,0:0:0:0:
245,241,174930,2,0,P|250:171|214:95,1,133.333333333333,10|0,0:0|0:0,0:0:0:0:
146,92,175699,1,2,0:0:0:0:
146,92,176212,1,0,0:0:0:0:
215,44,176468,2,0,L|280:27,2,66.6666666666667,10|0|0,0:0|0:0|0:0,0:0:0:0:
146,92,177237,6,0,P|198:126|277:99,1,133.333333333333,2|0,0:0|0:0,0:0:0:0:
339,84,178006,2,0,P|305:136|332:215,1,133.333333333333,10|2,0:0|0:0,0:0:0:0:
313,285,178776,2,0,L|314:358,2,66.6666666666667,2|0|0,0:0|0:0|0:0,0:0:0:0:
230,294,179545,2,0,L|91:285,1,133.333333333333,10|0,0:0|0:0,0:0:0:0:
105,205,180314,102,0,L|266:212,1,133.333333333333,2|0,0:0|0:0,0:0:0:0:
317,218,181083,2,0,L|349:287,2,66.6666666666667,10|0|0,0:0|0:0|0:0,0:0:0:0:
350,145,181852,2,0,P|331:113|360:24,1,133.333333333333,2|0,0:0|0:0,0:0:0:0:
407,89,182622,2,0,P|435:55|434:11,2,66.6666666666667,10|0|0,0:0|0:0|0:0,0:0:0:0:
351,146,183391,6,0,P|332:203|434:176,1,200,2|10,0:0|0:0,0:0:0:0:
160,146,184929,2,0,P|179:203|77:176,1,200,2|10,0:0|0:0,0:0:0:0:
78,203,186468,6,0,L|68:296,2,66.6666666666667,4|0|0,0:0|0:0|0:0,0:0:0:0:
156,204,187237,2,0,L|141:339,1,133.333333333333,8|4,0:0|0:0,0:0:0:0:
217,345,188006,2,0,L|232:212,1,133.333333333333,6|0,0:0|0:0,0:0:0:0:
308,200,188776,38,0,L|299:286,1,66.6666666666667,8|0,0:0|0:0,0:0:0:0:
380,276,189288,1,4,0:0:0:0:
386,201,189545,86,0,L|396:108,2,66.6666666666667,4|0|0,0:0|0:0|0:0,0:0:0:0:
308,200,190314,2,0,L|324:65,1,133.333333333333,8|4,0:0|0:0,0:0:0:0:
248,54,191083,2,0,L|232:192,1,133.333333333333,6|0,0:0|0:0,0:0:0:0:
156,204,191853,70,0,L|167:115,1,66.6666666666667,8|4,0:0|0:0,0:0:0:0:
84,128,192365,1,4,0:0:0:0:
72,204,192622,22,0,P|108:272|168:284,1,133.333333333333,4|0,0:0|0:0,0:0:0:0:
228,252,193391,2,0,P|289:273|314:333,1,133.333333333333,8|4,0:0|0:0,0:0:0:0:
388,316,194160,2,0,P|348:224|276:184,1,133.333333333333,6|0,0:0|0:0,0:0:0:0:
264,156,194929,2,0,P|271:123|290:96,1,66.6666666666667,8|0,0:0|0:0,0:0:0:0:
224,60,195442,1,4,0:0:0:0:
148,84,195699,6,0,B|120:124|112:164|112:164|108:208|132:256|192:252,1,200,4|8,0:0|0:0,0:0:0:0:
364,84,197237,2,0,B|392:124|400:164|400:164|404:208|380:256|320:252,1,200,4|8,0:0|0:0,0:0:0:0:
345,250,198776,6,0,P|254:176|364:84,1,300.000011444092,4|8,0:0|0:0,0:0:0:0:
432,112,200570,2,8,P|380:156|336:152,2,100.000003814697,8|8|0,0:0|0:0|0:0,0:0:0:0:
363,84,201852,6,0,P|327:183|198:102,1,300.000011444092,4|0,0:0|0:0,0:0:0:0:
228,32,203647,2,0,P|264:64|272:124,2,100.000003814697,8|8|0,0:0|0:0|0:0,0:0:0:0:
198,102,204929,2,0,L|200:252,1,150.000005722046
200,252,206468,101,12,0:0:0:0:
228,264,207237,1,8,0:0:0:0:
256,276,208006,1,8,0:0:0:0:
284,288,208775,1,8,0:0:0:0:
312,300,209544,6,0,P|368:312|456:312,1,133.333333333333,12|0,0:0|0:0,0:0:0:0:
468,236,210314,2,0,P|412:224|324:224,1,133.333333333333,12|0,0:0|0:0,0:0:0:0:
312,300,211083,1,8,0:0:0:0:
277,69,212621,6,0,L|189:82,2,79.9999975585938,6|0|0,0:0|0:0|0:0,0:0:0:0:
344,6,213391,2,0,P|319:80|360:147,1,159.999995117188,10|0,0:0|0:0,0:0:0:0:
411,68,214160,1,2,0:0:0:0:
411,68,214929,1,10,0:0:0:0:
469,138,215185,1,0,0:0:0:0:
441,225,215442,1,0,0:0:0:0:
363,270,215698,6,0,P|388:300|425:316,2,79.9999975585938,2|0|0,0:0|0:0|0:0,0:0:0:0:
309,193,216468,2,0,P|244:147|160:172,1,159.999995117188,10|0,0:0|0:0,0:0:0:0:
227,236,217237,2,0,B|240:150|240:150|226:49,1,159.999995117188,2|0,0:0|0:0,0:0:0:0:
304,22,218006,2,0,P|379:94|436:85,1,159.999995117188,10|0,0:0|0:0,0:0:0:0:
395,2,218775,102,0,P|370:66|371:147,1,159.999995117188,2|0,0:0|0:0,0:0:0:0:
422,234,219544,2,0,P|368:175|299:135,1,159.999995117188,10|0,0:0|0:0,0:0:0:0:
206,136,220314,2,0,P|283:120|352:81,1,159.999995117188,2|0,0:0|0:0,0:0:0:0:
399,0,221083,1,10,0:0:0:0:
399,0,221852,6,8,L|430:64,2,79.9999975585938,14|8|8,0:0|0:0|0:0,0:0:0:0:
319,37,222621,2,8,L|317:117,2,79.9999975585938,14|8|8,0:0|0:0|0:0,0:0:0:0:
232,70,223391,1,14,0:0:0:0:
138,72,223647,2,8,L|169:143,2,39.9999987792969
47,58,224160,2,8,L|46:139,2,79.9999975585938,14|8|8,0:0|0:0|0:0,0:0:0:0:
138,72,224929,102,0,L|171:150,2,79.9999975585938,6|0|0,0:0|0:0|0:0,0:0:0:0:
232,70,225698,2,0,L|298:240,1,159.999995117188,10|0,0:0|0:0,0:0:0:0:
197,229,226468,2,0,P|237:148|312:134,1,159.999995117188,2|0,0:0|0:0,0:0:0:0:
368,195,227237,1,10,0:0:0:0:
368,195,228006,6,0,P|307:245|309:325,1,159.999995117188,2|0,0:0|0:0,0:0:0:0:
388,284,228775,2,0,L|216:199,1,159.999995117188,10|0,0:0|0:0,0:0:0:0:
332,176,229545,2,0,L|476:248,1,159.999995117188,6|0,0:0|0:0,0:0:0:0:
388,284,230314,2,0,P|391:207|453:160,1,159.999995117188,14|0,0:0|0:0,0:0:0:0:
495,84,231083,102,0,P|370:112|308:210,1,239.999992675781,6|10,0:0|0:0,0:0:0:0:
16,84,232621,2,0,P|141:112|203:210,1,239.999992675781,2|10,0:0|0:0,0:0:0:0:
210,292,233647,1,0,0:0:0:0:
302,292,233903,1,0,0:0:0:0:
310,200,234160,6,0,P|380:106|495:84,2,239.999992675781,2|10|8,0:0|0:0|0:0,0:0:0:0:
235,261,235955,2,8,L|251:301,2,39.9999987792969
220,172,236468,1,14,0:0:0:0:
220,172,237237,101,6,0:0:0:0:
256,192,237365,12,0,240314,0:0:0:0:
89,59,249544,22,0,B|104:90|104:90|85:115|85:115|104:145|97:189,1,133.333333333333,6|2,0:0|0:0,0:0:0:0:
186,199,250314,2,0,B|190:172|182:143|182:143|200:109|200:109|194:69,1,133.333333333333,10|2,0:0|0:0,0:0:0:0:
283,60,251083,2,0,B|293:122|293:122|278:157|278:157|288:207,1,133.333333333333,2|2,0:0|0:0,0:0:0:0:
295,280,251852,2,0,B|327:298|347:302|347:302|339:349|365:378,1,133.333333333333,10|2,0:0|0:0,0:0:0:0:
440,326,252621,38,0,B|445:273|422:249|422:249|438:218|438:218|433:172,1,133.333333333333,2|0,0:0|0:0,0:0:0:0:
401,117,253391,1,10,0:0:0:0:
314,141,253647,2,0,L|275:142,2,33.3333333333333,2|2|2,0:0|0:0|0:0,0:0:0:0:
401,117,254160,1,10,0:0:0:0:
369,200,254416,2,0,P|335:217|295:217,1,66.6666666666667
217,204,254929,2,8,P|184:207|154:222,2,66.6666666666667,14|0|8,0:0|0:0|0:0,0:0:0:0:
206,290,255698,22,0,B|187:234|187:234|185:192|185:192|168:153|168:153|170:119|191:95,1,200,14|10,0:0|0:0,0:0:0:0:
425,206,257237,2,0,P|428:173|420:141,2,66.6666666666667,2|0|0,0:0|0:0|0:0,0:0:0:0:
405,292,258006,2,0,P|398:324|405:375,2,66.6666666666667,10|0|0,0:0|0:0|0:0,0:0:0:0:
487,324,258775,22,0,B|446:331|446:331|406:319|374:323|374:323|324:342|265:333,1,200,2|10,0:0|0:0,0:0:0:0:
198,337,259801,2,0,P|204:305|219:276,1,66.6666666666667,2|10,0:0|0:0,0:0:0:0:
299,230,260314,2,0,P|247:189|182:193,1,133.333333333333,6|0,0:0|0:0,0:0:0:0:
104,238,261083,2,0,P|145:186|141:121,1,133.333333333333,10|0,0:0|0:0,0:0:0:0:
160,32,261852,70,0,B|204:44|232:88|232:88|260:108|260:108|356:64|420:96|436:128|436:128|436:192|504:156|460:192|504:228|436:192|436:256|436:256|420:288|356:320|260:276|260:276|232:296|232:296|204:340|160:352,1,800,4|0,0:0|0:0,0:0:0:0:
144,120,277237,53,6,0:0:0:0:
144,120,278006,1,2,0:0:0:0:
144,120,278775,1,2,0:0:0:0:
144,120,279544,1,2,0:0:0:0:
184,312,280314,21,6,0:0:0:0:
184,312,281083,1,2,0:0:0:0:
184,312,281852,1,2,0:0:0:0:
184,312,282622,2,0,B|252:320|252:320|320:304,1,133.333333333333,2|0,0:0|0:0,0:0:0:0:
376,272,283391,5,6,0:0:0:0:
376,272,284160,1,2,0:0:0:0:
376,272,284929,1,2,0:0:0:0:
376,272,285698,6,0,B|396:204|372:136,1,133.333333333333,2|0,0:0|0:0,0:0:0:0:
336,80,286468,5,6,0:0:0:0:
336,80,287237,1,2,0:0:0:0:
336,80,288006,101,6,0:0:0:0:
334,5,288262,1,2,0:0:0:0:
400,40,288519,1,2,0:0:0:0:
336,80,288775,5,6,0:0:0:0:
272,120,289032,1,0,0:0:0:0:
208,80,289288,1,0,0:0:0:0:
144,120,289544,102,0,P|283:313|336:80,1,600,12|12,0:0|0:0,0:0:0:0:
264,43,292109,2,8,P|256:74|261:107,1,66.6666666666667
308,167,292621,53,6,0:0:0:0:
243,208,292878,2,8,L|203:210,2,36.6666677856446,8|8|8,0:3|0:3|0:3,0:3:0:0:
316,185,293391,37,6,0:0:0:0:
251,226,293648,2,8,L|211:228,2,39.9999987792969,8|8|8,0:3|0:3|0:3,0:3:0:0:
324,203,294160,21,6,0:0:0:0:
259,244,294417,2,8,L|212:247,2,43.3333313496908,8|8|8,0:3|0:3|0:3,0:3:0:0:
332,221,294930,21,6,0:0:0:0:
267,262,295185,2,8,L|217:265,2,46.6666652425131,8|8|8,0:3|0:3|0:3,0:3:0:0:
332,221,295698,102,0,P|387:217|446:339,1,200.000007629395,6|0,0:0|0:0,0:0:0:0:
364,306,296468,2,0,L|486:148,1,200.000007629395,14|0,0:0|0:0,0:0:0:0:
398,89,297237,2,0,P|339:80|293:78,2,100.000003814697,2|0|0,0:0|0:0|0:0,0:0:0:0:
412,188,298006,2,0,P|471:197|516:197,2,100.000003814697,10|0|0,0:0|0:0|0:0,0:0:0:0:
398,89,298775,6,0,P|339:80|195:84,1,200.000007629395,2|0,0:0|0:0,0:0:0:0:
178,186,299544,2,0,P|277:191|376:180,1,200.000007629395,10|0,0:0|0:0,0:0:0:0:
472,132,300314,2,0,P|482:82|472:34,2,100.000003814697,2|0|0,0:0|0:3|0:0,0:0:0:0:
376,180,301083,2,0,P|366:230|376:278,2,100.000003814697,10|0|0,0:0|0:3|0:0,0:0:0:0:
471,230,301852,102,0,L|220:239,1,200.000007629395,2|0,0:0|0:0,0:0:0:0:
190,169,302621,2,0,L|441:160,1,200.000007629395,10|0,0:0|0:0,0:0:0:0:
400,56,303391,2,0,L|255:63,2,100.000003814697,2|0|0,0:0|0:3|0:0,0:0:0:0:
389,161,304160,2,0,L|534:168,2,100.000003814697,10|0|0,0:0|0:3|0:0,0:0:0:0:
288,176,304929,6,0,P|244:280|300:352,1,200.000007629395,14|0,0:0|0:0,0:0:0:0:
338,261,305698,1,14,0:0:0:0:
338,261,306468,1,14,0:0:0:0:
308,179,306724,2,8,L|322:132,2,50.0000019073487,8|8|8,0:0|0:0|0:0,0:0:0:0:
256,248,307237,1,14,0:0:0:0:
204,179,307493,2,8,L|190:132,2,50.0000019073487,8|8|8,0:0|0:0|0:0,0:0:0:0:
174,261,308006,102,0,P|121:225|204:179,1,200.000007629395,14|0,0:0|0:0,0:0:0:0:
307,179,308775,2,0,P|389:195|338:261,1,200.000007629395,10|0,0:0|0:0,0:0:0:0:
239,296,309544,2,0,P|193:305|148:348,1,100.000003814697,2|0,0:0|0:0,0:0:0:0:
64,384,310057,1,0,0:0:0:0:
60,280,310314,2,0,P|144:212|236:192,1,200.000007629395,10|0,0:0|0:0,0:0:0:0:
239,296,311083,6,0,L|454:291,1,200.000007629395,2|0,0:0|0:0,0:0:0:0:
488,197,311852,1,14,0:0:0:0:
425,112,312109,2,8,L|423:56,2,50.0000019073487,8|8|8,0:0|0:0|0:0,0:0:0:0:
468,207,312621,1,14,0:0:0:0:
405,122,312878,2,8,L|403:66,2,50.0000019073487,8|8|8,0:0|0:0|0:0,0:0:0:0:
448,217,313391,1,14,0:0:0:0:
385,132,313648,2,8,L|383:76,2,50.0000019073487,8|8|8,0:0|0:0|0:0,0:0:0:0:
427,228,314160,102,0,P|355:226|384:133,1,200.000007629395,14|0,0:0|0:0,0:0:0:0:
327,53,314929,2,0,P|257:126|242:228,1,200.000007629395,10|0,0:0|0:0,0:0:0:0:
132,199,315698,2,0,P|133:248|155:293,2,100.000003814697,2|0|0,0:0|0:0|0:0,0:0:0:0:
196,116,316468,2,0,P|195:66|173:21,2,100.000003814697,10|0|0,0:0|0:0|0:0,0:0:0:0:
92,92,317237,6,0,P|47:159|132:200,1,200.000007629395,2|0,0:0|0:0,0:0:0:0:
234,224,318006,2,0,P|279:157|194:116,1,200.000007629395,10|0,0:0|0:0,0:0:0:0:
132,199,318775,1,14,0:0:0:0:
235,225,319032,2,8,L|293:229,2,50.0000019073487
138,225,319544,1,14,0:0:0:0:
243,250,319801,2,8,L|301:254,2,50.0000019073487
146,250,320314,101,14,0:0:0:0:
256,192,320442,12,4,323391,0:0:0:0:
182,374,326468,118,0,P|166:298|204:246,1,133.333333333333,6|0,0:0|0:0,0:0:0:0:
273,242,327237,2,0,P|303:184|279:125,1,133.333333333333,10|0,0:0|0:0,0:0:0:0:
224,182,328006,2,0,P|202:126|283:44,1,133.333333333333,2|0,0:0|0:0,0:0:0:0:
296,16,328775,1,10,0:0:0:0:
373,31,329032,1,0,0:0:0:0:
448,52,329288,1,0,0:0:0:0:
388,104,329544,6,0,P|360:128|352:160,2,66.6666666666667,2|0|0,0:0|0:0|0:0,0:0:0:0:
428,168,330314,2,0,P|404:211|307:221,1,133.333333333333,10|0,0:0|0:0,0:0:0:0:
259,207,331083,2,0,P|197:221|165:277,1,133.333333333333,2|2,0:0|0:0,0:0:0:0:
244,284,331852,2,0,P|237:317|212:340,2,66.6666666666667,10|2|2,0:0|0:0|0:0,0:0:0:0:
259,207,332621,102,0,B|199:213|199:213|158:278,1,133.333333333333,6|0,0:0|0:0,0:0:0:0:
87,248,333391,2,0,B|126:183|126:183|106:152|122:122,1,133.333333333333,10|0,0:0|0:0,0:0:0:0:
195,144,334160,1,2,0:0:0:0:
195,144,334929,1,10,0:0:0:0:
242,80,335186,1,0,0:0:0:0:
275,152,335442,1,0,0:0:0:0:
195,144,335698,6,0,P|163:94|185:27,1,133.333333333333,2|0,0:0|0:0,0:0:0:0:
242,80,336468,2,0,L|92:96,1,133.333333333333,10|0,0:0|0:0,0:0:0:0:
31,102,337237,2,0,P|109:148|72:231,1,200,2|10,0:0|0:0,0:0:0:0:
72,231,338775,102,0,P|67:295|115:343,1,133.333333333333,6|0,0:0|0:0,0:0:0:0:
188,328,339544,2,0,P|188:266|242:220,1,133.333333333333,10|0,0:0|0:0,0:0:0:0:
233,144,340313,2,0,P|293:169|315:234,1,133.333333333333,2|0,0:0|0:0,0:0:0:0:
351,297,341083,2,0,P|382:307|439:288,2,66.6666666666667,10|0|0,0:0|0:0|0:0,0:0:0:0:
292,346,341852,5,2,0:0:0:0:
260,276,342108,1,0,0:0:0:0:
191,241,342364,1,0,0:0:0:0:
132,292,342621,2,0,P|113:242|174:167,1,133.333333333333,10|0,0:0|0:0,0:0:0:0:
220,146,343390,2,0,P|255:93|238:31,1,133.333333333333,2|8,0:0|0:0,0:0:0:0:
180,83,344160,2,0,P|163:55|160:22,2,66.6666666666667,10|8|8,0:0|0:0|0:0,0:0:0:0:
220,146,344929,102,0,P|275:110|353:147,1,133.333333333333,14|0,0:0|0:0,0:0:0:0:
402,167,345698,2,0,P|348:203|286:186,1,133.333333333333,14|0,0:0|0:0,0:0:0:0:
336,127,346467,1,14,0:0:0:0:
336,127,347237,1,8,0:3:0:0:
349,206,347493,1,0,0:0:0:0:
274,178,347749,1,0,0:0:0:0:
336,127,348006,6,0,P|364:104|405:86,2,66.6666666666667
256,192,348775,12,0,351083,0:0:0:0:
126,54,355698,86,0,L|136:197,1,133.333333333333,4|0,0:0|0:0,0:0:0:0:
214,215,356468,2,0,L|204:72,1,133.333333333333,4|0,0:0|0:0,0:0:0:0:
287,94,357237,6,12,L|303:307,1,200
150,94,358775,2,12,L|134:307,1,200
256,74,360314,101,12,0:0:0:0:
256,192,360570,12,0,366468,0:0:0:0:
