osu file format v14

[General]
AudioFilename: Binetsu Kara Mystery.mp3
AudioLeadIn: 0
PreviewTime: 44688
Countdown: 0
SampleSet: Soft
StackLeniency: 0.7
Mode: 0
LetterboxInBreaks: 1
WidescreenStoryboard: 1

[Editor]
DistanceSpacing: 1.2
BeatDivisor: 2
GridSize: 32
TimelineZoom: 2.3

[Metadata]
Title:Binetsu kara Mystery
TitleUnicode:微熱からMystery
Artist:lily white
ArtistUnicode:lily white
Creator:ZZHBOY
Version:Normal
Source:Love Live! School idol project
Tags:園田海未 sonoda umi 三森すずこ mimori suzuko 星空凛 hoshizora rin 飯田里穂 iida riho 東條希 toujou nozomi 楠田亜衣奈 kusuda aina u's μ's ラブライブ! [CSGA]Ar3sgice
BeatmapID:628393
BeatmapSetID:276245

[Difficulty]
HPDrainRate:4
CircleSize:3
OverallDifficulty:4
ApproachRate:4
SliderMultiplier:1
SliderTickRate:2

[Events]
//Background and Video events
0,0,"bg.jpg",0,0
//Break Periods
//Storyboard Layer 0 (Background)
//Storyboard Layer 1 (Fail)
//Storyboard Layer 2 (Pass)
//Storyboard Layer 3 (Foreground)
//Storyboard Sound Samples

[TimingPoints]
1084,348.837209302326,4,2,0,60,1,0
45735,-100,4,2,0,80,0,1
55502,-100,4,2,0,60,0,0
56897,-100,4,2,0,80,0,1
70851,-100,4,2,0,60,0,0
109921,-100,4,2,0,80,0,1
119688,-100,4,2,0,60,0,0
121084,-100,4,2,0,80,0,1
135037,-100,4,2,0,60,0,0
155967,-100,4,2,0,80,0,1
156490,-100,4,2,0,60,0,0
157363,-100,4,2,0,80,0,1
157886,-100,4,2,0,60,0,0
158758,-100,4,2,0,80,0,1
160851,-100,4,2,0,60,0,0
161549,-100,4,2,0,80,0,1
165735,-100,4,2,0,60,0,0
167130,-100,4,2,0,80,0,1
181084,-100,4,2,0,60,0,0
194165,-100,4,2,0,20,0,0
194339,-100,4,2,0,5,0,0

[Colours]
Combo1 : 208,111,251
Combo2 : 253,189,132
Combo3 : 155,200,255

[HitObjects]
23,112,6665,6,0,P|101:84|188:99,1,150,4|0,0:0|0:0,0:0:0:0:
256,170,7537,2,0,L|252:247,1,50,0|8,0:0|0:0,0:0:0:0:
288,268,7886,2,0,P|336:297|405:297,1,100,0|0,0:0|0:0,0:0:0:0:
436,285,8409,1,8,0:0:0:0:
498,182,8758,2,0,L|494:73,1,100,0|8,0:0|0:0,0:0:0:0:
377,52,9456,6,0,P|297:72|215:75,1,150,0|0,0:0|0:0,0:0:0:0:
111,56,10328,1,0,0:0:0:0:
88,173,10677,1,0,0:0:0:0:
83,232,10851,2,0,P|86:293|113:341,2,100,0|8|0,1:0|0:0|1:0,0:0:0:0:
200,255,11897,1,8,0:0:0:0:
297,185,12246,6,0,P|379:182|460:245,1,150,4|0,0:0|0:0,0:0:0:0:
469,99,13118,1,0,0:0:0:0:
357,54,13467,2,0,L|210:64,1,100,0|0,0:0|0:0,0:0:0:0:
198,73,13990,1,8,0:0:0:0:
157,186,14339,2,0,P|212:193|281:166,1,100,0|8,0:0|0:0,0:0:0:0:
374,168,15037,6,0,P|445:169|499:191,1,100,0|8,0:0|0:0,0:0:0:0:
487,235,15560,1,0,0:0:0:0:
397,315,15909,1,0,0:0:0:0:
277,300,16258,1,0,0:0:0:0:
224,270,16432,2,0,P|164:263|80:274,2,100,0|8|0,1:0|0:0|1:0,0:0:0:0:
449,187,17828,6,0,P|380:201|319:184,1,100,0|8,1:0|0:0,0:0:0:0:
232,179,18525,1,0,0:0:0:0:
111,178,18874,2,0,L|48:190,1,50,8|0,0:0|0:0,0:0:0:0:
12,222,19223,2,0,P|13:298|33:329,2,100,0|8|0,0:0|0:0|0:0,0:0:0:0:
32,103,20270,1,8,0:0:0:0:
141,54,20618,6,0,P|198:62|260:51,1,100,0|8,0:0|0:0,0:0:0:0:
359,47,21316,1,0,0:0:0:0:
445,130,21665,1,8,0:0:0:0:
366,220,22014,2,0,P|362:276|378:346,1,100,0|8,0:0|0:0,0:0:0:0:
248,314,22711,2,0,L|256:380,2,50,0|8|8,1:0|0:0|0:0,0:0:0:0:
275,196,23409,6,0,P|344:182|405:199,1,100,4|8,0:0|0:0,0:0:0:0:
492,204,24106,1,0,0:0:0:0:
448,92,24455,2,0,L|460:29,1,50,8|0,0:0|0:0,0:0:0:0:
397,33,24804,2,0,P|332:42|283:28,1,100,0|8,0:0|0:0,0:0:0:0:
178,38,25502,2,0,L|222:88,2,50,0|0|8,0:0|0:0|0:0,0:0:0:0:
66,82,26200,6,0,P|58:139|69:201,1,100,0|8,0:0|0:0,0:0:0:0:
73,300,26897,1,0,0:0:0:0:
174,363,27246,1,8,0:0:0:0:
276,301,27595,2,0,P|332:297|402:313,1,100,0|8,0:0|0:0,0:0:0:0:
378,183,28293,2,0,L|454:189,2,50,0|0|8,1:0|0:0|0:0,0:0:0:0:
267,135,28990,5,4,0:0:0:0:
151,168,29339,1,8,0:0:0:0:
31,153,29688,2,0,P|28:95|46:44,1,100,0|8,0:0|0:0,0:0:0:0:
156,26,30386,1,0,0:0:0:0:
268,67,30735,1,8,0:0:0:0:
386,50,31084,2,0,P|419:91|418:169,1,100,0|8,0:0|0:0,0:0:0:0:
396,188,31607,1,0,0:0:0:0:
369,241,31781,6,0,P|377:289|409:327,2,100,0|8|0,0:0|0:0|0:0,0:0:0:0:
251,267,32828,1,8,0:0:0:0:
141,212,33177,1,0,0:0:0:0:
129,92,33525,1,8,0:0:0:0:
180,60,33700,2,0,P|244:52|305:63,1,100,0|0,0:0|0:0,0:0:0:0:
330,86,34223,1,8,0:0:0:0:
260,183,34572,5,0,0:0:0:0:
269,302,34921,1,8,0:0:0:0:
386,333,35270,2,0,P|417:296|426:247,1,100,0|8,0:0|0:0,0:0:0:0:
396,196,35793,1,0,0:0:0:0:
369,143,35967,2,0,P|377:94|409:56,2,100,0|8|0,0:0|0:0|0:0,0:0:0:0:
250,120,37014,1,8,0:0:0:0:
141,172,37363,5,4,0:0:0:0:
129,292,37711,1,8,0:0:0:0:
239,244,38060,2,0,L|304:251,1,50,0|0,0:0|0:0,0:0:0:0:
408,237,38584,1,0,0:0:0:0:
444,189,38758,2,0,P|453:126|438:71,1,100,0|8,0:0|0:0,0:0:0:0:
331,52,39456,2,0,P|257:61|208:51,1,100,0|8,0:0|0:0,0:0:0:0:
118,20,40153,5,4,0:0:0:0:
74,256,40851,1,4,0:0:0:0:
303,327,41549,1,4,0:0:0:0:
416,187,42072,1,0,0:0:0:0:
375,143,42246,2,0,P|322:137|248:149,1,100,0|0,1:0|1:0,0:0:0:0:
256,192,42770,12,0,44339,0:0:0:0:
64,112,45735,6,0,P|144:132|200:124,1,100,4|8,0:0|0:0,0:0:0:0:
216,108,46258,2,0,P|280:104|336:112,1,100,0|0,0:0|0:0,0:0:0:0:
372,132,46781,1,8,0:0:0:0:
412,244,47130,1,4,0:0:0:0:
312,308,47479,2,0,L|312:372,1,50,8|0,0:0|0:0,0:0:0:0:
204,308,48002,2,0,L|176:356,1,50,0|8,0:0|0:0,0:0:0:0:
80,284,48525,5,4,0:0:0:0:
52,168,48874,1,8,0:0:0:0:
168,196,49223,2,0,P|240:184|268:152,1,100,4|8,0:0|0:0,0:0:0:0:
355,97,49921,2,0,L|338:49,2,50,4|0|8,0:0|0:0|0:0,0:0:0:0:
350,216,50618,2,0,P|358:277|395:342,1,100,0|8,0:0|0:0,0:0:0:0:
256,340,51316,6,0,P|172:311|79:325,1,150,4|0,0:0|0:0,0:0:0:0:
61,347,52014,2,0,P|54:279|56:224,1,100,0|8,0:0|0:0,0:0:0:0:
47,127,52711,1,4,0:0:0:0:
161,163,53060,1,8,0:0:0:0:
232,66,53409,2,0,P|287:54|348:67,1,100,0|8,0:0|0:0,0:0:0:0:
420,139,54107,5,0,1:0:0:0:
415,258,54456,1,8,0:0:0:0:
314,192,54804,2,0,P|251:187|184:192,1,100,0|8,0:0|0:0,0:0:0:0:
155,201,55328,1,0,0:0:0:0:
97,218,55502,2,0,P|92:283|112:373,2,150,4|4|8,0:0|0:0|0:0,0:0:0:0:
125,101,56897,6,0,P|188:89|241:91,1,100,4|8,0:0|0:0,0:0:0:0:
277,116,57421,2,0,P|341:119|394:104,1,100,0|0,0:0|0:0,0:0:0:0:
420,71,57944,1,8,0:0:0:0:
487,169,58293,2,0,P|464:243|472:344,2,150,0|0|8,0:0|0:0|0:0,0:0:0:0:
372,204,59688,5,4,0:0:0:0:
252,218,60037,1,8,0:0:0:0:
136,185,60386,2,0,P|135:252|181:308,1,100,4|8,0:0|0:0,0:0:0:0:
259,329,61084,1,4,0:0:0:0:
357,260,61432,1,8,0:0:0:0:
472,291,61781,2,0,L|481:351,2,50,0|0|8,0:0|0:0|0:0,0:0:0:0:
434,176,62479,6,0,P|425:126|428:77,1,100,4|8,0:0|0:0,0:0:0:0:
311,51,63177,1,0,0:0:0:0:
199,93,63525,1,8,0:0:0:0:
79,84,63874,2,0,P|78:160|94:207,1,100,0|8,1:0|0:0,0:0:0:0:
171,264,64572,2,0,P|216:246|266:246,1,100,0|8,1:0|0:0,0:0:0:0:
321,269,65095,6,0,L|389:282,1,50,0|0,0:0|1:0,0:0:0:0:
403,163,65618,2,0,L|473:162,2,50,8|0|0,0:0|0:0|1:0,0:0:0:0:
301,98,66316,1,8,0:0:0:0:
199,161,66665,2,0,P|135:171|76:133,2,100,0|8|0,1:0|0:0|1:0,0:0:0:0:
154,49,67711,1,8,0:0:0:0:
34,60,68060,6,0,P|19:135|29:244,1,150,0|0,1:0|1:0,0:0:0:0:
76,314,68932,2,0,L|156:303,1,50,0|8,1:0|0:0,0:0:0:0:
179,281,69281,2,0,P|256:268|343:302,1,150,0|8,1:0|0:0,0:0:0:0:
430,342,70153,1,0,1:0:0:0:
489,112,70851,6,0,P|411:84|324:99,1,150,0|0,0:0|0:0,0:0:0:0:
256,170,71723,2,0,L|260:247,1,50,0|8,0:0|0:0,0:0:0:0:
224,268,72072,2,0,P|176:297|107:297,1,100,0|0,0:0|0:0,0:0:0:0:
76,285,72595,1,8,0:0:0:0:
14,182,72944,2,0,L|18:73,1,100,0|8,0:0|0:0,0:0:0:0:
135,52,73642,6,0,P|215:72|297:75,1,150,0|0,0:0|0:0,0:0:0:0:
401,56,74514,1,0,0:0:0:0:
424,173,74863,1,0,0:0:0:0:
429,232,75037,2,0,P|426:293|399:341,2,100,0|8|0,0:0|0:0|0:0,0:0:0:0:
312,255,76083,1,8,0:0:0:0:
215,185,76432,6,0,P|133:182|52:245,1,150,4|0,0:0|0:0,0:0:0:0:
43,99,77304,1,0,0:0:0:0:
155,54,77653,2,0,L|302:64,1,100,0|0,0:0|0:0,0:0:0:0:
314,73,78176,1,8,0:0:0:0:
355,186,78525,2,0,P|300:193|231:166,1,100,0|8,0:0|0:0,0:0:0:0:
138,168,79223,6,0,P|67:169|13:191,1,100,4|8,0:0|0:0,0:0:0:0:
25,235,79746,1,0,0:0:0:0:
115,315,80095,1,0,0:0:0:0:
235,300,80444,1,0,1:0:0:0:
288,270,80618,2,0,P|348:263|432:274,2,100,0|8|0,0:0|0:0|0:0,0:0:0:0:
63,187,82014,6,0,P|132:201|193:184,1,100,0|8,0:0|0:0,0:0:0:0:
280,179,82711,1,0,0:0:0:0:
401,178,83060,2,0,L|464:190,1,50,8|0,0:0|0:0,0:0:0:0:
500,222,83409,2,0,P|499:298|479:329,2,100,0|8|0,0:0|0:0|0:0,0:0:0:0:
480,103,84456,1,8,0:0:0:0:
371,54,84804,6,0,P|314:62|252:51,1,100,0|8,0:0|0:0,0:0:0:0:
153,47,85502,1,0,0:0:0:0:
67,130,85851,1,8,0:0:0:0:
146,220,86200,2,0,P|150:276|134:346,1,100,0|8,0:0|0:0,0:0:0:0:
264,314,86897,2,0,L|256:380,2,50,0|0|8,0:0|0:0|0:0,0:0:0:0:
237,196,87595,6,0,P|168:182|107:199,1,100,0|8,0:0|0:0,0:0:0:0:
20,204,88292,1,0,0:0:0:0:
64,92,88641,2,0,L|52:29,1,50,8|0,0:0|0:0,0:0:0:0:
115,33,88990,2,0,P|180:42|229:28,1,100,0|8,0:0|0:0,0:0:0:0:
334,38,89688,2,0,L|290:88,2,50,0|0|8,0:0|0:0|0:0,0:0:0:0:
446,82,90386,6,0,P|454:139|442:195,1,100,0|8,0:0|0:0,0:0:0:0:
439,300,91083,1,0,0:0:0:0:
338,363,91432,1,8,0:0:0:0:
236,301,91781,2,0,P|180:297|110:313,1,100,0|8,0:0|0:0,0:0:0:0:
134,183,92479,2,0,L|59:186,2,50,0|0|8,0:0|0:0|0:0,0:0:0:0:
245,135,93176,5,0,0:0:0:0:
361,168,93525,1,8,0:0:0:0:
481,153,93874,2,0,P|484:95|466:44,1,100,0|8,0:0|0:0,0:0:0:0:
356,26,94572,1,0,0:0:0:0:
244,67,94921,1,8,0:0:0:0:
126,50,95270,2,0,P|93:91|94:169,1,100,0|8,0:0|0:0,0:0:0:0:
116,188,95793,1,0,0:0:0:0:
143,241,95967,6,0,P|135:289|103:327,2,100,0|8|0,0:0|0:0|0:0,0:0:0:0:
262,258,97014,1,8,0:0:0:0:
371,212,97363,1,0,0:0:0:0:
383,92,97711,1,8,0:0:0:0:
332,60,97886,2,0,P|268:52|207:63,1,100,0|0,0:0|0:0,0:0:0:0:
182,86,98409,1,8,0:0:0:0:
252,183,98758,5,0,0:0:0:0:
243,302,99107,1,8,0:0:0:0:
126,333,99456,2,0,P|95:296|86:247,1,100,0|8,0:0|0:0,0:0:0:0:
116,196,99979,1,0,0:0:0:0:
143,143,100153,2,0,P|135:94|103:56,2,100,0|8|0,0:0|0:0|0:0,0:0:0:0:
262,127,101200,1,8,0:0:0:0:
371,172,101549,5,0,0:0:0:0:
383,292,101897,1,8,0:0:0:0:
273,244,102246,2,0,L|208:251,1,50,0|0,0:0|0:0,0:0:0:0:
104,237,102770,1,0,0:0:0:0:
68,189,102944,2,0,P|59:126|74:71,1,100,0|8,0:0|0:0,0:0:0:0:
181,52,103642,2,0,P|255:61|304:51,1,100,0|8,0:0|0:0,0:0:0:0:
394,20,104339,5,4,0:0:0:0:
438,256,105037,1,4,0:0:0:0:
209,327,105735,1,4,0:0:0:0:
96,187,106258,1,0,0:0:0:0:
137,143,106432,2,0,P|190:137|264:149,1,100,0|0,1:0|1:0,0:0:0:0:
256,192,106956,12,0,108525,0:0:0:0:
448,272,109921,6,0,P|368:252|312:260,1,100,4|8,0:0|0:0,0:0:0:0:
296,276,110444,2,0,P|232:280|176:272,1,100,0|0,0:0|0:0,0:0:0:0:
140,252,110967,1,8,0:0:0:0:
100,140,111316,1,0,0:0:0:0:
200,76,111665,2,0,L|200:12,1,50,8|0,0:0|0:0,0:0:0:0:
308,76,112188,2,0,L|336:28,1,50,0|8,0:0|0:0,0:0:0:0:
432,100,112711,5,4,0:0:0:0:
460,216,113060,1,8,0:0:0:0:
344,188,113409,2,0,P|272:200|244:232,1,100,4|8,0:0|0:0,0:0:0:0:
157,287,114107,2,0,L|173:334,2,50,4|0|8,0:0|0:0|0:0,0:0:0:0:
162,168,114804,2,0,P|154:107|117:42,1,100,0|8,0:0|0:0,0:0:0:0:
256,44,115502,6,0,P|340:73|433:59,1,150,4|0,0:0|0:0,0:0:0:0:
451,37,116200,2,0,P|458:105|456:160,1,100,0|8,0:0|0:0,0:0:0:0:
465,257,116897,1,4,0:0:0:0:
351,221,117246,1,8,0:0:0:0:
280,318,117595,2,0,P|224:329|164:317,1,100,0|8,0:0|0:0,0:0:0:0:
92,245,118293,5,0,1:0:0:0:
97,126,118642,1,8,0:0:0:0:
198,192,118990,2,0,P|261:197|328:192,1,100,0|8,0:0|0:0,0:0:0:0:
357,183,119514,1,0,0:0:0:0:
415,166,119688,2,0,P|420:101|400:11,2,150,4|4|8,0:0|0:0|0:0,0:0:0:0:
387,283,121083,6,0,P|324:295|271:293,1,100,4|8,0:0|0:0,0:0:0:0:
235,268,121607,2,0,P|171:265|118:280,1,100,0|0,0:0|0:0,0:0:0:0:
92,313,122130,1,8,0:0:0:0:
25,215,122479,2,0,P|48:141|40:40,2,150,0|0|8,0:0|0:0|0:0,0:0:0:0:
140,180,123874,5,4,0:0:0:0:
260,166,124223,1,8,0:0:0:0:
376,199,124572,2,0,P|377:132|331:76,1,100,4|8,0:0|0:0,0:0:0:0:
253,55,125270,1,4,0:0:0:0:
155,124,125618,1,8,0:0:0:0:
40,93,125967,2,0,L|31:33,2,50,0|0|8,0:0|0:0|0:0,0:0:0:0:
77,207,126665,6,0,P|86:257|83:306,1,100,4|8,0:0|0:0,0:0:0:0:
201,333,127363,1,0,0:0:0:0:
313,291,127711,1,8,0:0:0:0:
433,300,128060,2,0,P|434:224|418:177,1,100,0|8,0:0|0:0,0:0:0:0:
340,119,128758,2,0,P|295:137|245:137,1,100,0|8,0:0|0:0,0:0:0:0:
191,115,129281,6,0,L|123:102,1,50,0|4,0:0|0:0,0:0:0:0:
109,221,129804,2,0,L|39:222,2,50,8|0|0,0:0|0:0|1:0,0:0:0:0:
211,286,130502,1,8,0:0:0:0:
313,223,130851,2,0,P|379:214|436:253,2,100,0|8|4,1:0|0:0|0:0,0:0:0:0:
358,335,131897,1,8,0:0:0:0:
478,324,132246,6,0,P|493:249|483:140,1,150,0|4,1:0|0:0,0:0:0:0:
436,70,133118,2,0,L|356:81,1,50,0|0,0:0|0:0,0:0:0:0:
333,103,133467,2,0,P|256:116|169:82,1,150,0|8,1:0|0:0,0:0:0:0:
84,153,134339,1,0,1:0:0:0:
263,311,135037,6,0,P|279:263|270:215,1,100,4|8,0:0|0:0,0:0:0:0:
206,113,135735,2,0,L|136:103,2,50,0|0|8,0:0|0:0|0:0,0:0:0:0:
326,111,136432,1,0,0:0:0:0:
442,81,136781,2,0,L|446:144,1,50,8|0,0:0|0:0,0:0:0:0:
437,189,137130,2,0,P|433:239|442:288,1,100,0|8,0:0|0:0,0:0:0:0:
325,317,137828,6,0,L|335:373,2,50
219,259,138525,1,0,0:0:0:0:
105,296,138874,1,8,0:0:0:0:
137,180,139223,2,0,P|136:116|96:55,1,100,0|8,0:0|0:0,0:0:0:0:
14,29,139921,1,0,0:0:0:0:
34,147,140270,1,8,0:0:0:0:
22,266,140618,6,0,L|88:296,1,50,4|0,0:0|0:0,0:0:0:0:
127,288,140967,1,8,0:0:0:0:
238,243,141316,2,0,P|300:237|356:248,1,100,0|8,0:0|0:0,0:0:0:0:
433,314,142014,1,0,0:0:0:0:
487,206,142363,2,0,L|486:133,1,50,8|0,0:0|0:0,0:0:0:0:
469,98,142711,2,0,P|396:80|340:89,1,100,0|8,0:0|0:0,0:0:0:0:
258,121,143409,6,0,P|209:130|159:129,2,100,0|8|0,0:0|0:0|0:0,0:0:0:0:
339,209,144456,2,0,L|326:262,1,50,8|0,0:0|0:0,0:0:0:0:
331,317,144804,1,0,0:0:0:0:
211,326,145153,2,0,P|127:313|92:278,2,100,8|0|8,0:0|0:0|0:0,0:0:0:0:
186,208,146200,5,4,0:0:0:0:
407,115,146897,1,4,0:0:0:0:
183,27,147595,2,0,P|107:46|58:111,1,150,4|0,0:0|0:0,0:0:0:0:
72,158,148293,2,0,P|70:217|51:297,1,100,0|0,1:0|1:0,0:0:0:0:
41,313,148816,5,0,0:0:0:0:
157,342,149165,2,0,L|216:336,1,50,0|8,0:0|0:0,0:0:0:0:
324,314,149688,1,0,0:0:0:0:
444,314,150037,1,8,0:0:0:0:
479,265,150211,2,0,P|488:175|474:147,1,100,0|0,0:0|0:0,0:0:0:0:
451,118,150735,1,8,0:0:0:0:
334,90,151084,2,0,L|265:89,1,50,0|0,0:0|0:0,0:0:0:0:
225,102,151432,1,8,0:0:0:0:
170,128,151607,6,0,P|119:134|55:128,1,100,0|0,0:0|0:0,0:0:0:0:
16,104,152130,1,8,0:0:0:0:
40,221,152479,1,0,0:0:0:0:
28,279,152653,2,0,L|30:331,2,50,0|8|0,0:0|0:0|0:0,0:0:0:0:
256,192,153177,12,0,154572,0:0:0:0:
319,203,155967,6,0,P|302:276|324:347,1,150,0|0,1:0|1:0,0:0:0:0:
154,97,157363,6,0,P|227:80|298:102,2,150,0|0|8,1:0|1:0|0:0,0:0:0:0:
138,217,158758,1,4,0:0:0:0:
40,146,159107,1,8,0:0:0:0:
26,265,159456,2,0,P|50:307|103:334,1,100,4|8,0:0|0:0,0:0:0:0:
153,327,159979,1,4,0:0:0:0:
266,287,160328,1,4,0:0:0:0:
380,323,160677,2,0,L|433:324,1,50,4|0,0:0|0:0,0:0:0:0:
496,224,161200,1,8,0:0:0:0:
467,107,161549,6,0,P|399:96|325:113,1,100,4|8,0:0|0:0,0:0:0:0:
266,161,162246,1,0,0:0:0:0:
269,280,162595,1,8,0:0:0:0:
156,322,162944,2,0,L|144:383,2,50,0|0|8,0:0|0:0|0:0,0:0:0:0:
172,202,163642,2,0,P|111:190|48:196,1,100,0|8,0:0|0:0,0:0:0:0:
14,86,164339,5,4,0:0:0:0:
126,43,164688,1,8,0:0:0:0:
240,78,165037,2,0,P|310:84|356:67,1,100,4|8,0:0|0:0,0:0:0:0:
389,44,165560,2,0,L|457:53,1,50,0|4,0:0|0:0,0:0:0:0:
433,170,166084,2,0,L|463:220,1,50,8|4,0:0|1:0,0:0:0:0:
444,332,166607,2,0,L|448:394,1,50,0|8,0:0|0:0,0:0:0:0:
343,321,167130,6,0,P|280:309|227:311,1,100,4|8,0:0|0:0,0:0:0:0:
184,319,167654,2,0,P|120:322|67:307,1,100,0|0,0:0|0:0,0:0:0:0:
32,285,168177,1,8,0:0:0:0:
62,169,168525,1,4,0:0:0:0:
179,193,168874,2,0,L|234:195,1,50,8|0,0:0|0:0,0:0:0:0:
316,112,169397,2,0,L|376:126,1,50,0|8,0:0|0:0,0:0:0:0:
435,221,169921,5,4,0:0:0:0:
325,269,170270,1,8,0:0:0:0:
213,225,170619,2,0,P|212:292|258:348,1,100,4|8,0:0|0:0,0:0:0:0:
108,342,171317,1,4,0:0:0:0:
91,223,171665,1,8,0:0:0:0:
151,119,172014,2,0,L|78:118,2,50,0|0|8,0:0|0:0|0:0,0:0:0:0:
261,70,172712,6,0,P|311:79|360:76,1,100,4|8,0:0|0:0,0:0:0:0:
385,193,173409,1,0,0:0:0:0:
344,305,173758,1,8,0:0:0:0:
228,272,174107,2,0,P|227:196|243:149,1,100,4|8,0:0|0:0,0:0:0:0:
315,85,174805,2,0,P|360:103|410:103,1,100,0|8,1:0|0:0,0:0:0:0:
448,149,175328,6,0,L|460:207,1,50,0|0,0:0|1:0,0:0:0:0:
353,257,175851,2,0,L|361:315,2,50,8|0|0,0:0|0:0|1:0,0:0:0:0:
332,138,176549,1,8,0:0:0:0:
238,213,176898,2,0,P|174:223|115:185,2,100,0|8|4,1:0|0:0|0:0,0:0:0:0:
194,100,177944,1,8,0:0:0:0:
92,36,178293,5,4,0:0:0:0:
37,142,178642,2,0,L|45:215,1,50,8|4,0:0|0:0,0:0:0:0:
80,305,179165,2,0,L|160:294,1,50,4|8,0:0|0:0,0:0:0:0:
186,279,179514,2,0,P|263:266|350:300,1,150,4|8,0:0|0:0,0:0:0:0:
437,231,180386,1,4,1:0:0:0:
421,111,180735,2,0,L|354:124,1,50,8|0,0:0|0:0,0:0:0:0:
317,146,181084,6,0,P|235:161|181:150,1,100,4|8,0:0|0:0,0:0:0:0:
171,122,181607,1,0,0:0:0:0:
61,171,181956,2,0,L|46:228,1,50,0|8,0:0|0:0,0:0:0:0:
70,274,182304,2,0,P|121:295|210:284,1,100,0|0,0:0|0:0,0:0:0:0:
221,275,182828,1,8,0:0:0:0:
333,232,183177,2,0,P|382:234|428:254,1,100,0|8,0:0|0:0,0:0:0:0:
494,154,183874,5,0,0:0:0:0:
415,63,184223,2,0,L|322:71,1,50,8|0,0:0|0:0,0:0:0:0:
255,116,184746,2,0,L|194:119,1,50,0|8,0:0|0:0,0:0:0:0:
149,141,185095,1,0,0:0:0:0:
93,164,185270,2,0,P|92:229|122:301,1,100,0|8,0:0|0:0,0:0:0:0:
206,320,185967,1,0,0:0:0:0:
320,283,186316,1,8,0:0:0:0:
423,343,186665,6,0,P|440:273|413:213,1,100,4|8,0:0|0:0,0:0:0:0:
400,197,187188,1,0,0:0:0:0:
313,113,187537,2,0,L|276:150,1,50,0|8,0:0|0:0,0:0:0:0:
236,192,187886,2,0,P|226:248|240:299,1,100,0|0,0:0|0:0,0:0:0:0:
215,346,188409,1,8,0:0:0:0:
96,325,188758,2,0,P|98:247|90:188,1,100,0|8,0:0|0:0,0:0:0:0:
35,121,189456,5,0,0:0:0:0:
135,55,189804,2,0,L|200:60,1,50,8|0,0:0|0:0,0:0:0:0:
288,119,190328,2,0,L|353:124,1,50,0|8,0:0|0:0,0:0:0:0:
394,143,190677,1,0,0:0:0:0:
434,187,190851,2,0,P|432:253|406:321,1,100,0|8,0:0|0:0,0:0:0:0:
303,301,191549,2,0,P|241:292|192:308,1,100,0|8,0:0|0:0,0:0:0:0:
98,246,192246,6,0,L|34:248,2,50,0|0|0,1:0|1:0|1:0,0:0:0:0:
144,207,192770,1,0,1:0:0:0:
125,88,193118,1,0,1:0:0:0:
237,130,193467,6,0,P|296:153|254:55,1,250,4|0,1:0|0:0,0:0:0:0:
