osu file format v12

[General]
AudioFilename: 01 Mystery.mp3
AudioLeadIn: 1996
PreviewTime: -1
Countdown: 0
SampleSet: Soft
StackLeniency: 0.7
Mode: 0
LetterboxInBreaks: 1
WidescreenStoryboard: 1

[Editor]
Bookmarks: 57261
DistanceSpacing: 2
BeatDivisor: 4
GridSize: 8

[Metadata]
Title:Binetsu kara Mystery
TitleUnicode:微熱からMystery
Artist:lily white
ArtistUnicode:lily white
Creator:-Kanna3-
Version:Insane
Source:Love Live! School idol project
Tags:anime love live lily white μ's sonoda umi mimori suzuko hoshizora rin iida riho toujou nozomi kusuda aina
BeatmapID:291556
BeatmapSetID:112211

[Difficulty]
HPDrainRate:6
CircleSize:4
OverallDifficulty:7
ApproachRate:8
SliderMultiplier:1.6
SliderTickRate:2

[Events]
//Background and Video events
0,0,"BG.jpg",0,0
//Break Periods
2,70717,81279
2,134554,145465
//Storyboard Layer 0 (Background)
//Storyboard Layer 1 (Fail)
//Storyboard Layer 2 (Pass)
//Storyboard Layer 3 (Foreground)
//Storyboard Sound Samples
//Background Colour Transformations
3,100,163,162,255

[TimingPoints]
750,348.837209302326,4,2,0,50,1,0
1098,-100,4,2,0,70,0,0
5982,-66.6666666666667,4,2,0,70,0,0
9470,-133.333333333333,4,2,0,70,0,0
15575,-66.6666666666667,4,2,0,70,0,0
28482,-133.333333333333,4,2,0,70,0,0
44703,-66.6666666666667,4,2,0,70,0,0
45750,-66.6666666666667,4,2,0,70,0,1
45750,-66.6666666666667,4,2,0,70,0,0
45750,-66.6666666666667,4,2,0,70,0,0
49761,-133.333333333333,4,2,0,70,0,1
49761,-133.333333333333,4,2,0,70,0,1
50633,-66.6666666666667,4,2,0,70,0,1
65284,-133.333333333333,4,2,0,70,0,1
65284,-133.333333333333,4,2,0,70,0,1
70517,-133.333333333333,4,2,0,70,0,0
82029,-100,4,2,0,70,0,0
87610,-66.6666666666667,4,2,0,70,0,0
92668,-133.333333333333,4,2,0,70,0,0
96854,-66.6666666666667,4,2,0,70,0,0
98250,-133.333333333333,4,2,0,70,0,0
104354,-100,4,2,0,70,0,0
109936,-100,4,2,0,70,0,1
118133,-66.6666666666667,4,2,0,70,0,1
119877,-133.333333333333,4,2,0,70,0,1
120401,-66.6666666666667,4,2,0,70,0,1
126505,-133.333333333333,4,2,0,70,0,1
132087,-66.6666666666667,4,2,0,70,0,1
132784,-133.333333333333,4,2,0,70,0,1
132784,-133.333333333333,4,2,0,70,0,1
158250,-133.333333333333,4,2,0,70,0,1
159470,-66.6666666666667,4,2,0,70,0,1
168017,-133.333333333333,4,2,0,70,0,1
170110,-66.6666666666667,4,2,0,70,0,1
170982,-133.333333333333,4,2,0,70,0,1
171854,-66.6666666666667,4,2,0,70,0,1
175343,-133.333333333333,4,2,0,70,0,1
180401,-133.333333333333,4,2,0,70,0,0
194005,-133.333333333333,4,2,0,50,0,0
194354,-133.333333333333,4,2,0,35,0,0
194703,-133.333333333333,4,2,0,20,0,0
195052,-133.333333333333,4,2,0,5,0,0

[Colours]
Combo1 : 189,0,189
Combo2 : 0,0,255
Combo3 : 135,248,231

[HitObjects]
128,144,1098,6,0,P|136:192|160:224,3,80
208,256,1796,1,0,0:0:0:0:
272,272,1970,1,0,0:0:0:0:
336,256,2145,1,0,0:0:0:0:
384,216,2319,5,0,0:0:0:0:
288,88,2668,1,0,0:0:0:0:
384,216,3017,1,0,0:0:0:0:
392,56,3191,1,0,0:0:0:0:
384,216,3366,1,0,0:0:0:0:
496,104,3540,5,0,0:0:0:0:
64,240,3889,2,0,L|88:160,1,80
192,216,4238,2,0,L|216:136,1,80
320,184,4587,2,0,L|344:104,1,80
448,152,4936,2,0,L|472:72,1,80
416,288,5459,1,0,0:0:0:0:
296,336,5808,5,0,0:0:0:0:
184,280,5982,2,0,P|144:232|88:224,1,120.000004577637
0,248,6331,5,0,0:0:0:0:
96,104,6680,2,0,B|168:104|184:88|184:88|184:120|184:120|200:88|200:88|200:120|200:120|216:88|216:88|248:104,1,240.000009155274
288,160,7203,1,0,0:0:0:0:
376,40,7552,1,0,0:0:0:0:
416,104,7901,2,0,B|456:144|456:144|408:184|408:184|456:232|456:232|416:272,1,240.000009155274
264,336,8424,5,0,0:0:0:0:
408,336,8773,1,0,0:0:0:0:
264,336,8947,1,0,0:0:0:0:
408,336,9122,1,0,0:0:0:0:
120,336,9470,2,0,B|104:320|104:320|104:296|104:296|80:320|80:320|80:296|80:296|64:280,1,120.000004577637
72,216,9994,6,0,B|88:200|88:200|112:200|112:200|88:176|88:176|112:176|112:176|128:160,1,120.000004577637
232,72,10691,1,0,0:0:0:0:
416,24,11040,1,0,0:0:0:0:
496,192,11389,1,0,0:0:0:0:
432,248,11563,5,0,0:0:0:0:
384,232,11651,1,0,0:0:0:0:
336,224,11738,1,0,0:0:0:0:
288,232,11825,1,0,0:0:0:0:
248,256,11912,1,0,0:0:0:0:
256,80,12261,2,0,L|256:112,4,30.0000011444092
256,296,12784,2,0,L|256:264,4,30.0000011444092
256,192,13308,12,0,14354,0:0:0:0:
256,192,14703,5,0,0:0:0:0:
344,80,15052,1,0,0:0:0:0:
344,80,15139,1,0,0:0:0:0:
344,80,15226,1,0,0:0:0:0:
376,104,15313,1,0,0:0:0:0:
392,136,15401,1,0,0:0:0:0:
128,248,15575,2,0,P|136:280|168:304,4,60.0000022888184
256,192,16273,12,0,17145,0:0:0:0:
208,224,17494,5,0,0:0:0:0:
360,56,17843,2,0,P|352:104|392:160,1,120.000004577637
160,136,18191,2,0,P|136:200|72:216,1,120.000004577637
304,264,18540,2,0,P|360:304|432:288,1,120.000004577637
200,304,18889,2,0,B|160:368|80:368|16:320|24:248,1,240.000009155274
56,176,19412,5,0,0:0:0:0:
224,88,19587,1,0,0:0:0:0:
56,176,19761,1,0,0:0:0:0:
224,88,19936,1,0,0:0:0:0:
200,304,20110,1,0,0:0:0:0:
200,304,20284,2,0,B|240:360|320:376|384:336|400:264,1,240.000009155274
432,192,20808,5,0,0:0:0:0:
384,112,20982,1,0,0:0:0:0:
352,240,21156,1,0,0:0:0:0:
304,160,21331,5,0,0:0:0:0:
200,248,21505,1,0,0:0:0:0:
240,48,21680,1,0,0:0:0:0:
112,72,22029,2,0,P|72:112|80:176,4,120.000004577637
160,144,22901,5,0,0:0:0:0:
160,144,23075,1,0,0:0:0:0:
248,256,23424,6,0,B|256:256|256:256|264:240|264:240|264:272|264:272|272:240|272:240|272:272|272:272|280:256|280:256|400:256,1,240.000009155274
379,256,23947,1,0,0:0:0:0:
379,256,24122,1,0,0:0:0:0:
504,112,24470,1,0,0:0:0:0:
504,112,24645,1,0,0:0:0:0:
504,112,24819,2,0,P|432:24|296:40,1,240.000009155274
314,28,25343,6,0,P|368:72|360:136,1,120.000004577637
314,28,25691,2,0,P|280:88|216:80,1,120.000004577637
248,16,26040,5,0,0:0:0:0:
160,64,26215,1,0,0:0:0:0:
208,144,26389,1,0,0:0:0:0:
296,104,26563,1,0,0:0:0:0:
200,96,26738,5,0,0:0:0:0:
104,112,26912,1,0,0:0:0:0:
120,208,27087,1,0,0:0:0:0:
216,192,27261,1,0,0:0:0:0:
88,129,27436,5,0,0:0:0:0:
112,168,27523,1,0,0:0:0:0:
152,192,27610,1,0,0:0:0:0:
200,200,27697,1,0,0:0:0:0:
248,192,27784,1,0,0:0:0:0:
288,168,27872,1,0,0:0:0:0:
336,160,27959,1,0,0:0:0:0:
384,168,28046,1,0,0:0:0:0:
424,192,28133,1,0,0:0:0:0:
320,312,28482,5,0,0:0:0:0:
216,336,28656,1,0,0:0:0:0:
112,304,28831,1,0,0:0:0:0:
48,216,29005,1,0,0:0:0:0:
192,224,29180,1,0,0:0:0:0:
280,160,29354,1,0,0:0:0:0:
384,176,29529,2,0,P|408:208|440:216,1,60.0000022888184
488,120,29877,21,0,0:0:0:0:
424,32,30052,1,0,0:0:0:0:
368,128,30226,1,0,0:0:0:0:
488,120,30401,1,0,0:0:0:0:
424,32,30575,1,0,0:0:0:0:
368,128,30750,1,0,0:0:0:0:
288,56,30924,2,0,P|264:56|232:80,1,60.0000022888184
264,176,31273,6,0,P|240:200|208:200,1,60.0000022888184,0|0,0:0|0:0,0:0:0:0:
215,202,31622,1,0,0:0:0:0:
136,120,31796,1,0,0:0:0:0:
56,40,31970,1,0,0:0:0:0:
136,120,32145,1,0,0:0:0:0:
56,40,32319,1,0,0:0:0:0:
40,152,32668,5,0,0:0:0:0:
0,208,32843,1,0,0:0:0:0:
40,264,33017,1,0,0:0:0:0:
80,208,33191,2,0,P|112:224|120:264,1,60.0000022888184
64,320,33540,2,0,B|104:352|160:344|192:304,1,120.000004577637
176,232,34063,6,0,B|216:184|216:184|256:232,1,120.000004577637
276,255,34587,1,0,0:0:0:0:
297,283,34761,2,0,P|319:310|350:322,1,60.0000022888184
375,331,35110,1,0,0:0:0:0:
470,223,35459,5,0,0:0:0:0:
445,80,35808,1,0,0:0:0:0:
305,47,36156,1,0,0:0:0:0:
305,47,36331,1,0,0:0:0:0:
305,47,36505,1,0,0:0:0:0:
343,185,36854,5,0,0:0:0:0:
276,115,37029,1,0,0:0:0:0:
210,184,37203,1,0,0:0:0:0:
276,252,37377,1,0,0:0:0:0:
88,256,37726,5,0,0:0:0:0:
152,56,38075,1,0,0:0:0:0:
320,152,38250,1,0,0:0:0:0:
184,256,38598,2,0,B|224:304|288:336|352:336|408:304|448:256,1,300.000011444092
256,192,39819,5,0,0:0:0:0:
256,192,40168,5,0,0:0:0:0:
256,192,40866,5,0,0:0:0:0:
256,192,41563,5,0,0:0:0:0:
344,168,42087,5,0,0:0:0:0:
176,168,42261,1,0,0:0:0:0:
304,264,42436,1,0,0:0:0:0:
256,104,42610,1,0,0:0:0:0:
208,264,42784,1,0,0:0:0:0:
16,64,43133,5,0,0:0:0:0:
80,168,43308,1,0,0:0:0:0:
144,64,43482,1,0,0:0:0:0:
208,168,43656,1,0,0:0:0:0:
496,64,43831,1,0,0:0:0:0:
432,168,44005,1,0,0:0:0:0:
368,64,44180,1,0,0:0:0:0:
304,168,44354,1,0,0:0:0:0:
456,344,44703,5,0,0:0:0:0:
56,344,45052,1,0,0:0:0:0:
256,32,45401,1,0,0:0:0:0:
152,136,45750,6,0,P|176:200|240:208,1,120.000004577637
360,248,46098,2,0,P|336:184|272:176,1,120.000004577637,0|0,0:0|0:0,0:0:0:0:
216,208,46447,1,0,0:0:0:0:
136,240,46622,1,0,0:0:0:0:
256,88,46796,1,0,0:0:0:0:
336,56,46970,1,0,0:0:0:0:
408,104,47145,5,0,0:0:0:0:
408,104,47232,1,0,0:0:0:0:
408,104,47319,2,0,B|392:176|456:160|448:240,1,120.000004577637
448,216,47668,1,0,0:0:0:0:
392,320,48017,5,0,0:0:0:0:
264,264,48191,1,0,0:0:0:0:
144,344,48366,1,0,0:0:0:0:
24,272,48540,1,0,0:0:0:0:
144,192,48715,1,0,0:0:0:0:
24,112,48889,1,0,0:0:0:0:
24,272,49063,1,0,0:0:0:0:
144,192,49238,1,0,0:0:0:0:
24,112,49412,1,0,0:0:0:0:
24,272,49587,1,0,0:0:0:0:
144,192,49761,6,0,B|128:192|128:192|152:168|152:168|120:184|120:184|144:160|120:176|120:176|104:104|152:48,1,240.000009155274
176,40,50546,1,0,0:0:0:0:
208,40,50633,2,0,B|256:32|264:96|328:56,1,120.000004577637
376,24,50982,1,0,0:0:0:0:
376,24,51156,1,0,0:0:0:0:
456,104,51505,5,0,0:0:0:0:
416,200,51854,1,0,0:0:0:0:
288,184,52029,1,0,0:0:0:0:
392,320,52203,1,0,0:0:0:0:
288,184,52377,1,0,0:0:0:0:
392,320,52552,1,0,0:0:0:0:
216,304,52901,6,0,B|136:288|136:288|104:240,1,120.000004577637
384,192,53250,2,0,B|392:144|392:144|464:104,1,120.000004577637
208,136,53598,2,0,B|136:96|136:96|96:112,1,120.000004577637
24,232,53947,5,0,0:0:0:0:
112,344,54122,1,0,0:0:0:0:
248,304,54296,1,0,0:0:0:0:
240,160,54470,1,0,0:0:0:0:
104,120,54645,1,0,0:0:0:0:
24,232,54819,5,0,0:0:0:0:
56,256,54906,1,0,0:0:0:0:
96,264,54994,1,0,0:0:0:0:
128,256,55081,1,0,0:0:0:0:
160,232,55168,1,0,0:0:0:0:
96,160,55343,1,0,0:0:0:0:
40,88,55691,6,0,P|96:64|152:88,2,120.000004577637
96,160,56215,5,0,0:0:0:0:
128,176,56302,1,0,0:0:0:0:
160,184,56389,1,0,0:0:0:0:
224,176,56563,1,0,0:0:0:0:
256,152,56651,1,0,0:0:0:0:
280,120,56738,1,0,0:0:0:0:
392,48,56912,6,0,P|456:48|488:88,1,120.000004577637
512,168,57261,2,0,P|448:168|416:128,1,120.000004577637
488,88,57610,1,0,0:0:0:0:
416,128,57784,1,0,0:0:0:0:
344,168,57959,1,0,0:0:0:0:
344,168,58133,6,0,L|224:232,1,120.000004577637
184,192,58482,1,0,0:0:0:0:
184,256,58656,1,0,0:0:0:0:
240,288,58831,1,0,0:0:0:0:
344,168,59180,5,0,0:0:0:0:
344,168,59267,1,0,0:0:0:0:
344,168,59354,2,0,L|440:272,2,120.000004577637
328,256,59877,2,0,L|232:152,2,120.000004577637
312,344,60401,1,0,0:0:0:0:
136,289,60575,1,0,0:0:0:0:
126,108,60750,1,0,0:0:0:0:
295,42,60924,1,0,0:0:0:0:
295,42,61273,1,0,0:0:0:0:
295,42,61622,5,0,0:0:0:0:
304,232,61796,1,0,0:0:0:0:
184,80,61970,1,0,0:0:0:0:
368,136,62145,1,0,0:0:0:0:
192,200,62319,1,0,0:0:0:0:
192,200,62668,1,0,0:0:0:0:
192,200,63017,5,0,0:0:0:0:
295,42,63191,1,0,0:0:0:0:
304,232,63366,1,0,0:0:0:0:
184,80,63540,1,0,0:0:0:0:
368,136,63715,1,0,0:0:0:0:
368,136,64063,1,0,0:0:0:0:
368,136,64412,1,0,0:0:0:0:
368,136,65110,5,0,0:0:0:0:
340,159,65284,2,0,L|244:239,1,120.000004577637
247,199,65808,1,0,0:0:0:0:
247,163,65982,2,0,L|143:251,1,120.000004577637
155,204,66505,1,0,0:0:0:0:
155,167,66680,2,0,L|56:246,1,120.000004577637
61,205,67203,1,0,0:0:0:0:
61,169,67377,2,0,L|158:91,1,120.000004577637
272,72,67901,5,0,0:0:0:0:
384,120,68075,1,0,0:0:0:0:
296,200,68250,1,0,0:0:0:0:
408,248,68424,1,0,0:0:0:0:
184,248,68598,5,0,0:0:0:0:
184,248,68947,1,0,0:0:0:0:
256,72,69122,1,0,0:0:0:0:
384,232,69296,1,0,0:0:0:0:
232,216,69645,5,0,0:0:0:0:
264,144,69819,1,0,0:0:0:0:
256,192,69994,12,0,70517,0:0:0:0:
256,256,82029,22,0,P|320:304|400:320,1,160
256,136,82726,2,0,P|192:88|114:71,1,160
48,144,83424,1,0,0:0:0:0:
72,240,83773,2,0,P|104:280|136:288,1,80
168,256,84122,1,0,0:0:0:0:
192,216,84296,2,0,P|232:216|264:240,1,80
304,328,84819,1,0,0:0:0:0:
392,288,85168,1,0,0:0:0:0:
432,200,85517,1,0,0:0:0:0:
408,104,85866,1,0,0:0:0:0:
304,328,86215,6,0,B|248:256|160:296,1,160
20,164,86912,1,0,0:0:0:0:
47,203,87000,1,0,0:0:0:0:
85,231,87087,1,0,0:0:0:0:
132,233,87174,1,0,0:0:0:0:
178,220,87261,1,0,0:0:0:0:
192,112,87610,5,0,0:0:0:0:
328,72,87784,1,0,0:0:0:0:
288,208,87959,1,0,0:0:0:0:
424,168,88133,1,0,0:0:0:0:
424,168,88308,1,0,0:0:0:0:
288,208,88482,1,0,0:0:0:0:
328,72,88656,1,0,0:0:0:0:
192,112,88831,1,0,0:0:0:0:
192,112,89005,1,0,0:0:0:0:
56,160,89354,6,0,P|27:105|-40:64,1,120.000004577637
8,224,89703,2,0,P|26:277|96:312,1,120.000004577637
138,350,90052,1,0,0:0:0:0:
150,279,90226,2,0,P|180:219|238:191,1,120.000004577637
275,245,90575,1,0,0:0:0:0:
330,199,90750,1,0,0:0:0:0:
401,197,90924,1,0,0:0:0:0:
455,243,91098,1,0,0:0:0:0:
273,151,91273,1,0,0:0:0:0:
330,199,91447,1,0,0:0:0:0:
401,197,91622,1,0,0:0:0:0:
445,143,91796,1,0,0:0:0:0:
248,344,92668,5,0,0:0:0:0:
248,344,92843,1,0,0:0:0:0:
248,344,93017,1,0,0:0:0:0:
248,344,93191,2,0,P|224:320|208:288,1,60.0000022888184
240,216,93540,2,0,P|264:240|280:272,1,60.0000022888184
24,88,94063,21,0,0:0:0:0:
80,144,94238,1,0,0:0:0:0:
104,72,94412,1,0,0:0:0:0:
0,80,94587,1,0,0:0:0:0:
88,176,94761,1,0,0:0:0:0:
128,56,94936,1,0,0:0:0:0:
72,104,95110,1,0,0:0:0:0:
248,344,95459,5,0,0:0:0:0:
202,288,95633,2,0,L|261:272,1,60.0000022888184
248,344,95982,1,0,0:0:0:0:
281,267,96156,2,0,L|209:286,1,60.0000022888184
248,344,96505,1,0,0:0:0:0:
416,96,96854,6,0,B|416:56|360:0|336:56|280:96|304:168|392:184|336:240|416:240|440:272|440:272|464:240|544:240|488:184|576:168|608:96|544:56|520:0|464:56|464:96,1,720.000027465821
128,304,98250,6,0,P|104:328|72:328,1,60.0000022888184
72,248,98598,2,0,P|40:248|8:232,1,60.0000022888184
64,168,98947,2,0,P|40:144|32:112,1,60.0000022888184
112,104,99296,2,0,P|139:49|192:32,1,120.000004577637
192,112,99819,5,0,0:0:0:0:
272,80,99994,1,0,0:0:0:0:
352,112,100168,1,0,0:0:0:0:
400,184,100343,1,0,0:0:0:0:
384,264,100517,2,0,P|368:288|336:304,1,60.0000022888184
80,280,101040,5,0,0:0:0:0:
112,312,101127,1,0,0:0:0:0:
152,328,101215,2,0,B|168:328|168:328|184:360|232:360|256:352|256:352|272:352,1,120.000004577637
464,272,101912,1,0,0:0:0:0:
288,216,102261,1,0,0:0:0:0:
152,328,102436,1,0,0:0:0:0:
256,192,102784,12,0,104005,0:0:0:0:
256,192,104354,5,0,0:0:0:0:
256,192,105052,1,0,0:0:0:0:
256,192,105750,1,0,0:0:0:0:
256,96,106273,5,0,0:0:0:0:
347,162,106447,1,0,0:0:0:0:
312,269,106622,1,0,0:0:0:0:
199,269,106796,1,0,0:0:0:0:
164,162,106970,1,0,0:0:0:0:
208,40,107319,6,0,L|256:32,3,40
288,40,107668,2,0,L|336:64,3,40
352,88,108017,1,0,0:0:0:0:
368,120,108104,1,0,0:0:0:0:
376,160,108191,1,0,0:0:0:0:
368,200,108279,1,0,0:0:0:0:
352,232,108366,2,0,L|320:272,2,40
40,192,108889,5,0,0:0:0:0:
472,192,109238,1,0,0:0:0:0:
256,192,109587,1,0,0:0:0:0:
160,280,109936,5,0,0:0:0:0:
128,272,110023,1,0,0:0:0:0:
104,248,110110,1,0,0:0:0:0:
352,280,110284,2,0,P|392:272|424:248,1,80
192,184,110808,5,0,0:0:0:0:
128,120,110982,1,0,0:0:0:0:
32,112,111156,1,0,0:0:0:0:
256,56,111331,1,0,0:0:0:0:
320,128,111505,1,0,0:0:0:0:
416,128,111680,1,0,0:0:0:0:
480,56,111854,1,0,0:0:0:0:
480,264,112203,6,0,P|480:216|464:176,1,80
376,152,112552,2,0,P|376:192|392:232,1,80
288,264,112901,1,0,0:0:0:0:
192,152,113075,1,0,0:0:0:0:
96,264,113250,2,0,P|96:224|80:176,1,80
24,40,113598,2,0,P|23:79|35:118,1,80
85,187,113947,1,0,0:0:0:0:
35,118,114296,1,0,0:0:0:0:
160,64,114645,5,0,0:0:0:0:
208,48,114732,1,0,0:0:0:0:
256,48,114819,2,0,B|272:48|272:48|288:72|296:56|312:80|312:80|328:80,1,80
360,104,115081,1,0,0:0:0:0:
392,136,115168,2,0,B|400:152|400:152|384:168|392:176|376:192|376:192|376:208,1,80
256,192,115691,1,0,0:0:0:0:
176,320,116040,5,0,0:0:0:0:
176,320,116215,1,0,0:0:0:0:
80,296,116389,1,0,0:0:0:0:
80,296,116563,1,0,0:0:0:0:
72,200,116738,1,0,0:0:0:0:
256,192,117087,1,0,0:0:0:0:
72,200,117436,1,0,0:0:0:0:
208,40,118133,6,0,P|152:64|120:120,4,120.000004577637
224,136,119005,5,0,0:0:0:0:
320,72,119180,1,0,0:0:0:0:
320,72,119267,1,0,0:0:0:0:
320,72,119354,2,0,B|344:88|344:88|336:144|392:168,1,120.000004577637
440,256,119877,2,0,L|440:320,2,60.0000022888184
328,256,120401,2,0,L|264:256,2,60.0000022888184
368,344,120750,5,0,0:0:0:0:
328,344,120837,1,0,0:0:0:0:
296,344,120924,1,0,0:0:0:0:
264,336,121011,1,0,0:0:0:0:
232,320,121098,5,0,0:0:0:0:
112,328,121273,1,0,0:0:0:0:
64,216,121447,1,0,0:0:0:0:
168,152,121622,2,0,B|160:128|160:128|112:104|120:32,1,120.000004577637
256,32,121970,1,0,0:0:0:0:
344,152,122145,2,0,B|352:128|352:128|400:104|392:32,1,120.000004577637
168,152,122494,5,0,0:0:0:0:
256,32,122668,1,0,0:0:0:0:
344,152,122843,1,0,0:0:0:0:
256,280,123017,1,0,0:0:0:0:
64,272,123366,6,0,P|128:272|168:312,1,120.000004577637
448,272,123715,2,0,P|384:272|344:312,1,120.000004577637
64,112,124063,2,0,P|122:114|166:75,1,120.000004577637
447,112,124412,2,0,P|389:114|345:75,1,120.000004577637
256,192,124761,1,0,0:0:0:0:
256,192,124936,1,0,0:0:0:0:
256,192,125110,1,0,0:0:0:0:
256,192,125459,5,0,0:0:0:0:
80,96,125808,1,0,0:0:0:0:
192,48,125982,2,0,P|248:88|304:88,1,120.000004577637
408,48,126331,1,0,0:0:0:0:
472,152,126505,2,0,B|472:160|472:160|488:168|488:168|456:168|456:168|488:176|488:176|456:176|456:176|488:184|488:184|456:184|456:184|488:192|488:192|472:208,1,240.000009155274
408,304,127377,1,0,0:0:0:0:
288,328,127552,1,0,0:0:0:0:
176,296,127726,1,0,0:0:0:0:
96,208,127901,1,0,0:0:0:0:
144,96,128250,2,0,B|168:72|168:72|224:88|256:48,2,120.000004577637
312,88,129296,5,0,0:0:0:0:
232,136,129470,2,0,P|280:176|336:176,1,120.000004577637
336,176,129994,1,0,0:0:0:0:
424,152,130168,2,0,P|416:216|376:256,1,120.000004577637
378,254,130691,1,0,0:0:0:0:
352,344,130866,2,0,P|304:312|288:248,1,120.000004577637
336,176,131389,1,0,0:0:0:0:
378,254,131563,1,0,0:0:0:0:
200,280,132087,6,0,B|192:248|192:248|152:224|144:176,1,120.000004577637
264,152,132436,1,0,0:0:0:0:
264,152,132610,1,0,0:0:0:0:
312,40,132784,2,0,B|360:56|376:104|376:104|408:120,1,120.000004577637
440,160,133308,1,0,0:0:0:0:
432,216,133482,2,0,P|416:272|432:336,1,120.000004577637
488,280,134005,1,0,0:0:0:0:
312,40,134354,1,0,0:0:0:0:
240,296,146215,21,0,0:0:0:0:
240,296,146912,1,0,0:0:0:0:
240,296,147610,1,0,0:0:0:0:
184,184,148133,2,0,P|216:168|248:176,4,60.0000022888184
80,80,149529,21,0,0:0:0:0:
80,80,149703,1,0,0:0:0:0:
80,80,149877,1,0,0:0:0:0:
48,136,150052,1,0,0:0:0:0:
112,136,150226,2,0,B|88:168|88:168|112:208|88:256,1,120.000004577637
248,336,150924,5,0,0:0:0:0:
200,296,151098,1,0,0:0:0:0:
208,240,151273,1,0,0:0:0:0:
264,216,151447,1,0,0:0:0:0:
312,256,151622,2,0,B|320:296|320:296|376:288|392:328,1,120.000004577637
512,352,152319,22,0,B|448:336,1,60.0000022888184
400,224,152668,2,0,B|336:208,1,60.0000022888184
256,192,153017,12,0,154587,0:0:0:0:
368,40,155982,21,0,0:0:0:0:
440,136,156156,1,0,0:0:0:0:
376,240,156331,1,0,0:0:0:0:
456,328,156505,1,0,0:0:0:0:
56,328,157377,1,0,0:0:0:0:
136,240,157552,1,0,0:0:0:0:
72,136,157726,1,0,0:0:0:0:
144,40,157901,1,0,0:0:0:0:
256,304,158250,2,0,L|256:176,1,120.000004577637
160,184,158773,5,0,0:0:0:0:
208,104,158947,1,0,0:0:0:0:
304,104,159122,1,0,0:0:0:0:
352,184,159296,1,0,0:0:0:0:
256,184,159470,2,0,L|256:304,3,120.000004577637
256,304,160343,1,0,0:0:0:0:
352,304,160691,5,0,0:0:0:0:
168,248,160866,1,0,0:0:0:0:
352,192,161040,1,0,0:0:0:0:
168,136,161215,1,0,0:0:0:0:
352,80,161389,1,8,0:0:0:0:
272,24,161738,1,0,0:0:0:0:
168,24,162087,2,0,P|112:40|72:88,1,120.000004577637
208,120,162436,2,0,P|184:168|208:232,1,120.000004577637
304,120,162784,2,0,P|328:168|304:232,1,120.000004577637
344,24,163133,2,0,P|400:40|440:88,1,120.000004577637
256,64,163482,2,0,L|256:0,6,60.0000022888184
256,168,164180,5,0,0:0:0:0:
288,224,164354,1,0,0:0:0:0:
224,224,164529,1,0,0:0:0:0:
256,280,164703,1,0,0:0:0:0:
160,192,164877,1,0,0:0:0:0:
352,192,165052,1,0,0:0:0:0:
192,296,165226,1,0,0:0:0:0:
256,112,165401,1,0,0:0:0:0:
320,296,165575,1,0,0:0:0:0:
200,184,165924,6,0,P|256:208|312:184,2,120.000004577637
256,112,166447,1,0,0:0:0:0:
256,112,166534,1,0,0:0:0:0:
256,112,166622,1,0,0:0:0:0:
176,64,166796,5,0,0:0:0:0:
208,24,166883,1,0,0:0:0:0:
256,8,166970,1,0,0:0:0:0:
304,24,167058,1,0,0:0:0:0:
336,64,167145,1,0,0:0:0:0:
432,64,167319,1,0,0:0:0:0:
504,64,167494,1,0,0:0:0:0:
472,128,167668,1,0,0:0:0:0:
472,272,168017,6,0,L|512:304,2,30.0000011444092
408,304,168366,2,0,L|336:256,1,60.0000022888184
288,272,168715,1,0,0:0:0:0:
216,312,168889,1,0,0:0:0:0:
144,272,169063,1,0,0:0:0:0:
64,152,169412,5,0,0:0:0:0:
64,152,169500,1,0,0:0:0:0:
64,152,169587,2,0,B|64:176|72:200|72:200|32:248|48:280,1,120.000004577637
144,152,170110,2,0,B|144:128|128:112|128:112|176:80|144:16,1,120.000004577637
224,152,170459,2,0,B|203:185|251:217|251:217|235:233|235:257,1,120.000004577637
224,72,170808,1,0,0:0:0:0:
256,48,170895,1,0,0:0:0:0:
296,56,170982,2,0,B|328:56|328:56|344:104|392:128|456:120,1,180.000006866455
168,248,171854,5,0,0:0:0:0:
359,200,172029,1,0,0:0:0:0:
176,128,172203,1,0,0:0:0:0:
280,293,172377,1,0,0:0:0:0:
296,96,172552,1,0,0:0:0:0:
296,96,172901,5,0,0:0:0:0:
416,40,173250,1,0,0:0:0:0:
456,96,173337,1,0,0:0:0:0:
432,160,173424,5,0,0:0:0:0:
368,184,173511,1,0,0:0:0:0:
344,248,173598,5,0,0:0:0:0:
400,352,173773,1,0,0:0:0:0:
296,352,173947,1,0,0:0:0:0:
40,200,174296,1,0,0:0:0:0:
288,56,174645,1,0,0:0:0:0:
176,104,175343,5,0,0:0:0:0:
176,104,175517,2,0,L|240:104,1,60.0000022888184
304,160,175866,1,0,0:0:0:0:
304,160,175953,1,0,0:0:0:0:
304,160,176040,2,0,P|288:200|256:208,1,60.0000022888184
192,208,176389,1,0,0:0:0:0:
192,208,176563,2,0,L|120:208,1,60.0000022888184
104,232,176825,1,0,0:0:0:0:
80,264,176912,2,0,B|96:304|176:304|176:304|200:320,1,120.000004577637
240,352,177436,2,0,P|272:368|312:352,1,60.0000022888184
328,304,177784,1,0,0:0:0:0:
384,344,177959,1,0,0:0:0:0:
448,256,178133,6,0,L|480:184,1,60.0000022888184
432,96,178482,1,0,0:0:0:0:
328,56,178656,1,0,0:0:0:0:
224,88,178831,1,0,0:0:0:0:
72,64,179180,2,0,L|48:120,1,60.0000022888184
40,224,179529,2,0,B|48:248|48:248|112:240|152:272,1,120.000004577637
248,288,180052,1,0,0:0:0:0:
376,112,180401,1,0,0:0:0:0:
456,256,181098,6,0,B|448:280|448:280|392:232|352:256,1,120.000004577637
304,160,181622,2,0,B|333:179|389:131|389:131|397:155,1,120.000004577637
208,256,182319,1,0,0:0:0:0:
8,328,182668,2,0,B|16:320|16:320|8:280|24:264,1,60.0000022888184
24,128,183191,1,0,0:0:0:0:
56,80,183279,1,0,0:0:0:0:
104,56,183366,1,0,0:0:0:0:
152,80,183453,1,0,0:0:0:0:
184,128,183540,1,0,0:0:0:0:
152,344,183889,6,0,B|160:320|160:320|224:336|264:296,1,120.000004577637
462,313,184412,2,0,P|410:342|352:352,1,120.000004577637
320,288,184936,1,0,0:0:0:0:
320,288,185110,1,0,0:0:0:0:
192,224,185459,2,0,B|224:208|224:208|232:136|296:152,1,120.000004577637
304,216,185982,1,0,0:0:0:0:
352,200,186069,1,0,0:0:0:0:
392,168,186156,1,0,0:0:0:0:
416,128,186244,1,0,0:0:0:0:
464,112,186331,1,0,0:0:0:0:
168,112,186680,6,0,L|232:112,1,60.0000022888184
336,176,187029,1,0,0:0:0:0:
224,240,187203,2,0,L|160:240,1,60.0000022888184
64,176,187552,1,0,0:0:0:0:
56,48,187901,2,0,B|88:64|88:64|120:24|184:32,1,120.000004577637
240,120,188424,1,0,0:0:0:0:
480,104,188773,2,0,P|472:72|448:56,2,60.0000022888184
328,288,189470,6,0,P|312:304|288:304,5,30.0000011444092
248,288,189994,2,0,P|232:280|208:288,6,30.0000011444092
96,312,190691,5,0,0:0:0:0:
24,80,191040,2,0,B|56:80|56:80|88:128|128:96|128:96|152:96,1,120.000004577637
248,80,191563,1,0,0:0:0:0:
248,80,191651,1,0,0:0:0:0:
248,80,191738,1,0,0:0:0:0:
248,80,191825,1,0,0:0:0:0:
248,80,191912,1,0,0:0:0:0:
456,192,192261,5,0,0:0:0:0:
384,288,192436,1,0,0:0:0:0:
264,312,192610,1,0,0:0:0:0:
152,272,192784,1,0,0:0:0:0:
272,64,193133,1,0,0:0:0:0:
72,200,193482,1,0,0:0:0:0:
256,192,193569,12,0,196098,0:0:0:0:
