osu file format v13

[General]
AudioFilename: [SDVX II ] Paradoxy [NOFX].mp3
AudioLeadIn: 0
PreviewTime: 8647
Countdown: 0
SampleSet: None
StackLeniency: 0.2
Mode: 0
LetterboxInBreaks: 0
WidescreenStoryboard: 1

[Editor]
DistanceSpacing: 1
BeatDivisor: 4
GridSize: 4
TimelineZoom: 3.300005

[Metadata]
Title:Paradoxy
TitleUnicode:Paradoxy
Artist:lapix
ArtistUnicode:lapix
Creator:Akali
Version:seXXXtra AR9,7
Source:SDVX II
Tags:
BeatmapID:529870
BeatmapSetID:225677

[Difficulty]
HPDrainRate:5
CircleSize:4
OverallDifficulty:7.5
ApproachRate:9.7
SliderMultiplier:2.5
SliderTickRate:1

[Events]
//Background and Video events
0,0,"oz.jpg",0,0
//Break Periods
//Storyboard Layer 0 (Background)
//Storyboard Layer 1 (Fail)
//Storyboard Layer 2 (Pass)
//Storyboard Layer 3 (Foreground)
//Storyboard Sound Samples
//Background Colour Transformations
3,100,163,162,255

[TimingPoints]
372,413.793103448276,4,1,0,5,1,0
2027,-100,4,2,0,30,0,0
5337,-133.333333333333,4,2,0,30,0,0
6785,-100,4,1,0,72,0,0
8647,-76.9230769230769,4,1,0,72,0,0
11440,-62.5,4,1,0,72,0,0
11958,-76.9230769230769,4,1,0,72,0,0
13613,-100,4,1,0,72,0,0
14854,-76.9230769230769,4,1,0,72,0,0
26854,-100,4,1,0,72,0,0
28509,-76.9230769230769,4,1,0,72,0,0
31820,-62.5,4,1,0,72,0,0
33268,-100,4,1,0,72,0,0
34509,-62.5,4,1,0,72,0,0
35130,-76.9230769230769,4,1,0,72,0,0
36578,-62.5,4,1,0,72,0,0
36785,-100,4,1,0,72,0,0
37613,-76.9230769230769,4,1,0,72,0,0
40096,-133.333333333333,4,1,0,72,0,0
40509,-62.5,4,1,0,72,0,0
40923,-76.9230769230769,4,1,0,72,0,0
41751,-62.5,4,1,0,72,0,0
41958,-50,4,1,0,72,0,0
42165,-76.9230769230769,4,1,0,72,0,0
45061,-62.5,4,1,0,72,0,0
46303,-76.9230769230769,4,1,0,72,0,0
46509,-100,4,1,0,72,0,0
47958,-62.5,4,1,0,72,0,0
48372,-76.9230769230769,4,1,0,72,0,0
49613,-62.5,4,1,0,72,0,0
50854,-76.9230769230769,4,1,0,72,0,0
51682,-62.5,4,1,0,72,0,0
53337,-100,4,1,0,72,0,0
53751,-76.9230769230769,4,1,0,72,0,0
54165,-62.5,4,1,0,72,0,0
54578,-50,4,1,0,72,0,0
54992,-76.9230769230769,4,1,0,72,0,0
56958,-100,4,1,0,72,0,0
58096,-62.5,4,1,0,72,0,0
58406,-100,4,2,0,44,0,0
63682,-133.333333333333,4,2,0,44,0,0
69889,-100,4,2,0,44,0,0
71544,-100,4,1,0,66,0,0
78992,-100,4,1,0,72,0,0
84785,-62.5,4,1,0,80,0,1
111268,-76.9230769230769,4,1,0,60,0,0
116544,-76.9230769230769,4,1,0,5,0,0

[Colours]
Combo1 : 255,0,128
Combo2 : 0,64,128
Combo3 : 255,0,0
Combo4 : 255,128,64

[HitObjects]
256,192,372,12,0,1820,0:0:0:0:
77,167,2027,6,0,L|97:249,3,62.5,2|0|0|0,0:0|0:0|0:0|0:0,0:0:0:0:
168,174,2440,2,0,L|182:113,3,62.5,2|0|0|0,0:0|0:0|0:0|0:0,0:0:0:0:
253,50,2854,2,0,L|313:35,3,62.5,2|0|0|0,0:0|0:0|0:0|0:0,0:0:0:0:
304,129,3268,2,0,L|364:143,3,62.5,2|0|0|0,0:0|0:0|0:0|0:0,0:0:0:0:
425,108,3682,6,0,B|366:142|366:142|467:212|467:212|415:242,1,250,4|0,0:0|0:0,0:0:0:0:
416,242,4303,1,0,0:0:0:0:
328,289,4509,2,0,B|254:325|254:325|210:263|210:263|203:287|176:306,1,187.5
196,288,4923,2,0,B|182:319|182:319|162:191,1,125
156,138,5337,6,0,B|181:319|181:319|239:205|327:225|381:128|300:59|173:64|194:201|256:207|269:185,1,562.500021457673
421,140,6785,5,0,0:0:0:0:
387,58,6889,1,0,0:0:0:0:
304,28,6992,6,0,L|152:44,1,125,12|0,0:0|0:0,0:0:0:0:
257,191,7303,2,0,L|409:175,1,125,12|0,0:0|0:0,0:0:0:0:
241,35,7613,6,0,L|89:51,1,125,12|0,0:0|0:0,0:0:0:0:
194,198,7924,2,0,L|346:182,1,125,12|0,0:0|0:0,0:0:0:0:
225,118,8234,5,8,0:0:0:0:
175,123,8337,1,8,0:0:0:0:
125,129,8440,1,8,0:0:0:0:
76,135,8544,1,8,0:0:0:0:
30,140,8647,6,0,L|45:264,1,81.2499962806703,0|0,0:0|0:0,0:0:0:0:
39,220,8854,2,0,L|54:344,1,81.2499962806703,0|0,0:0|0:0,0:0:0:0:
128,280,9061,2,0,L|143:404,1,81.2499962806703,0|0,0:0|0:0,0:0:0:0:
340,292,9372,6,0,B|308:310|308:310|258:312,1,81.2499962806703,0|2,0:0|0:0,0:0:0:0:
345,287,9682,2,0,B|314:307|314:307|264:311,1,81.2499962806703,0|2,0:0|0:0,0:0:0:0:
349,283,9992,1,0,0:0:0:0:
275,310,10096,1,0,0:0:0:0:
395,57,10303,5,12,0:0:0:0:
450,183,10509,2,0,L|438:284,1,81.2499962806703
454,164,10820,2,0,L|452:245,1,81.2499962806703,0|2,0:0|0:0,0:0:0:0:
458,145,11130,2,0,L|462:226,1,81.2499962806703,0|2,0:0|0:0,0:0:0:0:
360,214,11337,5,0,0:0:0:0:
360,214,11440,2,0,B|327:221|327:221|294:208|294:208|247:151,1,100,12|0,0:0|0:0,0:0:0:0:
403,28,11751,2,0,B|425:51|425:51|431:88|431:88|405:157,1,100,12|0,0:0|0:0,0:0:0:0:
360,214,11958,6,0,L|299:310,1,81.2499962806703,2|0,0:0|0:0,0:0:0:0:
234,278,12165,2,0,L|316:282,1,81.2499962806703,2|0,0:0|0:0,0:0:0:0:
234,278,12372,2,0,L|152:274,1,81.2499962806703,2|0,0:0|0:0,0:0:0:0:
38,247,12682,6,0,B|34:291|34:291|83:365,1,81.2499962806703,0|2,0:0|0:0,0:0:0:0:
170,117,12992,2,0,B|151:157|151:157|72:196,1,81.2499962806703,0|2,0:0|0:0,0:0:0:0:
43,265,13303,2,0,B|43:309|43:309|98:379,1,81.2499962806703,0|2,0:0|0:0,0:3:0:0:
238,365,13613,5,0,0:0:0:0:
454,277,13889,5,0,0:0:0:0:
450,101,14096,6,10,L|369:124,1,83.3333333333333
251,77,14337,6,10,L|310:59,1,62.5
255,173,14544,6,10,L|164:161,1,83.3333333333333
120,107,14751,6,0,L|96:123,2,20.8333333333333,0|0|0,0:0|0:0|0:0,0:0:0:0:
154,87,14854,6,0,P|178:40|121:72,1,162.499992561341
161,255,15268,5,12,0:0:0:0:
86,123,15475,2,0,L|94:215,1,81.2499962806703,0|2,0:0|0:0,0:0:0:0:
0,90,15785,2,0,L|8:182,1,81.2499962806703,0|2,0:0|0:0,0:0:0:0:
351,255,16096,5,12,0:0:0:0:
426,123,16303,2,0,L|418:215,1,81.2499962806703,0|2,0:0|0:0,0:0:0:0:
512,90,16613,2,0,L|504:182,1,81.2499962806703,0|2,0:0|0:0,0:0:0:0:
438,38,16820,5,2,0:0:0:0:
361,68,16923,2,0,B|316:94|316:94|362:187|283:170|269:128|271:92,1,162.499992561341,8|0,0:0|0:0,0:0:0:0:
107,92,17337,1,8,0:0:0:0:
187,96,17440,1,2,0:0:0:0:
21,232,17647,2,8,P|77:260|268:230,1,243.749988842011,8|8,0:0|0:0,0:0:0:0:
286,97,18061,1,0,0:0:0:0:
238,160,18165,2,0,L|266:334,1,162.499992561341,8|0,0:0|0:0,0:0:0:0:
454,263,18578,5,8,0:0:0:0:
457,222,18682,1,0,0:0:0:0:
461,181,18785,1,2,0:0:0:0:
205,84,18992,5,8,0:0:0:0:
202,43,19096,1,0,0:0:0:0:
198,2,19199,1,2,0:0:0:0:
143,242,19406,5,8,0:0:0:0:
199,247,19509,1,0,0:0:0:0:
255,251,19613,1,2,0:0:0:0:
398,88,19820,5,2,0:0:0:0:
342,92,19924,1,0,0:0:0:0:
286,97,20027,1,8,0:0:0:0:
456,222,20234,5,0,0:0:0:0:
400,254,20337,1,0,0:0:0:0:
345,286,20440,1,0,0:0:0:0:
286,97,20647,5,0,0:0:0:0:
269,160,20750,1,0,0:0:0:0:
253,222,20853,1,0,0:0:0:0:
77,134,21061,5,0,0:0:0:0:
110,191,21164,1,0,0:0:0:0:
142,246,21267,1,0,0:0:0:0:
222,12,21475,5,0,0:0:0:0:
158,22,21578,1,0,0:0:0:0:
95,31,21681,1,0,0:0:0:0:
56,283,21889,5,8,0:0:0:0:
100,329,21992,1,0,0:0:0:0:
165,335,22096,1,2,0:0:0:0:
220,302,22199,1,0,0:0:0:0:
240,240,22303,2,0,L|228:147,1,81.2499962806703,8|0,0:0|0:0,0:0:0:0:
355,222,22509,2,0,L|344:302,1,81.2499962806703,2|0,0:0|0:0,0:0:0:0:
447,272,22716,5,8,0:0:0:0:
458,207,22820,1,0,0:0:0:0:
428,149,22923,1,2,0:0:0:0:
367,124,23027,1,0,0:0:0:0:
303,133,23130,2,0,L|203:153,1,81.2499962806703,8|0,0:0|0:0,0:0:0:0:
315,303,23337,2,0,L|394:318,1,81.2499962806703,2|0,0:0|0:0,0:0:0:0:
239,240,23544,5,0,0:0:0:0:
190,197,23647,1,0,0:0:0:0:
124,194,23751,1,0,0:0:0:0:
70,230,23854,1,0,0:0:0:0:
55,293,23958,2,0,L|58:378,1,81.2499962806703
239,241,24165,2,0,L|236:156,1,81.2499962806703
199,302,24372,5,8,0:0:0:0:
340,340,24476,1,0,0:0:0:0:
377,198,24579,1,2,0:0:0:0:
236,160,24682,1,4,0:0:0:0:
296,114,24992,6,0,B|300:69|300:69|273:30,1,81.2499962806703,2|0,0:0|0:0,0:0:0:0:
211,37,25199,5,8,0:0:0:0:
147,54,25303,1,0,0:0:0:0:
114,109,25406,2,0,L|108:204,1,81.2499962806703,2|0,0:0|0:0,0:0:0:0:
301,37,25613,5,8,0:0:0:0:
365,54,25717,1,0,0:0:0:0:
398,109,25820,2,0,L|404:204,1,81.2499962806703,2|0,0:0|0:0,0:0:0:0:
209,278,26027,5,8,0:0:0:0:
163,323,26130,1,0,0:0:0:0:
98,332,26234,2,0,L|13:295,1,81.2499962806703,2|0,0:0|0:0,0:0:0:0:
303,278,26440,5,8,0:0:0:0:
349,323,26543,1,0,0:0:0:0:
414,332,26647,2,0,L|499:295,1,81.2499962806703,2|0,0:0|0:0,0:0:0:0:
397,108,26854,6,0,L|286:153,3,62.5,8|0|0|0,0:0|0:0|0:0|0:0,0:0:0:0:
254,17,27268,6,0,L|238:136,3,62.5,8|0|0|0,0:0|0:0|0:0|0:0,0:0:0:0:
105,78,27682,6,0,L|200:152,3,62.5,8|0|0|0,0:0|0:0|0:0|0:0,0:0:0:0:
111,248,28096,6,0,L|222:203,3,62.5,8|0|0|0,0:0|0:0|0:0|0:0,0:0:0:0:
255,306,28509,6,0,L|276:360,1,40.6249981403352
284,305,28613,6,0,L|328:349,1,40.6249981403352
313,292,28716,6,0,L|358:328,1,40.6249981403352
337,276,28820,6,0,L|397:292,1,40.6249981403352
359,249,28923,6,0,L|416:257,1,40.6249981403352
372,223,29027,6,0,L|432:206,1,40.6249981403352
375,191,29130,6,0,L|428:169,1,40.6249981403352
374,162,29234,6,0,L|418:118,1,40.6249981403352
361,131,29337,6,0,L|397:85,1,40.6249981403352
345,106,29441,6,0,L|361:45,1,40.6249981403352
320,88,29544,6,0,L|328:30,1,40.6249981403352
294,75,29648,6,0,L|277:14,1,40.6249981403352
259,69,29751,6,0,L|238:15,1,40.6249981403352,8|0,0:0|0:0,0:0:0:0:
230,71,29855,6,0,L|186:26,1,40.6249981403352,8|0,0:0|0:0,0:0:0:0:
201,84,29958,6,0,L|155:47,1,40.6249981403352,8|0,0:0|0:0,0:0:0:0:
176,100,30062,6,0,L|115:83,1,40.6249981403352,8|0,0:0|0:0,0:0:0:0:
147,128,30165,6,0,L|159:282,1,81.2499962806703,2|0,0:0|0:0,0:0:0:0:
370,226,30372,5,0,0:0:0:0:
370,226,30475,2,0,L|358:380,1,81.2499962806703,2|0,0:0|0:0,0:0:0:0:
160,296,30682,5,0,0:0:0:0:
160,296,30785,2,0,L|172:450,1,81.2499962806703,2|0,0:0|0:0,0:0:0:0:
215,242,30992,5,0,0:0:0:0:
79,284,31096,1,0,0:0:0:0:
204,214,31199,5,0,0:0:0:0:
68,256,31303,1,0,0:0:0:0:
138,340,31406,6,0,B|221:346|221:346|208:303|236:377|317:315|316:248,1,243.749988842011
316,249,31820,6,0,B|320:184|303:104|303:104|354:158,1,200,4|0,0:0|0:0,0:0:0:0:
453,305,32234,2,0,P|427:360|378:379,1,100
453,146,32440,6,0,B|454:121|454:121|430:97|430:97|450:80|450:80|449:40,1,100
333,28,32647,5,0,0:0:0:0:
255,7,32751,1,0,0:0:0:0:
179,31,32854,1,0,0:0:0:0:
134,98,32958,1,0,0:0:0:0:
137,177,33061,2,0,B|155:228|155:228|205:256,1,100
179,31,33268,2,0,L|71:35,1,62.5
34,160,33475,5,8,0:0:0:0:
63,253,33578,1,2,0:0:0:0:
104,146,33682,5,8,0:0:0:0:
119,258,33785,1,2,0:0:0:0:
177,179,33889,5,8,0:0:0:0:
148,330,33992,2,0,L|172:208,1,125,2|0,0:0|0:0,0:0:0:0:
177,179,34303,5,0,0:0:0:0:
401,166,34509,2,2,L|386:230,1,50
371,145,34613,2,2,L|356:209,1,50
339,128,34716,2,0,B|308:261|308:261|370:329,1,200,10|0,0:0|0:0,0:0:0:0:
202,296,35130,6,0,P|175:358|171:268,1,243.749988842011
159,266,35544,6,0,L|257:260,1,81.2499962806703,8|0,0:0|0:0,0:0:0:0:
255,55,35751,2,0,L|157:61,1,81.2499962806703
101,209,35958,2,0,P|78:255|81:286,1,81.2499962806703
314,113,36165,2,0,P|337:67|334:36,1,81.2499962806703
238,132,36372,5,8,0:0:0:0:
358,179,36475,1,0,0:0:0:0:
210,153,36578,2,0,L|236:250,1,100
336,210,36785,5,10,0:0:0:0:
133,58,36992,5,0,0:0:0:0:
57,84,37096,1,0,0:0:0:0:
19,154,37199,2,0,L|14:244,1,62.5,8|0,0:0|0:0,0:0:0:0:
209,154,37406,2,0,L|204:64,1,62.5,2|0,0:0|0:0,0:0:0:0:
138,280,37613,5,0,0:0:0:0:
217,304,37716,1,0,0:0:0:0:
296,256,37820,2,0,L|293:166,1,81.2499962806703
151,87,38027,5,10,0:0:0:0:
33,119,38130,1,0,0:0:0:0:
65,237,38234,1,2,0:0:0:0:
181,205,38337,1,0,0:0:0:0:
226,87,38440,6,0,P|163:13|164:161,1,324.999985122681,4|8,0:0|0:0,0:0:0:0:
123,156,38958,1,8,0:0:0:0:
180,185,39061,6,8,P|243:191|286:171,1,81.2499962806703,2|0,0:0|0:0,0:0:0:0:
405,59,39268,5,0,0:0:0:0:
300,80,39372,1,0,0:0:0:0:
423,96,39475,5,0,0:0:0:0:
318,117,39579,1,0,0:0:0:0:
387,195,39682,5,0,0:0:0:0:
444,133,39785,1,0,0:0:0:0:
357,117,39889,2,0,P|313:147|299:193,1,81.2499962806703
322,303,40096,6,0,P|372:301|324:297,1,140.625005364418
335,286,40509,6,0,P|231:346|121:298,1,200
35,179,40923,6,0,L|40:288,1,81.2499962806703,8|0,0:0|0:0,0:0:0:0:
217,92,41130,2,0,L|212:-17,1,81.2499962806703,2|0,0:0|0:0,0:0:0:0:
147,182,41337,2,0,P|245:208|295:173,1,162.499992561341,8|0,0:0|0:0,0:0:0:0:
330,116,41647,1,0,0:0:0:0:
330,116,41751,5,4,0:0:0:0:
478,257,41958,2,0,B|515:296|515:295|461:312|461:312|470:346|490:306,1,125,0|0,0:0|0:0,0:0:0:0:
350,292,42165,6,0,L|256:299,1,81.2499962806703,8|0,0:0|0:0,0:0:0:0:
186,353,42372,2,0,L|92:360,1,81.2499962806703,8|0,0:0|0:0,0:0:0:0:
62,199,42579,5,8,0:0:0:0:
102,191,42682,1,0,0:0:0:0:
143,204,42785,1,2,0:0:0:0:
183,197,42889,1,0,0:0:0:0:
232,133,42992,5,0,0:0:0:0:
207,54,43096,1,0,0:0:0:0:
129,30,43199,1,0,0:0:0:0:
65,81,43303,1,0,0:0:0:0:
71,161,43406,5,0,0:0:0:0:
71,161,43509,1,0,0:0:0:0:
160,379,43716,5,0,0:0:0:0:
160,379,43820,1,0,0:0:0:0:
147,118,44027,1,0,0:0:0:0:
411,100,44234,1,0,0:0:0:0:
483,93,44337,1,0,0:0:0:0:
489,165,44440,1,0,0:0:0:0:
416,172,44544,1,0,0:0:0:0:
411,100,44647,5,8,0:0:0:0:
489,165,44751,2,0,P|459:235|346:187,1,162.499992561341
381,238,45061,6,0,P|304:221|200:324,1,200
396,326,45475,2,0,P|461:269|461:220,1,100,8|0,0:0|0:0,0:0:0:0:
348,140,45682,2,0,B|329:135|329:135|321:149|321:149|310:138|310:138|306:149|306:149|296:142|296:142|230:153,1,100
184,36,45889,5,8,0:0:0:0:
139,101,45992,1,0,0:0:0:0:
136,181,46096,1,2,0:0:0:0:
176,249,46199,1,0,0:0:0:0:
148,320,46303,2,0,L|35:332,1,81.2499962806703,8|0,0:0|0:0,0:0:0:0:
291,324,46509,2,0,P|328:309|349:276,1,62.5,2|0,0:0|0:0,0:0:0:0:
308,116,46716,5,0,0:0:0:0:
202,141,46820,1,0,0:0:0:0:
303,151,46923,5,0,0:0:0:0:
197,176,47027,1,0,0:0:0:0:
274,251,47130,5,0,0:0:0:0:
274,251,47234,2,0,L|418:282,1,125
433,169,47544,2,0,P|435:230|396:277,1,125
205,96,47958,6,0,L|317:80,1,100,12|0,0:0|0:0,0:0:0:0:
309,340,48165,2,0,L|197:356,1,100,4|0,0:0|0:0,0:0:0:0:
280,209,48372,6,0,P|335:278|250:233,1,243.749988842011
250,200,48785,2,0,L|258:41,1,81.2499962806703,8|0,0:0|0:0,0:0:0:0:
414,287,48992,2,0,L|418:368,1,81.2499962806703,2|0,0:0|0:0,0:0:0:0:
236,336,49199,6,0,B|163:342|163:342|178:333|178:333|34:342,1,162.499992561341
118,147,49613,6,0,P|141:199|119:251,1,100
66,202,49820,1,0,0:0:0:0:
66,274,49923,1,0,0:0:0:0:
107,338,50027,6,0,L|167:373,1,50
150,319,50130,2,0,L|201:347,1,50
190,298,50234,2,0,B|247:328|247:328|248:378,1,100,2|0,0:0|0:0,0:0:0:0:
323,322,50440,5,8,0:0:0:0:
323,291,50544,1,0,0:0:0:0:
323,260,50647,1,2,0:0:0:0:
323,229,50751,1,0,0:0:0:0:
211,196,50854,6,0,P|205:234|218:282,1,81.2499962806703
410,160,51061,2,0,P|416:122|403:74,1,81.2499962806703,0|0,0:0|0:0,0:0:0:0:
321,228,51268,5,10,0:0:0:0:
357,363,51372,1,0,0:0:0:0:
408,276,51475,1,2,0:0:0:0:
272,313,51578,1,0,0:0:0:0:
395,351,51682,6,0,P|482:267|435:204,1,200,6|2,0:0|0:0,0:0:0:0:
419,197,51992,1,0,0:0:0:0:
419,197,52096,1,0,0:0:0:0:
303,353,52303,5,0,0:0:0:0:
87,280,52509,2,0,L|76:387,1,100
257,191,52716,2,0,L|246:91,1,100
153,206,52923,1,8,0:0:0:0:
219,281,53027,1,0,0:0:0:0:
317,269,53130,2,0,P|349:212|339:149,1,100
303,38,53337,6,0,L|159:41,1,125,12|2,0:0|0:0,0:0:0:0:
282,355,53751,6,0,L|486:353,1,162.499992561341,12|2,0:0|0:0,0:0:0:0:
244,83,54165,6,0,L|10:85,1,200,12|2,0:0|0:0,0:0:0:0:
153,322,54578,6,0,L|476:317,1,250,12|2,0:0|0:0,0:0:0:0:
334,140,54992,6,0,P|247:189|183:166,1,162.499992561341
328,51,55406,2,0,P|388:73|408:97,1,81.2499962806703,8|0,0:0|0:0,0:0:0:0:
399,200,55613,2,0,P|409:262|399:292,1,81.2499962806703,10|0,0:0|0:0,0:0:0:0:
248,318,55820,5,2,0:0:0:0:
193,331,55923,1,0,0:0:0:0:
150,246,56027,5,2,0:0:0:0:
205,254,56130,1,0,0:0:0:0:
177,172,56234,5,0,0:0:0:0:
79,230,56337,1,0,0:0:0:0:
190,250,56440,5,0,0:0:0:0:
217,139,56544,1,0,0:0:0:0:
163,40,56647,5,2,0:0:0:0:
163,40,56751,1,2,0:0:0:0:
450,110,56958,5,2,0:0:0:0:
450,110,57061,1,10,0:0:0:0:
443,146,57165,1,0,0:0:0:0:
437,182,57268,1,8,0:0:0:0:
430,219,57372,1,0,0:0:0:0:
421,255,57475,6,0,L|280:273,1,125,2|0,0:0|0:0,0:0:0:0:
225,156,57785,6,0,L|348:171,1,125,2|0,0:0|0:0,0:0:0:0:
365,312,58096,6,0,P|251:340|216:269,1,200,2|4,0:0|0:0,0:0:0:0:
226,247,58406,1,0,0:0:0:0:
213,211,58509,1,0,0:0:0:0:
179,193,58613,1,0,0:0:0:0:
142,184,58716,2,8,L|59:200,1,62.5
129,49,58923,2,0,L|212:65,1,62.5
35,137,59130,5,2,0:0:0:0:
13,168,59234,1,0,0:0:0:0:
8,205,59337,1,0,0:0:0:0:
21,239,59440,1,0,0:0:0:0:
46,266,59544,2,0,L|45:343,1,62.5,8|0,0:0|0:0,0:0:0:0:
178,193,59751,2,0,L|179:116,1,62.5
213,291,59958,5,0,0:0:0:0:
245,309,60061,1,0,0:0:0:0:
282,312,60165,1,0,0:0:0:0:
317,299,60268,1,0,0:0:0:0:
269,228,60372,5,0,0:0:0:0:
301,210,60475,1,0,0:0:0:0:
338,207,60579,1,0,0:0:0:0:
373,220,60682,1,0,0:0:0:0:
392,251,60785,6,0,L|410:322,1,62.5
466,164,60992,2,0,L|466:251,1,62.5
334,104,61199,2,0,L|341:30,1,62.5
466,102,61406,2,0,L|466:189,1,62.5
373,220,61613,5,0,0:0:0:0:
355,253,61716,1,0,0:0:0:0:
327,279,61820,2,0,P|293:291|251:281,1,62.5
177,122,62027,5,0,0:0:0:0:
215,123,62130,1,0,0:0:0:0:
248,140,62234,2,0,P|275:163|287:204,1,62.5
92,183,62440,5,0,0:0:0:0:
74,150,62543,1,0,0:0:0:0:
72,112,62647,2,0,P|78:76|108:45,1,62.5
188,224,62854,5,0,0:0:0:0:
206,257,62957,1,0,0:0:0:0:
208,295,63061,2,0,P|201:330|171:361,1,62.5
109,290,63268,5,0,0:0:0:0:
90,257,63372,1,0,0:0:0:0:
87,219,63475,1,0,0:0:0:0:
95,182,63578,1,0,0:0:0:0:
168,112,63682,6,0,L|230:99,1,46.8750017881394
234,214,63889,2,0,L|172:227,1,46.8750017881394
348,260,64096,5,0,0:0:0:0:
385,268,64199,1,0,0:0:0:0:
423,265,64302,1,0,0:0:0:0:
456,246,64406,1,0,0:0:0:0:
478,152,64509,6,0,L|472:94,1,46.8750017881394
305,131,64716,2,0,L|311:189,1,46.8750017881394
262,50,64923,6,0,L|195:42,3,46.8750017881394,0|0|0|0,0:0|0:0|0:0|0:0,0:0:0:0:
177,40,65337,1,0,0:0:0:0:
143,57,65440,1,0,0:0:0:0:
125,90,65544,1,0,0:0:0:0:
135,125,65647,1,0,0:0:0:0:
202,190,65751,6,0,L|269:182,3,46.8750017881394,0|0|0|0,0:0|0:0|0:0|0:0,0:0:0:0:
287,180,66165,1,0,0:0:0:0:
321,197,66268,1,0,0:0:0:0:
339,230,66372,1,0,0:0:0:0:
329,265,66475,1,0,0:0:0:0:
199,323,66578,6,0,L|121:338,1,46.8750017881394
107,248,66785,2,0,L|29:263,1,46.8750017881394
167,158,66992,2,0,L|152:80,3,46.8750017881394,0|0|0|0,0:0|0:0|0:0|0:0,0:0:0:0:
262,231,67406,6,0,L|340:246,1,46.8750017881394
354,156,67613,2,0,L|432:171,1,46.8750017881394
294,66,67820,2,0,L|309:-12,3,46.8750017881394,0|0|0|0,0:0|0:0|0:0|0:0,0:0:0:0:
173,56,68234,6,0,L|105:73,3,46.8750017881394,0|0|0|0,0:0|0:0|0:0|0:0,0:0:0:0:
157,223,68647,2,0,L|92:216,3,46.8750017881394,0|0|0|0,0:0|0:0|0:0|0:0,0:0:0:0:
127,67,69061,6,0,L|59:84,3,46.8750017881394,0|0|0|0,0:0|0:0|0:0|0:0,0:0:0:0:
110,217,69475,2,0,L|45:210,3,46.8750017881394,0|0|0|0,0:0|0:0|0:0|0:0,0:0:0:0:
210,230,69889,6,0,L|309:244,1,62.5
210,230,70096,6,0,L|309:244,1,62.5
210,230,70303,6,0,L|309:244,1,62.5
210,230,70509,6,0,L|309:244,1,62.5
310,244,70716,5,0,0:0:0:0:
54,64,71544,5,12,0:0:0:0:
56,76,71647,1,0,0:0:0:0:
59,88,71751,1,0,0:0:0:0:
61,100,71854,1,0,0:0:0:0:
133,134,71958,5,8,0:0:0:0:
130,145,72061,1,0,0:0:0:0:
128,157,72165,1,0,0:0:0:0:
126,169,72268,1,0,0:0:0:0:
81,229,72372,5,8,0:0:0:0:
84,240,72475,1,0,0:0:0:0:
86,252,72579,1,0,0:0:0:0:
88,264,72682,1,0,0:0:0:0:
151,314,72785,5,8,0:0:0:0:
162,317,72888,1,0,0:0:0:0:
174,319,72992,1,0,0:0:0:0:
186,321,73095,1,0,0:0:0:0:
267,289,73199,5,12,0:0:0:0:
271,270,73303,1,0,0:0:0:0:
276,252,73406,1,0,0:0:0:0:
281,233,73509,1,0,0:0:0:0:
356,210,73613,5,8,0:0:0:0:
357,191,73717,1,0,0:0:0:0:
358,172,73820,1,4,0:0:0:0:
360,152,73923,1,0,0:0:0:0:
428,104,74027,5,8,0:0:0:0:
426,85,74131,1,0,0:0:0:0:
424,67,74234,1,0,0:0:0:0:
422,46,74337,1,0,0:0:0:0:
335,64,74440,5,8,0:0:0:0:
319,73,74544,1,0,0:0:0:0:
300,76,74647,1,0,0:0:0:0:
281,71,74751,1,0,0:0:0:0:
200,52,74854,5,12,0:0:0:0:
174,54,74958,1,0,0:0:0:0:
149,56,75061,1,0,0:0:0:0:
123,58,75165,1,0,0:0:0:0:
123,145,75268,5,0,0:0:0:0:
149,147,75372,1,0,0:0:0:0:
174,149,75475,1,0,0:0:0:0:
200,151,75579,1,8,0:0:0:0:
203,240,75682,5,8,0:0:0:0:
177,242,75786,1,0,0:0:0:0:
152,244,75889,1,0,0:0:0:0:
126,246,75993,1,0,0:0:0:0:
145,336,76096,5,8,0:0:0:0:
182,339,76199,1,0,0:0:0:0:
219,342,76303,1,6,0:0:0:0:
256,346,76406,1,0,0:0:0:0:
321,303,76509,5,12,0:0:0:0:
300,271,76613,1,0,0:0:0:0:
301,228,76716,1,6,0:0:0:0:
321,196,76820,1,0,0:0:0:0:
404,253,76923,5,8,0:0:0:0:
422,220,77027,1,0,0:0:0:0:
421,182,77130,1,2,0:0:0:0:
404,148,77234,1,0,0:0:0:0:
291,101,77337,5,8,0:0:0:0:
254,111,77441,1,0,0:0:0:0:
228,139,77544,1,2,0:0:0:0:
216,175,77648,1,0,0:0:0:0:
479,109,77854,1,0,0:0:0:0:
479,71,77958,1,0,0:0:0:0:
194,2,78165,5,8,0:0:0:0:
187,38,78268,1,0,0:0:0:0:
181,74,78372,1,8,0:0:0:0:
174,111,78475,1,0,0:0:0:0:
299,111,78578,5,8,0:0:0:0:
306,147,78681,1,0,0:0:0:0:
312,183,78785,1,8,0:0:0:0:
319,220,78888,1,0,0:0:0:0:
159,208,78992,6,0,L|172:122,1,62.5,8|0,0:0|0:0,0:0:0:0:
326,260,79199,2,0,L|335:321,1,62.5,8|0,0:0|0:0,0:0:0:0:
149,269,79406,2,0,L|159:208,1,62.5,8|0,0:0|0:0,0:0:0:0:
336,321,79613,2,0,L|345:382,1,62.5,8|0,0:0|0:0,0:0:0:0:
189,326,79820,5,8,0:3:0:0:
139,330,79923,1,0,0:3:0:0:
88,334,80027,1,8,0:3:0:0:
38,338,80130,1,0,0:0:0:0:
108,202,80234,5,0,0:0:0:0:
159,207,80337,1,8,0:3:0:0:
210,211,80441,1,0,0:3:0:0:
260,215,80544,1,8,0:3:0:0:
352,92,80647,5,8,0:3:0:0:
297,92,80750,1,0,0:3:0:0:
240,90,80854,1,8,0:3:0:0:
185,90,80957,1,0,0:0:0:0:
195,216,81061,5,8,0:3:0:0:
255,216,81164,1,0,0:3:0:0:
318,218,81268,1,8,0:3:0:0:
378,218,81371,1,0,0:0:0:0:
444,156,81475,6,0,L|460:59,3,62.5,0|0|0|0,0:0|0:0|0:0|0:0,0:0:0:0:
256,80,81889,6,0,L|256:8,3,62.5,0|0|0|0,0:0|0:0|0:0|0:0,0:0:0:0:
68,156,82303,6,0,L|52:59,3,62.5,0|0|0|0,0:0|0:0|0:0|0:0,0:0:0:0:
227,335,82716,6,0,P|266:342|305:321,3,62.5,0|0|0|0,0:0|0:0|0:0|0:0,0:0:0:0:
154,295,83130,6,0,P|76:270|23:304,1,125
93,346,83440,1,0,0:0:0:0:
93,346,83544,1,8,0:0:0:0:
109,86,83751,1,0,0:0:0:0:
259,192,83958,5,2,0:0:0:0:
307,196,84061,1,0,0:0:0:0:
259,192,84165,1,2,0:0:0:0:
307,196,84268,1,8,0:0:0:0:
340,57,84372,5,2,0:0:0:0:
231,87,84475,1,0,0:0:0:0:
369,165,84578,1,2,0:0:0:0:
259,195,84682,1,0,0:0:0:0:
161,259,84785,6,0,L|154:362,1,100,4|0,0:0|0:0,0:0:0:0:
375,263,84992,2,0,L|368:160,1,100,2|0,0:0|0:0,0:0:0:0:
278,330,85199,2,0,P|301:361|398:373,1,100,8|0,0:0|0:0,0:0:0:0:
415,84,85406,2,0,P|379:68|289:106,1,100
167,168,85613,6,0,P|118:178|72:160,1,100,4|0,0:0|0:0,0:0:0:0:
130,16,85820,2,0,L|249:16,1,100
376,262,86027,2,0,L|257:262,1,100,8|0,0:0|0:0,0:0:0:0:
308,132,86234,2,0,L|427:132,1,100,0|0,0:0|0:0,0:0:0:0:
473,306,86440,6,0,P|439:349|365:357,1,100
300,335,86647,1,2,0:0:0:0:
204,302,86751,2,0,P|91:299|24:364,1,200
202,53,87165,1,0,0:0:0:0:
301,58,87268,2,0,B|399:64|399:64|503:125,1,200,8|0,0:0|0:0,0:0:0:0:
450,201,87578,2,0,B|353:220|353:220|237:188,1,200,8|0,0:0|0:0,0:0:0:0:
255,193,87889,1,2,0:0:0:0:
34,169,88096,5,0,0:0:0:0:
54,267,88199,1,2,0:0:0:0:
256,351,88406,1,0,0:0:0:0:
341,300,88509,2,8,B|412:228|412:228|437:96,1,200
15,71,88923,1,2,0:0:0:0:
357,47,89130,5,0,0:0:0:0:
256,55,89234,1,0,0:0:0:0:
156,240,89440,5,0,0:0:0:0:
257,248,89544,1,0,0:0:0:0:
124,115,89751,6,0,P|54:156|41:298,1,200,4|2,0:0|0:0,0:0:0:0:
64,368,90061,2,0,B|146:321|134:245|134:245|227:241|210:350,1,300
227,84,90578,6,0,P|305:63|415:154,1,200,4|2,0:0|0:0,0:0:0:0:
448,220,90888,2,0,B|356:244|311:182|311:182|242:245|332:310,1,300
415,45,91406,6,0,L|302:65,1,100,4|0,0:0|0:0,0:0:0:0:
163,137,91613,2,0,L|276:157,1,100,0|0,0:0|0:0,0:0:0:0:
192,262,91820,2,0,P|121:275|70:241,1,100,8|0,0:0|0:0,0:0:0:0:
316,64,92027,2,0,P|362:118|358:180,1,100
163,137,92234,6,0,L|176:20,1,100
376,249,92440,2,0,L|387:348,1,100
159,360,92647,2,0,P|99:310|100:257,1,100,8|0,0:0|0:0,0:0:0:0:
366,144,92854,2,0,P|438:164|465:207,1,100,8|0,0:0|0:0,0:0:0:0:
376,248,93061,5,0,0:0:0:0:
277,270,93165,1,0,0:0:0:0:
181,242,93268,1,0,0:0:0:0:
109,171,93372,2,0,B|78:132|85:47|85:47|54:143,1,200
231,362,93785,1,0,0:0:0:0:
331,360,93889,2,0,B|425:341|425:341|506:237,1,200
489,158,94199,2,0,B|425:75|425:75|331:56,1,200
331,56,94509,1,0,0:0:0:0:
76,275,94716,5,2,0:0:0:0:
103,371,94820,1,0,0:0:0:0:
353,165,95026,5,0,0:0:0:0:
256,140,95130,1,8,0:0:0:0:
292,366,95337,5,0,0:0:0:0:
436,91,95544,1,0,0:0:0:0:
390,343,95751,5,0,0:0:0:0:
487,322,95854,1,0,0:0:0:0:
158,116,96061,5,0,0:0:0:0:
61,95,96164,1,0,0:0:0:0:
91,318,96372,6,0,P|202:374|281:290,1,200
423,317,96682,2,0,P|345:374|256:340,1,200,0|0,0:0|0:0,0:0:0:0:
256,239,96992,1,2,0:0:0:0:
270,51,97199,5,8,0:0:0:0:
173,79,97303,1,0,0:0:0:0:
277,85,97406,5,2,0:0:0:0:
180,113,97510,1,0,0:0:0:0:
158,210,97613,5,8,0:0:0:0:
255,238,97717,1,0,0:0:0:0:
153,250,97820,5,2,0:0:0:0:
250,278,97924,1,0,0:0:0:0:
346,253,98027,6,0,L|360:135,1,100,12|0,0:0|0:0,0:0:0:0:
56,284,98234,2,0,L|67:383,1,100
167,171,98440,2,0,P|95:123|32:135,1,100,8|0,0:0|0:0,0:0:0:0:
207,350,98647,2,0,P|293:355|341:313,1,100,8|0,0:0|0:0,0:0:0:0:
450,251,98854,6,0,L|463:362,1,100
256,129,99061,2,0,L|267:29,1,100
79,119,99268,2,0,P|67:167|85:227,1,100,8|0,0:0|0:0,0:0:0:0:
301,362,99475,2,0,L|416:373,1,100
457,157,99682,5,0,0:0:0:0:
399,75,99785,1,0,0:0:0:0:
307,33,99889,1,0,0:0:0:0:
207,29,99992,2,0,B|124:29|81:59|81:59|126:68|143:128,1,200
186,293,100406,5,0,0:0:0:0:
103,353,100509,2,0,L|-4:365,1,100
265,226,100716,2,0,L|372:214,1,100
199,143,100923,5,8,0:0:0:0:
186,293,101027,1,0,0:0:0:0:
265,226,101130,1,2,0:0:0:0:
115,213,101234,1,0,0:0:0:0:
161,318,101337,6,0,L|337:369,1,100,4|0,0:0|0:0,0:0:0:0:
398,192,101544,2,0,L|298:192,1,100
161,66,101751,2,0,L|257:38,1,100,8|0,0:0|0:0,0:0:0:0:
148,222,101958,2,0,P|143:271|161:318,1,100,0|0,0:0|0:0,0:0:0:0:
327,213,102165,5,0,0:0:0:0:
321,113,102268,2,0,P|296:69|257:39,2,100,0|0|0,0:0|0:0|0:0,0:0:0:0:
259,306,102578,2,0,L|139:319,1,100
102,130,102785,2,0,L|201:140,1,100,2|0,0:0|0:0,0:0:0:0:
362,60,102992,6,0,L|263:70,1,100,2|0,0:0|0:0,0:0:0:0:
224,213,103199,1,0,0:0:0:0:
261,306,103303,1,0,0:0:0:0:
354,339,103406,1,8,0:0:0:0:
451,317,103509,2,0,B|490:247|440:184|440:184|409:202|371:203,1,200
386,201,103820,1,0,0:0:0:0:
265,39,104027,5,2,0:0:0:0:
362,60,104130,1,0,0:0:0:0:
224,213,104337,5,0,0:0:0:0:
126,234,104440,1,2,0:0:0:0:
480,183,104647,6,0,L|466:74,1,100,4|0,0:0|0:0,0:0:0:0:
292,284,104854,2,0,L|279:383,1,100
76,309,105061,2,0,P|40:260|47:198,1,100,8|0,0:0|0:0,0:0:0:0:
166,42,105268,2,0,P|172:102|135:152,1,100
211,244,105475,6,0,P|204:304|241:354,1,100
388,117,105682,2,0,L|245:137,1,100
293,284,105889,2,0,L|392:297,1,100,8|0,0:0|0:0,0:0:0:0:
475,156,106096,2,0,P|481:95|444:45,1,100
287,46,106303,5,0,0:0:0:0:
189,26,106406,1,0,0:0:0:0:
97,64,106509,1,0,0:0:0:0:
54,154,106613,2,0,B|43:231|97:258|97:258|134:233|134:233|178:234,1,200
367,250,107027,5,0,0:0:0:0:
267,241,107130,2,0,L|167:233,1,100
187,27,107337,2,0,L|96:70,1,100
214,148,107544,5,8,0:0:0:0:
358,187,107647,1,0,0:0:0:0:
305,96,107751,1,2,0:0:0:0:
267,240,107854,1,0,0:0:0:0:
324,322,107958,6,0,L|453:329,1,100,4|0,0:0|0:0,0:0:0:0:
163,231,108165,2,0,L|34:238,1,100
303,99,108372,2,0,P|316:133|304:202,1,100,8|0,0:0|0:0,0:0:0:0:
99,95,108579,2,0,P|86:61|98:-8,1,100
356,36,108785,6,0,L|461:46,1,100
368,231,108992,2,0,L|268:240,1,100
86,299,109199,2,0,P|93:345|136:387,1,100,8|0,0:0|0:0,0:0:0:0:
209,148,109406,2,0,L|221:2,1,100
431,99,109613,5,0,0:0:0:0:
473,188,109716,1,0,0:0:0:0:
444,284,109820,1,0,0:0:0:0:
361,340,109923,2,0,B|244:394|149:281,1,200
27,192,110337,5,0,0:0:0:0:
13,290,110440,1,0,0:0:0:0:
257,131,110647,5,0,0:0:0:0:
231,2,110751,1,0,0:0:0:0:
284,270,110958,5,0,0:0:0:0:
442,284,111061,1,0,0:0:0:0:
404,62,111268,6,0,L|287:77,2,81.2499962806703,0|0|0,0:0|0:0|0:0,0:0:0:0:
39,95,111682,1,8,0:0:0:0:
404,62,111889,6,0,L|292:75,1,81.2499962806703
395,167,112096,2,0,L|283:150,1,81.2499962806703
363,270,112303,2,0,L|259:225,1,81.2499962806703
303,357,112510,2,0,L|214:286,1,81.2499962806703,8|0,0:0|0:0,0:0:0:0:
464,250,112716,2,0,P|461:310|431:345,1,81.2499962806703
364,269,112923,5,0,0:0:0:0:
127,299,113130,2,0,L|12:313,1,81.2499962806703
82,212,113337,1,8,0:0:0:0:
82,212,113440,2,0,L|161:228,2,81.2499962806703,0|0|0,0:0|0:0|0:0,0:0:0:0:
85,63,113854,6,0,L|-13:42,1,81.2499962806703
391,125,114165,1,8,0:0:0:0:
164,79,114372,6,0,L|85:63,2,81.2499962806703,0|0|0,0:0|0:0|0:0,0:0:0:0:
391,125,114785,1,2,0:0:0:0:
202,267,114992,2,0,L|128:321,1,81.2499962806703
391,125,115303,5,0,0:0:0:0:
136,314,115509,1,0,0:0:0:0:
166,80,115717,1,0,0:0:0:0:
238,97,115820,2,0,L|395:125,1,81.2499962806703
317,272,116027,2,0,L|238:287,1,81.2499962806703
175,192,116234,6,0,L|379:192,2,162.499992561341,12|0|0,0:0|0:0|0:0,0:0:0:0:
