osu file format v5

[General]
AudioFilename: Apple Panic(ED).mp3
AudioLeadIn: 0
PreviewTime: 25154
Countdown: 0
SampleSet: Normal
StackLeniency: 0.7
Mode: 0
LetterboxInBreaks: 1
EditorBookmarks: 24774,104141
EditorDistanceSpacing: 1

[Metadata]
Title:Apple Panic!?
Artist:lala & haruna(Haruka Tomatsu & Sayuri Yahagi)
Creator:abalee
Version:Seems Normal
Source:To LOVE Ru OVA ED
Tags:lala haruna Haruka Tomatsu Sayuri Yahagi To LOVE Ru OVA ED

[Difficulty]
HPDrainRate:3
CircleSize:4
OverallDifficulty:3
SliderMultiplier:1
SliderTickRate:2

[Events]
//Background and Video events
0,0,"bg.jpg"
//Break Periods
2,92189,103840
//Storyboard Layer 0 (Background)
//Storyboard Layer 1 (Failing)
//Storyboard Layer 2 (Passing)
//Storyboard Layer 3 (Foreground)
//Storyboard Sound Samples
//Background Colour Transformations
3,100,245,140,194

[TimingPoints]
1230,379.746835443038,4,2,1,100,1,0
37021,-100,4,1,1,41,0,0
38160,-100,4,2,1,100,0,0
70438,-100,4,1,1,41,0,0
70818,-100,4,2,1,100,0,0
78413,-100,4,1,1,32,0,0
79552,-100,4,1,1,61,0,0
105185,-100,4,2,1,100,0,0
116008,-100,4,1,1,40,0,0
117242,-100,4,2,1,100,0,0
127305,-100,4,1,1,39,0,0
129014,-100,4,2,1,100,0,0
140122,-100,4,1,1,49,0,0
143824,-100,4,2,1,100,0,0
158540,-100,4,1,1,60,0,0

[Colours]
Combo1 : 236,221,139
Combo2 : 245,140,194
Combo3 : 255,255,255
Combo4 : 46,42,140

[HitObjects]
40,200,26293,1,2
88,200,26483,1,2
136,200,26673,1,2
184,200,26862,2,0,B|240:200,1,50
280,200,27242,2,0,B|240:120|312:56,1,150,0|2
352,64,28002,2,0,B|408:64,2,50,0|0|2
352,112,28571,2,0,B|384:160|336:224,1,100,0|4
280,280,29331,6,0,B|256:344|184:344,1,100,0|2
176,304,29900,2,0,B|104:232|176:176,1,150,0|2
216,152,30660,2,0,L|216:96,1,50,0|2
216,48,31040,2,0,B|104:48,1,100,0|2
64,48,31609,1,2
64,48,31799,1,0
64,48,31989,1,4
64,144,32369,6,0,B|64:248,1,100,0|2
64,296,32938,1,2
160,296,33318,1,0
256,296,33698,1,2
352,296,34078,1,0
448,296,34457,1,2
432,144,35027,6,0,L|400:88|352:88,1,100,4|0
312,88,35597,2,0,B|312:136,2,25
264,88,35976,1,2
160,88,36356,1,2
160,88,36546,1,2
112,88,36736,2,2,L|112:152,1,50
64,144,37116,6,2,L|47:153|47:233,1,100
96,232,37685,2,2,L|152:232|200:208,1,100
264,136,38445,5,2
312,136,38635,1,2
360,136,38824,2,0,B|408:168|400:232,1,100,0|2
352,224,39394,2,0,B|336:272|376:336,1,100,0|2
312,320,39964,1,0
264,320,40154,2,0,B|152:320,1,100,0|2
112,320,40723,2,0,B|56:320,1,50,4|0
64,272,41103,1,2
72,168,41483,6,0,B|32:168,2,25
120,168,41862,1,0
168,168,42052,1,2
264,168,42432,1,2
311,168,42622,2,0,B|352:112|400:176,1,100
408,216,43192,1,4
376,256,43381,1,0
408,296,43571,1,2
376,336,43761,6,0,B|296:312|296:264,1,100
248,280,44331,2,0,B|148:280,1,100
96,280,44900,2,2,B|96:320,2,25
95,232,45280,2,0,B|38:233|30:169,1,100
80,168,45850,2,0,B|144:168|136:88,1,100
232,104,46609,5,2
280,104,46799,2,0,B|280:176|224:176,1,100
176,175,47369,2,0,B|176:246|232:246,1,100
256,192,48128,12,4,49837
264,330,50217,6,0,B|264:280,1,50,0|2
264,232,50597,2,0,B|264:176,1,50,0|2
264,128,50976,2,0,B|216:128,2,25
360,128,51546,2,0,B|410:128,1,50,2|0
456,128,51926,1,2
456,176,52116,2,0,B|384:176,1,50,0|2
352,176,52495,2,0,B|352:219|280:248,1,100,0|4
384,248,53255,6,0,B|456:248,1,50,2|0
432,200,53635,2,0,B|432:144,1,50,2|0
432,96,54014,2,0,B|376:96,1,50,2|0
328,96,54394,2,0,B|328:40,2,50,2|0|0
328,144,54964,2,0,B|274:143|232:208,1,100,2|0
144,192,55723,1,4
72,64,56293,5,2
120,64,56483,1,0
168,64,56673,2,0,L|232:64,1,50
264,64,57052,2,0,B|328:64,1,50,0|2
416,64,57622,1,0
416,160,58002,1,2
416,256,58381,1,4
264,256,58951,5,2
232,216,59141,1,0
192,176,59331,1,0
160,136,59521,1,4
240,80,59900,1,2
280,112,60090,1,0
312,144,60280,1,4
304,240,60660,6,4,B|240:240,2,50
352,240,61230,2,0,B|400:192|344:152,1,100,2|2
264,104,61989,1,4
112,104,62559,5,0
112,104,62749,1,2
224,200,63318,1,4
224,200,63698,1,4
312,248,64078,1,2
312,248,64267,1,4
256,192,65027,12,4,66546
192,104,66926,5,2
88,104,67305,2,0,B|40:136|64:200,1,100,2|4
160,192,68065,5,4
256,192,68445,1,4
352,192,68824,1,4
352,144,69014,6,2,B|400:144,2,25
352,96,69394,2,0,B|312:48|256:96,1,100,2|0
208,96,69964,2,0,B|156:122|106:94,1,100,2|0
64,96,70533,6,2,B|64:152,1,50
64,192,70913,5,0
64,192,71103,1,2
160,192,71483,1,4
256,192,71862,2,0,B|203:193|256:272,1,100,2|0
304,264,72432,2,0,L|368:264,1,50,0|2
400,264,72812,2,0,B|400:192,1,50,0|2
400,160,73192,2,0,B|336:160,1,50,0|2
248,160,73761,1,4
144,160,74141,6,0,B|96:112|152:64,2,100,0|4|0
144,208,75090,2,2,B|144:256,2,25
192,208,75470,1,2
288,208,75850,1,2
288,152,76040,2,0,B|352:152,2,50,0|2|4
288,304,76989,6,0,B|384:312|432:224,1,150
432,200,77748,1,2
416,152,77938,1,2
384,112,78128,2,0,B|360:88|328:88,1,50
288,80,78508,5,2
320,176,78888,1,2
240,232,79267,1,2
200,200,79456,1,2
152,176,79647,5,2
104,192,79837,1,0
72,232,80027,1,2
56,280,80217,2,0,B|160:280,2,100,0|4|0
72,328,81166,1,8
72,328,81356,1,8
112,352,81546,6,0,B|160:368|208:336,1,100,0|0
208,288,82116,1,8
304,288,82495,1,4
304,240,82685,2,8,B|304:208,2,25,2|2|2
352,240,83065,6,8,L|400:240|440:200,1,100
432,152,83635,2,8,L|432:88|384:64,1,100
352,72,84204,2,8,L|352:128,1,50
304,120,84584,2,0,B|200:120,1,100,0|0
152,120,85154,1,8
152,120,85343,1,8
152,168,85533,2,2,B|200:168,2,25
104,168,85913,1,4
56,168,86103,6,0,B|56:232,1,50,0|4
56,320,86673,2,0,B|104:360|152:312,1,100,0|2
184,288,87242,2,8,B|208:264|240:296,1,50
280,288,87622,5,0
376,288,88002,1,0
424,288,88192,2,0,B|424:232,1,50
424,184,88571,1,4
328,48,89141,6,0,B|256:48,1,50
224,48,89521,2,0,B|152:48,1,50
120,48,89900,2,0,B|120:120,1,50
120,152,90280,2,0,L|176:152,1,50
224,152,90660,2,0,B|224:264,1,100
113,252,91419,2,0,B|57:252,1,50
173,252,91989,5,4
448,336,105280,6,0,B|496:288|440:240,1,100,0|2
448,200,105850,1,2
448,96,106230,1,0
344,96,106609,1,2
344,192,106989,1,0
344,288,107369,1,2
296,288,107559,2,8,B|272:240|296:184,1,100,4|2
192,192,108318,6,0,B|248:192,2,50
144,192,108888,1,2
144,88,109267,1,2
240,88,109647,1,2
336,88,110027,1,2
384,88,110217,1,2
384,184,110597,1,4
384,232,110786,2,2,B|312:232,1,50
320,328,111356,6,2,B|256:304|256:240,1,100
208,256,111926,1,2
104,256,112305,1,0
104,152,112685,1,2
104,48,113065,1,0
200,48,113445,1,2
248,48,113635,2,2,B|312:48,2,50
376,128,114584,5,0
400,168,114774,1,2
376,208,114964,1,2
288,256,115343,2,0,B|192:224|192:144,1,150,0|2
184,104,116103,6,0,L|128:104,2,50,4|0|4
192,56,116673,2,2,B|232:16|288:64,1,100
376,72,117432,6,0,L|416:120,2,50
336,104,118002,2,0,B|376:152|328:208,1,100,2|2
240,200,118761,1,2
240,296,119141,1,2
80,264,119711,6,2,B|40:216|88:168,1,100
183,176,120470,6,0,B|257:144|233:48,1,150,0|2
280,48,121230,1,2
327,47,121419,2,0,B|405:16|469:64,1,150,2|0
464,112,122179,1,0
456,160,122369,2,2,B|456:200|440:232,1,50
432,256,122748,5,0
416,304,122938,1,2
368,328,123128,1,0
319,335,123318,2,0,B|285:352|221:336,1,100,4|0
176,312,123888,1,2
192,264,124078,1,2
224,224,124267,2,0,B|224:176|272:136,1,100,4|0
320,136,124837,2,0,B|368:176|368:240,1,100,4|0
464,208,125597,5,0
464,160,125786,1,4
464,56,126166,1,0
416,56,126356,1,4
312,56,126736,1,0
264,56,126926,1,2
216,56,127116,1,4
136,120,127495,5,0
96,152,127685,1,4
136,176,127875,1,0
184,176,128065,2,2,B|296:176,1,100
336,176,128635,2,2,B|360:192|360:224,1,50
304,296,129204,6,0,B|256:328|200:288,1,100,2|0
168,264,129774,1,2
176,216,129964,1,0
208,176,130154,1,2
304,176,130533,2,0,B|368:192|408:160,1,100,0|2
400,112,131103,2,4,B|400:56,1,50,4|0
352,64,131483,2,2,B|352:128,1,50
304,112,131862,6,0,B|256:72|200:120,1,100,2|4
176,80,132432,1,2
128,88,132622,2,0,B|80:128,1,50
56,152,133002,1,2
56,200,133192,1,2
56,296,133571,1,0
152,296,133951,1,0
152,192,134331,2,0,B|152:136,2,50,2|0|2
200,192,134900,6,0,B|216:248|272:256,1,100,4|0
320,248,135470,2,0,B|368:224,1,50,2|0
408,192,135850,2,0,B|440:144,1,50,2|0
432,96,136230,2,0,B|384:64,1,50,2|0
344,80,136609,2,0,B|288:120,1,50,2|0
264,144,136989,2,0,B|264:200,2,50,0|0|4
136,96,137938,6,0,B|80:128,1,50
48,160,138318,1,4
48,216,138508,1,2
88,312,138888,2,0,B|144:360|192:304,1,100,4|2
280,288,139647,1,4
280,288,139837,1,4
280,288,140027,1,4
328,264,140217,6,2,B|368:312|416:312,2,100
432,152,141546,5,8
432,152,141736,1,8
304,80,142305,2,2,B|256:40|192:88,1,100
136,144,143065,1,8
136,144,143255,1,8
256,192,144015,12,4,145533
136,128,145913,6,0,B|207:128,1,50,0|2
248,128,146293,2,0,B|304:128,1,50,4|2
360,128,146673,2,0,B|400:125,2,25,0|0|0
360,192,147052,5,4
256,192,147432,1,4
152,192,147812,1,4
104,192,148002,6,2,B|104:256,1,50,2|2
104,288,148381,6,0,B|104:328,2,25
152,288,148761,1,2
200,288,148951,2,0,B|312:288,1,100,0|4
352,288,149521,2,2,B|408:288,1,50
448,288,149900,6,0,B|448:232,3,50,0|2|2|0
448,184,150660,1,2
448,136,150850,6,0,B|448:48|349:42,1,150,0|4
256,48,151799,1,4
232,88,151989,1,0
256,128,152179,1,0
216,160,152369,1,4
256,248,152748,1,4
168,288,153128,5,2
104,216,153508,1,2
48,136,153888,1,2
48,88,154078,2,4,B|104:88,1,50
96,40,154457,1,0
192,40,154837,1,0
240,40,155027,1,2
288,40,155217,1,2
336,40,155407,2,0,B|336:104|304:144,1,100,4|0
296,184,155976,5,0
256,216,156166,1,2
208,200,156356,1,2
160,224,156546,1,0
128,264,156736,1,2
256,192,156926,12,4,158445
392,224,158635,6,8,B|440:176|384:128,1,100
344,112,159204,1,2
256,56,159584,1,2
168,112,159964,1,2
120,136,160154,6,8,B|80:176|128:224,1,100
136,272,160723,2,0,B|184:304|232:272,1,100
280,280,161293,2,0,B|280:328,2,25
280,232,161673,1,2
280,232,161862,1,2
328,232,162052,6,0,B|392:232,1,50
480,232,162622,1,4
480,128,163002,2,0,B|368:128,1,100
328,128,163571,1,4
224,136,163951,5,2
184,168,164141,1,2
144,136,164331,1,2
120,88,164521,2,8,B|168:64|224:80,1,100
264,80,165090,5,0
264,80,165280,1,0
360,80,165660,2,0,B|424:96|464:64,2,100,0|8|8
344,128,166609,2,0,B|296:152|312:216,2,100,0|8|8
376,168,167559,1,4
471,167,167938,6,0,B|496:200|472:272,1,100,4|0
424,264,168508,1,0
384,288,168698,1,8
336,264,168888,1,0
296,288,169078,1,8
248,264,169267,1,0
208,288,169457,1,8
168,264,169647,1,8
72,280,170027,1,8
256,192,170217,12,0,170976
