osu file format v5

[General]
AudioFilename: Apple Panic(ED).mp3
AudioLeadIn: 0
PreviewTime: 25154
Countdown: 0
SampleSet: Normal
StackLeniency: 0.7
Mode: 0
LetterboxInBreaks: 1
EditorBookmarks: 24774
EditorDistanceSpacing: 1

[Metadata]
Title:Apple Panic!?
Artist:lala & haruna(Haruka Tomatsu & Sayuri Yahagi)
Creator:abalee
Version:Not Easy
Source:To LOVE Ru OVA ED
Tags:lala haruna Haruka Tomatsu Sayuri Yahagi To LOVE Ru OVA ED

[Difficulty]
HPDrainRate:3
CircleSize:3
OverallDifficulty:3
SliderMultiplier:1
SliderTickRate:2

[Events]
//Background and Video events
0,0,"bg.jpg"
//Break Periods
//Storyboard Layer 0 (Background)
//Storyboard Layer 1 (Failing)
//Storyboard Layer 2 (Passing)
//Storyboard Layer 3 (Foreground)
//Storyboard Sound Samples
//Background Colour Transformations
3,100,245,140,194

[TimingPoints]
1230,379.746835443038,4,2,1,100,1,0
79362,-100,4,1,2,82,0,0

[Colours]
Combo1 : 236,221,139
Combo2 : 245,140,194
Combo3 : 255,255,255
Combo4 : 46,42,140

[HitObjects]
40,192,26293,1,2
136,192,26673,1,2
232,192,27052,2,0,B|344:192,1,100
336,88,27812,2,0,B|272:88,2,50,0|0|2
432,88,28571,2,0,B|432:208,1,100,0|4
432,288,29331,6,0,B|408:352|336:352,1,100,0|2
312,344,29900,2,0,B|312:160,1,150,0|2
312,144,30660,2,0,L|312:88,2,50,0|2|0
264,144,31230,2,0,B|184:136|168:64,2,100,0|2|4
168,176,32369,6,0,B|56:224,1,100,0|2
80,264,32938,2,0,B|208:264,3,100,0|0|2|0
280,264,34457,1,2
72,48,35597,6,0,B|172:48,1,100,0|2
272,48,36356,2,0,B|322:48,1,50,0|4
448,192,38445,6,0,B|296:192,1,150
200,192,39394,1,2
96,192,39774,1,2
96,88,40154,2,0,B|224:88,1,100,2|0
248,88,40723,2,0,B|312:88,2,50,0|0|4
248,184,41483,6,0,B|176:184,2,50,0|2|2
256,232,42052,2,0,B|248:296|304:328,1,100,0|2
400,320,42812,1,0
400,208,43192,1,2
280,112,43761,6,0,B|216:96|200:40,1,100
152,56,44331,2,0,B|52:56,1,100
55,207,45280,2,0,B|63:270|120:269,1,100
168,272,45850,2,0,B|232:272|224:192,1,100
375,200,46799,6,0,B|427:201|427:129,1,100
376,128,47369,2,0,B|324:129|324:58,1,100
256,192,48128,12,4,49837
264,330,50217,6,0,B|264:280,1,50,0|2
264,232,50597,2,0,B|264:176,1,50,0|2
264,128,50976,2,0,B|264:56,1,50
360,128,51546,2,0,B|368:72|432:64,2,100,0|2|0
352,176,52495,2,0,B|352:219|280:248,1,100,0|4
184,240,53255,6,0,B|70:240,1,100,2|0
64,192,53824,2,0,B|32:136|72:88,1,100,2|0
96,64,54394,2,0,B|208:64,1,100,2|0
247,64,54964,2,0,B|277:113|331:112,1,100,2|0
432,120,55723,1,4
432,272,56293,6,0,B|432:216,2,50,0|0|2
328,272,57052,2,0,B|264:272,1,50,0|2
224,184,57622,1,0
120,184,58002,1,2
72,272,58381,1,4
72,120,58951,6,0,B|72:56,3,50,0|0|0|4
168,72,59900,2,0,B|240:72,2,50,0|0|4
415,72,61230,6,0,B|467:109|419:157,1,100,4|2
424,256,61989,1,4
272,256,62559,2,0,B|208:256,1,50
72,256,63318,2,0,B|72:152,1,100,4|0
72,56,64078,2,0,B|144:56,1,50,0|2
256,192,65027,12,4,67305
160,192,68065,5,2
256,192,68445,1,2
352,192,68824,1,2
352,96,69394,2,0,B|312:48|256:96,1,100,2|0
208,96,69964,2,0,B|160:120|112:96,1,100,2|4
64,240,70913,6,0,B|64:312,1,50
160,288,71483,1,4
256,288,71862,2,0,B|360:288,2,100
256,240,72812,2,0,B|256:168,1,50,0|2
304,192,73192,2,0,B|354:192,1,50,0|2
360,88,73761,1,4
256,88,74141,6,0,B|128:88,2,100,0|2|0
104,88,75470,1,2
104,184,75850,1,2
152,184,76040,2,0,B|216:184,2,50,0|2|4
160,336,76989,6,0,B|256:336|320:264,1,150
336,248,77748,1,2
376,216,77938,1,2
416,184,78128,2,4,B|368:144|312:160,1,100,0|4
48,40,79647,5,0
72,80,79837,1,0
96,120,80027,1,0
128,160,80217,2,0,B|232:160,2,100,0|4|0
128,208,81166,1,8
128,208,81356,1,8
128,256,81546,6,0,B|176:272|232:256,1,100,0|8
272,256,82116,1,8
368,256,82495,1,4
424,111,83065,6,8,L|388:148|340:148,1,100
288,144,83635,2,8,L|288:80|240:56,1,100
208,64,84204,2,8,L|208:120,1,50
208,160,84584,2,0,B|104:160,1,100,0|0
112,112,85154,2,8,B|112:40,2,50
112,208,85913,2,0,B|40:208,2,50
176,280,86673,2,0,B|224:320|272:272,1,100,0|2
384,184,87622,5,0
456,112,88002,1,0
456,64,88192,2,0,B|352:64,1,100,0|4
208,64,89141,6,8,B|88:64,1,100
104,112,89711,2,8,B|104:224,1,100
152,208,90280,2,0,L|264:208,1,100,8|8
344,208,91040,2,2,B|400:248|456:200,1,100,2|2
440,160,91609,1,4
440,56,91989,5,4
