osu file format v5

[General]
AudioFilename: Apple Panic(ED).mp3
AudioLeadIn: 0
PreviewTime: 25154
Countdown: 0
SampleSet: Soft
StackLeniency: 0.7
Mode: 0
LetterboxInBreaks: 1
EditorBookmarks: 24774,104141,188445
EditorDistanceSpacing: 1.10000002384186

[Metadata]
Title:Apple Panic!?
Artist:lala & haruna(Haruka Tomatsu & Sayuri Yahagi)
Creator:abalee
Version:Harder
Source:To LOVE Ru OVA ED
Tags:

[Difficulty]
HPDrainRate:5
CircleSize:5
OverallDifficulty:5
SliderMultiplier:1
SliderTickRate:2

[Events]
//Background and Video events
0,0,"bg.jpg"
//Break Periods
2,92189,104080
2,171176,183067
2,185986,188384
//Storyboard Layer 0 (Background)
//Storyboard Layer 1 (Failing)
//Storyboard Layer 2 (Passing)
//Storyboard Layer 3 (Foreground)
//Storyboard Sound Samples
//Background Colour Transformations
3,100,245,140,194

[TimingPoints]
1230,379.746835443038,4,2,1,100,1,0
37021,-100,4,1,1,41,0,0
38160,-100,4,2,1,100,0,0
70438,-100,4,1,1,41,0,0
70818,-100,4,2,1,100,0,0
78413,-100,4,1,1,32,0,0
79552,-100,4,1,1,61,0,0
105185,-100,4,2,1,100,0,0
116008,-100,4,1,1,40,0,0
117242,-100,4,2,1,100,0,0
127305,-100,4,1,1,39,0,0
129014,-100,4,2,1,100,0,0
140122,-100,4,1,1,49,0,0
143824,-100,4,2,1,100,0,0
158540,-100,4,1,1,60,0,0
170312,-50,4,2,1,100,0,0
171071,-100,4,2,1,100,0,0
201071,-100,4,1,1,61,0,0

[Colours]
Combo1 : 236,221,139
Combo2 : 245,140,194
Combo3 : 255,255,255
Combo4 : 46,42,140

[HitObjects]
256,40,26293,1,2
256,96,26483,1,2
256,152,26673,1,2
256,208,26862,2,0,B|312:208,3,50,0|0|0|2
364,207,27622,2,0,B|363:144,2,50,0|2|2
398,255,28192,2,8,B|438:255,2,25,0|0|0
344,256,28571,2,0,B|304:320|248:320,1,100,2|4
160,312,29331,6,0,B|112:312|112:272,2,50,0|0|2
183,261,29900,2,0,B|111:189|183:133,1,150,0|2
216,88,30660,2,0,L|216:32,1,50,0|2
160,40,31040,2,0,B|48:40,1,100,0|2
56,96,31609,1,2
56,96,31799,1,0
56,96,31989,1,4
64,200,32369,6,0,B|64:248|136:280,1,100,0|2
176,296,32938,1,2
240,216,33318,1,0
304,304,33698,1,2
368,216,34078,1,0
432,304,34457,1,2
448,136,35027,6,0,B|344:136,1,100,4|0
296,136,35597,2,0,B|296:184,2,25
248,136,35976,1,2
144,136,36356,1,2
144,136,36546,1,2
96,136,36736,2,0,B|96:184,2,25
48,136,37116,6,2,L|48:56|80:40,1,100
112,48,37685,2,2,L|168:48|216:24,1,100
304,40,38445,5,0
344,72,38635,1,0
384,104,38824,2,0,B|432:136|424:200,1,100,0|2
368,192,39394,2,0,B|352:240|400:304,1,100,0|2
440,288,39964,1,0
440,232,40154,2,0,B|440:128,1,100,2|2
440,72,40723,2,0,B|384:72,1,50,4|0
392,72,41103,1,2
280,72,41483,6,0,B|240:72,2,25
280,128,41862,1,2
280,184,42052,1,2
328,280,42432,1,2
328,280,42622,2,0,B|288:312|208:304,1,100
179,326,43192,1,4
179,326,43381,1,0
179,326,43571,1,2
128,296,43761,6,0,B|48:272|48:224,1,100
48,184,44331,2,0,B|168:184,1,100
200,184,44900,2,2,B|200:224,2,25
256,184,45280,2,0,B|264:248|336:248,1,100
376,248,45850,2,0,B|440:248|432:168,1,100
432,72,46609,5,2
376,72,46799,2,0,B|376:144|320:144,1,100
267,144,47369,2,0,B|211:144|211:56,1,100
256,192,48128,12,4,49837
464,192,50217,6,0,B|464:248,1,50,0|2
408,240,50597,2,0,B|408:184,1,50,0|2
352,192,50976,2,0,B|304:192,2,25
352,80,51546,2,0,B|288:80,1,50,2|0
248,80,51926,1,2
192,80,52116,2,0,B|120:80,1,50,0|2
88,80,52495,2,0,B|88:192,1,100,0|4
176,240,53255,6,0,B|248:240,1,50,2|0
232,296,53635,2,0,B|296:296,1,50,2|0
288,352,54014,2,0,B|360:352,1,50,2|0
392,352,54394,2,0,B|448:352,2,50,2|0|0
392,296,54964,2,0,B|392:184,1,100,2|0
392,197,55723,1,4
296,56,56293,5,2
296,56,56483,1,0
296,112,56673,1,0
296,112,56862,1,2
296,168,57052,2,0,B|232:168,1,50,0|2
160,240,57622,1,4
72,168,58002,1,4
160,104,58381,1,4
328,104,58951,5,2
364,148,59141,1,0
399,101,59331,1,0
433,146,59521,1,4
432,256,59900,1,2
392,296,60090,1,0
352,256,60280,1,4
240,256,60660,6,4,B|176:256,2,50
240,200,61230,2,0,B|288:152|232:112,1,100,2|2
144,48,61989,1,4
48,160,62559,5,0
48,160,62749,1,2
200,216,63318,1,4
200,216,63698,1,4
144,120,64078,1,2
144,120,64267,1,4
195,95,64457,6,0,B|195:47,2,25,2|2|2
304,96,65027,6,0,L|312:104|304:112|312:120|304:128|312:136|304:144|312:152|304:160|312:168|304:176|312:184|304:192|312:200|304:208|312:216|304:224|311:231|303:239|312:248,1,200,0|2
256,192,65976,12,4,67305
88,192,67685,5,4
200,192,68065,5,4
312,192,68445,1,4
424,192,68824,1,4
424,136,69014,6,2,B|472:136,2,25
424,80,69394,2,0,B|304:80,1,100,2|0
268,81,69964,2,0,B|220:81,2,25
323,80,70343,1,4
320,136,70533,6,2,B|264:176,1,50
232,192,70913,1,0
232,192,71103,1,2
304,272,71483,1,4
232,352,71862,2,0,B|112:352,1,100,2|0
136,296,72432,2,2,B|176:296,2,25
136,240,72812,2,0,B|136:168,1,50,0|2
192,192,73192,2,0,B|192:264,1,50,0|2
80,240,73761,1,4
80,128,74141,6,0,B|32:80|88:32,2,100,0|4|0
136,128,75090,2,2,B|136:176,2,25
192,128,75470,1,2
304,128,75850,1,2
248,128,76040,2,0,B|248:72,2,50,0|2|4
248,240,76799,5,4
304,240,76989,2,0,B|400:248|448:160,1,150
440,128,77748,1,2
408,80,77938,1,2
360,56,78128,2,0,B|336:32|304:32,1,50
264,32,78508,5,2
296,136,78888,1,2
240,232,79267,1,2
200,192,79456,1,2
148,170,79647,5,2
96,192,79837,1,0
56,232,80027,1,2
56,288,80217,2,0,B|160:288,2,100,0|4|0
56,344,81166,1,8
56,344,81356,1,8
112,344,81546,6,0,B|160:360|208:328,1,100,0|8
208,272,82116,1,8
288,344,82495,1,4
344,344,82685,2,8,B|344:312,2,25,2|2|2
400,344,83065,6,0,B|432:320|432:288,1,50,0|8
400,256,83445,2,0,B|368:232|368:200,1,50,0|8
408,176,83824,2,0,B|440:152|440:120,1,50,0|8
392,112,84204,2,0,B|360:88|360:56,1,50,0|8
304,72,84584,2,0,B|200:72,1,100,0|0
204,72,85154,1,8
204,72,85343,1,8
144,72,85533,2,0,B|144:120,2,25
88,72,85913,1,4
88,128,86103,6,0,B|88:192,1,50,0|4
152,272,86673,2,0,B|200:312|248:264,1,100,0|0
280,232,87242,2,8,B|304:208|328:232,1,50
376,256,87622,1,0
488,256,88002,1,0
432,256,88192,2,0,B|432:200,1,50
432,206,88571,1,4
320,88,89141,5,0
264,80,89331,1,8
216,112,89521,1,8
232,168,89711,1,0
279,195,89900,1,8
313,237,90090,1,8
282,283,90280,1,0
228,294,90470,1,0
184,260,90660,1,0
112,200,91040,6,2,B|112:96,1,100
113,103,91609,5,4
108,199,91989,5,4
256,336,105280,6,0,B|256:236,1,100,0|2
256,178,105850,2,0,B|304:178,2,25
256,120,106230,1,2
256,64,106419,2,0,B|208:64,2,25
256,176,106989,1,2
200,176,107179,1,0
144,176,107369,1,0
88,176,107559,2,8,B|40:120|88:80,1,100,4|2
184,39,108318,6,0,B|240:39,1,50
232,96,108699,1,0
232,96,108888,1,2
288,96,109078,2,0,B|288:160,1,50
344,144,109457,1,0
400,144,109647,2,0,B|400:248,1,100,2|0
344,244,110217,1,2
244,197,110597,1,4
289,227,110786,2,0,B|241:269,1,50,0|2
143,238,111356,6,2,B|79:214|87:150,1,100
64,112,111926,2,0,B|72:40,1,50
128,56,112305,1,0
216,136,112685,1,4
288,40,113065,1,0
320,88,113255,1,0
368,56,113445,1,4
408,96,113635,2,2,B|432:64|424:40,2,50
456,192,114394,5,4
416,232,114584,5,0
360,224,114774,1,2
336,272,114964,1,2
272,176,115343,2,0,B|264:72|168:64,1,150,0|2
128,64,116103,6,0,L|72:64,2,50,4|0|4
128,120,116673,2,2,L|104:152|144:176|120:192,1,100
48,272,117432,6,0,L|88:320,1,50,0|2
128,280,117812,1,0
184,280,118002,2,0,B|208:336|263:346,1,100,2|4
288,296,118571,1,0
320,344,118761,1,2
376,328,118951,2,0,B|440:312|448:256,1,100,0|2
448,152,119711,6,2,B|488:104|440:64,1,100
328,56,120470,6,0,B|352:152|264:192,1,150,0|2
236,143,121230,1,2
211,89,121419,2,0,B|147:41|67:73,1,150,2|0
40,120,122179,1,0
56,176,122369,2,2,B|96:176,2,25
40,232,122748,5,0
65,284,122938,1,2
32,333,123128,1,0
88,344,123318,2,0,B|152:360|208:336,1,100,4|0
232,304,123888,1,2
192,264,124078,1,2
232,224,124267,2,0,B|232:176|304:128,1,100,4|0
344,144,124837,2,0,B|384:176|392:248,1,100,4|0
448,136,125597,5,0
408,96,125786,1,4
312,56,126166,1,0
256,56,126356,1,4
152,96,126736,1,0
108,130,126926,1,2
159,155,127116,1,4
269,159,127495,5,0
299,208,127685,1,4
353,210,127875,1,0
360,264,128065,2,2,B|328:264,4,25
408,296,128635,2,8,B|440:280,2,25
312,312,129204,6,0,B|264:344|208:304,1,100,2|0
176,272,129774,1,2
184,216,129964,1,0
208,168,130154,1,2
312,152,130533,2,0,B|376:168|416:136,1,100,2|2
408,88,131103,2,4,B|408:32,1,50,4|0
352,40,131483,2,2,B|352:72,2,25
296,40,131862,6,0,B|184:40,1,100,2|4
140,53,132432,1,2
96,88,132622,2,0,B|48:128,1,50
27,169,133002,1,2
58,219,133192,1,2
144,280,133571,1,4
248,248,133951,1,4
280,144,134331,2,0,B|328:120,2,50,2|0|2
312,192,134900,6,0,B|328:248|384:256,1,100,4|0
424,216,135470,2,0,B|472:192,1,50,2|0
456,136,135850,2,0,B|456:72,1,50,2|0
408,56,136230,2,0,B|336:56,1,50,2|0
320,96,136609,2,0,B|272:144,1,50,2|0
240,160,136989,2,2,B|208:128,2,25
260,214,137369,1,4
136,96,137938,6,0,B|80:128,1,50
50,156,138318,1,4
49,211,138508,1,2
88,312,138888,2,0,B|144:360|192:304,1,100,4|2
280,288,139647,1,4
280,288,139837,1,4
280,288,140027,1,4
328,264,140217,6,2,B|368:312|416:312,2,100
440,144,141546,5,8
440,144,141736,1,8
296,64,142305,2,2,B|248:24|184:80,1,100
112,128,143065,1,8
112,128,143255,1,8
85,181,143445,5,0
85,181,143540,1,0
85,181,143635,1,4
256,192,144015,12,4,145154
213,80,145533,6,0,B|325:80,1,100,4|0
368,80,146103,1,2
424,80,146293,5,4
424,136,146483,1,0
424,192,146673,5,4
312,192,147052,5,4
200,192,147432,1,4
88,192,147812,1,4
88,248,148002,6,2,B|88:312,1,50
144,296,148381,2,0,B|144:336,2,25,0|0|0
200,296,148761,1,2
256,296,148951,2,0,B|368:296,1,100,0|4
410,296,149521,1,0
410,296,149616,1,0
410,296,149711,1,2
464,296,149900,6,0,B|464:240,3,50,0|2|2|0
464,192,150660,1,2
464,136,150850,2,0,B|464:48|365:42,1,150,0|4
264,72,151799,1,4
232,120,151989,1,0
254,171,152179,1,0
208,200,152369,1,4
232,248,152559,1,2
232,248,152654,1,2
232,248,152748,1,6
80,320,153128,5,4
176,192,153508,1,4
104,48,153888,1,4
160,48,154078,2,2,B|232:48,1,50
264,48,154457,1,0
376,48,154837,1,0
432,48,155027,1,2
432,48,155217,1,2
488,48,155407,2,0,B|488:112|456:152,1,100,4|0
408,160,155976,5,0
392,216,156166,1,2
344,240,156356,1,2
296,208,156546,1,0
280,152,156736,1,0
232,120,156926,1,2
184,144,157116,1,2
152,192,157305,1,0
256,192,157495,12,4,158445
440,224,158635,6,8,B|488:176|432:128,1,100
388,112,159204,1,2
256,32,159584,1,2
112,104,159964,1,2
64,136,160154,2,8,B|32:184|64:232,1,100
120,232,160723,2,0,B|160:192|216:224,1,100
266,224,161293,2,0,B|266:272,2,25
320,224,161673,1,2
320,224,161862,1,2
376,224,162052,6,0,B|440:224,1,50
424,112,162622,1,4
320,112,163002,2,0,B|208:112,1,100
160,112,163571,1,4
152,200,163951,1,2
101,230,164141,1,2
128,280,164331,1,2
88,320,164521,2,8,B|136:344|192:328,1,100
240,320,165090,5,0
240,320,165280,1,0
352,328,165660,2,0,B|416:344|456:312,2,100,0|8|8
336,272,166609,2,0,B|320:208|384:176,2,100,0|8|8
392,264,167559,1,4
480,192,167938,6,0,B|488:104|448:80,1,100,4|0
416,120,168508,1,0
368,96,168698,1,8
320,120,168888,1,0
272,96,169078,1,8
224,120,169267,1,0
176,88,169457,1,8
128,120,169647,1,8
120,232,170027,1,8
184,320,170407,6,4,B|328:328|272:256|296:168|352:168|360:296,1,300,2|4
256,32,184267,5,4
480,352,185027,5,4
32,352,185786,5,4
256,80,189584,5,2
256,192,189964,1,2
256,304,190343,1,2
256,304,190533,1,4
256,192,190913,2,0,B|368:192,1,100,4|0
408,192,191483,2,2,B|408:224,2,25
464,192,191862,2,0,B|464:80,1,100,4|0
408,80,192432,6,0,B|384:48|312:32,1,100
264,32,193002,1,4
280,88,193192,2,0,B|304:96|312:136,1,50
280,176,193571,1,4
224,176,193761,1,0
168,160,193951,5,4
112,152,194141,1,0
64,184,194331,1,4
28,229,194521,1,4
56,281,194711,1,4
104,312,194900,1,2
104,312,194995,1,2
104,312,195090,1,2
104,312,195280,1,4
200,264,195660,5,4
288,192,196040,1,4
376,128,196419,1,4
416,88,196609,2,0,B|480:88|488:160,1,100,2|2
480,200,197179,2,0,B|464:272,1,50
448,296,197559,2,0,B|384:312,1,50,2|0
344,312,197938,1,0
344,312,198033,1,2
344,312,198128,1,2
344,312,198318,1,4
288,312,198508,6,0,B|224:312,1,50
184,304,198888,2,2,B|120:272,1,50
112,232,199267,2,0,B|128:160,1,50
144,128,199647,2,2,B|200:104,1,50
240,88,200027,2,0,B|304:112,5,50,4|0|4|0|4|4
344,112,201166,5,0
379,153,201356,1,0
392,208,201546,1,0
368,256,201736,2,0,B|320:312|264:280,1,100,4|8
256,240,202305,2,0,B|224:176|168:184,1,100,4|8
128,208,202875,6,0,B|152:256,1,50
96,272,203255,1,8
72,324,203445,1,8
125,341,203635,2,0,B|165:357|197:341,1,50
216,312,204014,1,2
216,312,204204,1,0
216,312,204299,1,0
216,312,204394,1,0
272,312,204584,6,0,B|336:320,3,50
336,264,205343,2,0,B|368:240|368:208,1,50,0|0
384,168,205723,2,0,B|400:136|352:112,1,50,0|0
320,96,206103,1,2
280,136,206293,1,2
232,112,206483,2,8,B|208:80|176:88,1,50
136,96,206862,1,2
96,136,207052,2,8,B|64:160|88:192,1,50
88,232,207432,1,2
136,264,207622,6,0,B|208:336|280:248,2,150,0|4|8
168,216,208951,1,8
200,168,209141,2,0,B|208:104|272:88,2,100,0|4|0
248,192,210090,2,8,B|296:232|359:229,1,100
392,216,210660,5,8
384,160,210850,1,0
352,112,211040,1,0
312,72,211230,1,8
256,64,211419,1,8
200,72,211609,1,0
152,104,211799,1,0
112,144,211989,1,0
80,192,212179,5,4
256,192,212559,1,4
256,192,212938,12,4,213508
