osu file format v12

[General]
AudioFilename: kz(livetune) x 8#Prince feat. Hatsune Miku - Weekender Girl.mp3
AudioLeadIn: 2
PreviewTime: 51249
Countdown: 0
SampleSet: None
StackLeniency: 0.7
Mode: 3
LetterboxInBreaks: 0
SpecialStyle: 0
WidescreenStoryboard: 0

[Editor]
DistanceSpacing: 0.8
BeatDivisor: 4
GridSize: 8

[Metadata]
Title:Weekender Girl
TitleUnicode:Weekender Girl
Artist:kz(livetune) x Hachiouji-P feat. Hatsune Miku
ArtistUnicode:kz(livetune) x Hachiouji-P feat. Hatsune Miku
Creator:Akeipoid VM-01
Version:Challenge
Source:A file I made for stepmania.
Tags:
BeatmapID:306720
BeatmapSetID:119465

[Difficulty]
HPDrainRate:8
CircleSize:4
OverallDifficulty:10
ApproachRate:10
SliderMultiplier:1.4
SliderTickRate:1

[Events]
//Background and Video events
0,0,"background.jpg",0,0
//Break Periods
//Storyboard Layer 0 (Background)
//Storyboard Layer 1 (Fail)
//Storyboard Layer 2 (Pass)
//Storyboard Layer 3 (Foreground)
//Storyboard Sound Samples
//Background Colour Transformations
3,100,163,162,255

[TimingPoints]
-115,454.5454,4,1,0,15,1,0
143974.3,60000000000000,4,1,0,15,1,0
143974.3,60000000000000,4,1,0,15,1,0
143974.3,60000000000000,4,1,0,15,1,0
143974.3,60000000000000,4,1,0,15,1,0
144429.3,454.5454,4,1,0,15,1,0
144429.3,454.5454,4,1,0,15,1,0
144429.3,454.5454,4,1,0,15,1,0
144429.3,454.5454,4,1,0,15,1,0
162203.8,454.5454,4,1,0,15,1,0

[HitObjects]
64,192,339,1,0,0:0:0:0:
448,192,566,1,0,0:0:0:0:
320,192,794,1,0,0:0:0:0:
448,192,907,1,0,0:0:0:0:
64,192,1135,1,0,0:0:0:0:
64,192,1703,1,0,0:0:0:0:
448,192,1816,1,0,0:0:0:0:
64,192,2044,1,0,0:0:0:0:
320,192,2157,1,0,0:0:0:0:
64,192,2385,1,0,0:0:0:0:
448,192,2498,1,0,0:0:0:0:
320,192,2839,1,0,0:0:0:0:
320,192,3294,1,0,0:0:0:0:
192,192,3521,1,0,0:0:0:0:
320,192,3975,1,0,0:0:0:0:
192,0,3975,128,0,7612:1:0:0:0:
64,192,4203,1,0,0:0:0:0:
448,192,4430,1,0,0:0:0:0:
64,192,4544,1,0,0:0:0:0:
320,192,4771,1,0,0:0:0:0:
64,192,5339,1,0,0:0:0:0:
448,192,5453,1,0,0:0:0:0:
320,192,5680,1,0,0:0:0:0:
448,192,5794,1,0,0:0:0:0:
64,192,6021,1,0,0:0:0:0:
320,192,6134,1,0,0:0:0:0:
320,192,6475,1,0,0:0:0:0:
448,192,6930,1,0,0:0:0:0:
64,192,7157,1,0,0:0:0:0:
64,192,7612,1,0,0:0:0:0:
320,192,7612,1,0,0:0:0:0:
192,192,7839,1,0,0:0:0:0:
448,192,8066,1,0,0:0:0:0:
192,192,8180,1,0,0:0:0:0:
320,192,8407,1,0,0:0:0:0:
64,192,8748,1,0,0:0:0:0:
192,192,8748,1,0,0:0:0:0:
320,192,8975,1,0,0:0:0:0:
448,192,8975,1,0,0:0:0:0:
192,192,9089,1,0,0:0:0:0:
320,192,9316,1,0,0:0:0:0:
64,192,9430,1,0,0:0:0:0:
448,192,9430,1,0,0:0:0:0:
320,192,9657,1,0,0:0:0:0:
192,192,9771,1,0,0:0:0:0:
64,192,9885,1,0,0:0:0:0:
448,192,10112,1,0,0:0:0:0:
192,192,10225,1,0,0:0:0:0:
320,192,10566,1,0,0:0:0:0:
448,192,10566,1,0,0:0:0:0:
64,192,10794,1,0,0:0:0:0:
320,192,10794,1,0,0:0:0:0:
64,192,11248,1,0,0:0:0:0:
448,192,11248,1,0,0:0:0:0:
320,192,11475,1,0,0:0:0:0:
192,192,11703,1,0,0:0:0:0:
320,192,11816,1,0,0:0:0:0:
448,192,12044,1,0,0:0:0:0:
192,192,12385,1,0,0:0:0:0:
320,192,12385,1,0,0:0:0:0:
64,192,12612,1,0,0:0:0:0:
320,192,12612,1,0,0:0:0:0:
192,192,12725,1,0,0:0:0:0:
448,192,12953,1,0,0:0:0:0:
64,192,13066,1,0,0:0:0:0:
192,192,13294,1,0,0:0:0:0:
320,192,13350,1,0,0:0:0:0:
448,192,13407,1,0,0:0:0:0:
448,0,13748,128,0,14430:1:0:0:0:
192,0,14203,128,0,14430:1:0:0:0:
320,192,14430,1,0,0:0:0:0:
64,192,14885,1,0,0:0:0:0:
448,192,14885,1,0,0:0:0:0:
320,192,15112,1,0,0:0:0:0:
448,192,15339,1,0,0:0:0:0:
64,192,15566,1,0,0:0:0:0:
192,192,15680,1,0,0:0:0:0:
64,192,15794,1,0,0:0:0:0:
448,192,15794,1,0,0:0:0:0:
320,192,15907,1,0,0:0:0:0:
320,192,16135,1,0,0:0:0:0:
448,192,16248,1,0,0:0:0:0:
192,192,16475,1,0,0:0:0:0:
64,192,16703,1,0,0:0:0:0:
320,192,16703,1,0,0:0:0:0:
448,192,16930,1,0,0:0:0:0:
192,192,17044,1,0,0:0:0:0:
448,192,17157,1,0,0:0:0:0:
192,0,17385,128,0,18066:1:0:0:0:
320,192,17612,1,0,0:0:0:0:
448,192,17612,1,0,0:0:0:0:
448,0,18066,128,0,18521:1:0:0:0:
320,192,18521,1,0,0:0:0:0:
64,192,18748,1,0,0:0:0:0:
448,192,18975,1,0,0:0:0:0:
192,192,19203,1,0,0:0:0:0:
448,192,19316,1,0,0:0:0:0:
64,192,19430,1,0,0:0:0:0:
192,192,19430,1,0,0:0:0:0:
320,192,19544,1,0,0:0:0:0:
320,192,19771,1,0,0:0:0:0:
64,192,19885,1,0,0:0:0:0:
192,192,20112,1,0,0:0:0:0:
320,192,20339,1,0,0:0:0:0:
448,192,20339,1,0,0:0:0:0:
320,192,20680,1,0,0:0:0:0:
64,192,20794,1,0,0:0:0:0:
320,0,21021,128,0,21703:1:0:0:0:
192,192,21248,1,0,0:0:0:0:
448,192,21248,1,0,0:0:0:0:
64,0,21703,128,0,22157:1:0:0:0:
192,192,22157,1,0,0:0:0:0:
448,192,22157,1,0,0:0:0:0:
64,192,22385,1,0,0:0:0:0:
192,192,22612,1,0,0:0:0:0:
448,192,22839,1,0,0:0:0:0:
320,192,22953,1,0,0:0:0:0:
64,192,23066,1,0,0:0:0:0:
448,192,23066,1,0,0:0:0:0:
192,192,23180,1,0,0:0:0:0:
448,192,23407,1,0,0:0:0:0:
320,192,23521,1,0,0:0:0:0:
192,192,23748,1,0,0:0:0:0:
192,192,23975,1,0,0:0:0:0:
448,192,23975,1,0,0:0:0:0:
320,192,24316,1,0,0:0:0:0:
192,192,24430,1,0,0:0:0:0:
448,0,24657,128,0,25339:1:0:0:0:
64,192,24885,1,0,0:0:0:0:
192,192,24885,1,0,0:0:0:0:
192,0,25339,128,0,25794:1:0:0:0:
320,192,25794,1,0,0:0:0:0:
448,192,25794,1,0,0:0:0:0:
64,192,26021,1,0,0:0:0:0:
320,192,26248,1,0,0:0:0:0:
448,192,26475,1,0,0:0:0:0:
192,192,26589,1,0,0:0:0:0:
320,192,26589,1,0,0:0:0:0:
64,192,26930,1,0,0:0:0:0:
320,192,26930,1,0,0:0:0:0:
192,192,27157,1,0,0:0:0:0:
448,192,27157,1,0,0:0:0:0:
320,192,27385,1,0,0:0:0:0:
64,192,27612,1,0,0:0:0:0:
320,192,27612,1,0,0:0:0:0:
320,192,27953,1,0,0:0:0:0:
192,192,28010,1,0,0:0:0:0:
320,192,28066,1,0,0:0:0:0:
320,192,28294,1,0,0:0:0:0:
448,192,28407,1,0,0:0:0:0:
192,192,28521,1,0,0:0:0:0:
64,0,28748,128,0,28975:1:0:0:0:
192,0,28975,128,0,29430:1:0:0:0:
64,192,29430,1,0,0:0:0:0:
448,192,29430,1,0,0:0:0:0:
320,192,29544,1,0,0:0:0:0:
448,192,29657,1,0,0:0:0:0:
192,192,29885,1,0,0:0:0:0:
320,192,29885,1,0,0:0:0:0:
448,192,29998,1,0,0:0:0:0:
64,192,30225,1,0,0:0:0:0:
192,192,30339,1,0,0:0:0:0:
448,192,30339,1,0,0:0:0:0:
320,192,30680,1,0,0:0:0:0:
64,192,30794,1,0,0:0:0:0:
192,192,30794,1,0,0:0:0:0:
448,192,30907,1,0,0:0:0:0:
64,192,31135,1,0,0:0:0:0:
320,192,31248,1,0,0:0:0:0:
448,192,31248,1,0,0:0:0:0:
320,192,31475,1,0,0:0:0:0:
448,192,31589,1,0,0:0:0:0:
192,192,31816,1,0,0:0:0:0:
320,192,31930,1,0,0:0:0:0:
448,192,32044,1,0,0:0:0:0:
320,192,32271,1,0,0:0:0:0:
192,192,32498,1,0,0:0:0:0:
320,192,32725,1,0,0:0:0:0:
192,192,32953,1,0,0:0:0:0:
64,192,33066,1,0,0:0:0:0:
320,192,33066,1,0,0:0:0:0:
448,192,33180,1,0,0:0:0:0:
64,192,33294,1,0,0:0:0:0:
64,192,33521,1,0,0:0:0:0:
448,192,33521,1,0,0:0:0:0:
192,192,33748,1,0,0:0:0:0:
320,192,33975,1,0,0:0:0:0:
448,192,33975,1,0,0:0:0:0:
192,192,34089,1,0,0:0:0:0:
192,192,34316,1,0,0:0:0:0:
64,192,34430,1,0,0:0:0:0:
320,192,34430,1,0,0:0:0:0:
448,192,34544,1,0,0:0:0:0:
320,192,34771,1,0,0:0:0:0:
192,192,34885,1,0,0:0:0:0:
448,192,34885,1,0,0:0:0:0:
64,192,35112,1,0,0:0:0:0:
448,192,35112,1,0,0:0:0:0:
192,192,35225,1,0,0:0:0:0:
320,192,35225,1,0,0:0:0:0:
192,192,35453,1,0,0:0:0:0:
448,192,35453,1,0,0:0:0:0:
320,192,35566,1,0,0:0:0:0:
448,192,35566,1,0,0:0:0:0:
64,192,35794,1,0,0:0:0:0:
320,192,35794,1,0,0:0:0:0:
192,192,35907,1,0,0:0:0:0:
320,192,35907,1,0,0:0:0:0:
64,192,36135,1,0,0:0:0:0:
448,192,36135,1,0,0:0:0:0:
192,192,36248,1,0,0:0:0:0:
320,192,36248,1,0,0:0:0:0:
64,192,36475,1,0,0:0:0:0:
320,192,36475,1,0,0:0:0:0:
192,192,36703,1,0,0:0:0:0:
448,192,36703,1,0,0:0:0:0:
64,192,36816,1,0,0:0:0:0:
320,192,36930,1,0,0:0:0:0:
64,192,37157,1,0,0:0:0:0:
448,192,37157,1,0,0:0:0:0:
320,192,37271,1,0,0:0:0:0:
192,192,37498,1,0,0:0:0:0:
320,192,37612,1,0,0:0:0:0:
448,192,37612,1,0,0:0:0:0:
64,192,37953,1,0,0:0:0:0:
192,192,38066,1,0,0:0:0:0:
448,192,38066,1,0,0:0:0:0:
320,192,38180,1,0,0:0:0:0:
192,192,38407,1,0,0:0:0:0:
64,192,38521,1,0,0:0:0:0:
320,192,38521,1,0,0:0:0:0:
320,192,38748,1,0,0:0:0:0:
192,192,38862,1,0,0:0:0:0:
448,192,39089,1,0,0:0:0:0:
64,192,39203,1,0,0:0:0:0:
320,192,39316,1,0,0:0:0:0:
64,192,39544,1,0,0:0:0:0:
448,192,39771,1,0,0:0:0:0:
64,192,39998,1,0,0:0:0:0:
448,192,40226,1,0,0:0:0:0:
64,192,40339,1,0,0:0:0:0:
192,192,40339,1,0,0:0:0:0:
320,192,40453,1,0,0:0:0:0:
192,192,40566,1,0,0:0:0:0:
64,192,40794,1,0,0:0:0:0:
320,192,40794,1,0,0:0:0:0:
448,192,41021,1,0,0:0:0:0:
192,192,41248,1,0,0:0:0:0:
320,192,41248,1,0,0:0:0:0:
448,192,41362,1,0,0:0:0:0:
320,192,41589,1,0,0:0:0:0:
64,192,41703,1,0,0:0:0:0:
448,192,41703,1,0,0:0:0:0:
192,192,41816,1,0,0:0:0:0:
320,192,41930,1,0,0:0:0:0:
448,192,41930,1,0,0:0:0:0:
64,192,42044,1,0,0:0:0:0:
320,192,42157,1,0,0:0:0:0:
448,192,42157,1,0,0:0:0:0:
192,192,42385,1,0,0:0:0:0:
64,192,42498,1,0,0:0:0:0:
320,192,42726,1,0,0:0:0:0:
64,192,42839,1,0,0:0:0:0:
64,0,43294,128,0,43976:1:0:0:0:
320,192,43976,1,0,0:0:0:0:
448,192,43976,1,0,0:0:0:0:
64,192,44203,1,0,0:0:0:0:
192,192,44430,1,0,0:0:0:0:
320,192,44430,1,0,0:0:0:0:
448,192,44657,1,0,0:0:0:0:
320,192,44771,1,0,0:0:0:0:
64,192,44885,1,0,0:0:0:0:
448,192,44885,1,0,0:0:0:0:
192,192,44998,1,0,0:0:0:0:
448,192,45226,1,0,0:0:0:0:
192,192,45339,1,0,0:0:0:0:
320,192,45339,1,0,0:0:0:0:
64,192,45566,1,0,0:0:0:0:
320,192,45794,1,0,0:0:0:0:
448,192,45794,1,0,0:0:0:0:
320,192,46135,1,0,0:0:0:0:
64,192,46248,1,0,0:0:0:0:
192,192,46248,1,0,0:0:0:0:
448,0,46476,128,0,47157:1:0:0:0:
64,192,46703,1,0,0:0:0:0:
320,192,46703,1,0,0:0:0:0:
192,0,47157,128,0,47612:1:0:0:0:
64,192,47612,1,0,0:0:0:0:
448,192,47612,1,0,0:0:0:0:
320,192,47839,1,0,0:0:0:0:
64,192,48066,1,0,0:0:0:0:
192,192,48066,1,0,0:0:0:0:
320,192,48294,1,0,0:0:0:0:
448,192,48407,1,0,0:0:0:0:
192,192,48521,1,0,0:0:0:0:
320,192,48521,1,0,0:0:0:0:
320,192,48748,1,0,0:0:0:0:
64,192,48976,1,0,0:0:0:0:
448,192,48976,1,0,0:0:0:0:
192,192,49203,1,0,0:0:0:0:
320,192,49430,1,0,0:0:0:0:
448,192,49430,1,0,0:0:0:0:
192,192,49771,1,0,0:0:0:0:
320,192,49885,1,0,0:0:0:0:
448,192,49885,1,0,0:0:0:0:
64,0,50112,128,0,50794:1:0:0:0:
192,192,50339,1,0,0:0:0:0:
448,192,50339,1,0,0:0:0:0:
320,192,50794,1,0,0:0:0:0:
448,0,50794,128,0,51248:1:0:0:0:
192,192,51248,1,0,0:0:0:0:
320,192,51248,1,0,0:0:0:0:
192,192,51476,1,0,0:0:0:0:
64,192,51703,1,0,0:0:0:0:
448,192,51703,1,0,0:0:0:0:
320,192,51930,1,0,0:0:0:0:
448,192,52044,1,0,0:0:0:0:
192,192,52157,1,0,0:0:0:0:
320,192,52157,1,0,0:0:0:0:
64,192,52271,1,0,0:0:0:0:
448,192,52498,1,0,0:0:0:0:
64,192,52612,1,0,0:0:0:0:
320,192,52612,1,0,0:0:0:0:
320,192,52839,1,0,0:0:0:0:
192,192,53066,1,0,0:0:0:0:
448,192,53066,1,0,0:0:0:0:
192,192,53407,1,0,0:0:0:0:
64,192,53521,1,0,0:0:0:0:
448,192,53521,1,0,0:0:0:0:
320,0,53748,128,0,54430:1:0:0:0:
192,192,53976,1,0,0:0:0:0:
448,192,53976,1,0,0:0:0:0:
64,192,54430,1,0,0:0:0:0:
192,192,54430,1,0,0:0:0:0:
320,192,54885,1,0,0:0:0:0:
448,192,54885,1,0,0:0:0:0:
64,192,55112,1,0,0:0:0:0:
320,192,55112,1,0,0:0:0:0:
192,192,55339,1,0,0:0:0:0:
448,192,55339,1,0,0:0:0:0:
448,192,55566,1,0,0:0:0:0:
192,192,55680,1,0,0:0:0:0:
320,192,55680,1,0,0:0:0:0:
192,192,56021,1,0,0:0:0:0:
320,192,56021,1,0,0:0:0:0:
320,192,56248,1,0,0:0:0:0:
448,192,56248,1,0,0:0:0:0:
192,192,56476,1,0,0:0:0:0:
320,192,56476,1,0,0:0:0:0:
64,192,56703,1,0,0:0:0:0:
192,192,56703,1,0,0:0:0:0:
192,192,57044,1,0,0:0:0:0:
320,192,57101,1,0,0:0:0:0:
192,192,57157,1,0,0:0:0:0:
448,0,57385,128,0,58066:1:0:0:0:
320,192,57498,1,0,0:0:0:0:
192,192,57612,1,0,0:0:0:0:
320,0,58066,128,0,58521:1:0:0:0:
192,0,58521,128,0,58578:1:0:0:0:
64,0,58521,128,0,59885:1:0:0:0:
448,0,58862,128,0,58919:1:0:0:0:
320,0,59203,128,0,59260:1:0:0:0:
192,0,59544,128,0,59600:1:0:0:0:
448,0,59885,128,0,59941:1:0:0:0:
448,192,60339,1,0,0:0:0:0:
192,0,60339,128,0,60396:1:0:0:0:
320,192,60566,1,0,0:0:0:0:
192,0,60680,128,0,60737:1:0:0:0:
320,192,60794,1,0,0:0:0:0:
448,0,60794,128,0,60850:1:0:0:0:
64,0,61021,128,0,61078:1:0:0:0:
320,192,61248,1,0,0:0:0:0:
64,0,61362,128,0,61419:1:0:0:0:
192,192,61475,1,0,0:0:0:0:
320,0,61703,128,0,61759:1:0:0:0:
64,0,61703,128,0,63975:1:0:0:0:
448,0,62157,128,0,62214:1:0:0:0:
320,0,62498,128,0,62555:1:0:0:0:
448,0,62839,128,0,62896:1:0:0:0:
192,0,63180,128,0,63237:1:0:0:0:
448,0,63521,128,0,63578:1:0:0:0:
320,0,63975,128,0,64032:1:0:0:0:
320,0,64316,128,0,64373:1:0:0:0:
192,0,64430,128,0,64487:1:0:0:0:
64,192,64657,1,0,0:0:0:0:
320,0,64657,128,0,64714:1:0:0:0:
448,192,64884,1,0,0:0:0:0:
320,0,64998,128,0,65055:1:0:0:0:
192,192,65112,1,0,0:0:0:0:
320,0,65339,128,0,65396:1:0:0:0:
64,0,65566,128,0,65623:1:0:0:0:
320,192,65793,1,0,0:0:0:0:
448,192,65793,1,0,0:0:0:0:
64,192,66248,1,0,0:0:0:0:
448,192,66248,1,0,0:0:0:0:
192,192,66703,1,0,0:0:0:0:
320,192,66703,1,0,0:0:0:0:
192,192,67157,1,0,0:0:0:0:
448,192,67157,1,0,0:0:0:0:
192,192,67612,1,0,0:0:0:0:
320,192,67725,1,0,0:0:0:0:
192,192,67953,1,0,0:0:0:0:
448,192,68066,1,0,0:0:0:0:
320,192,68293,1,0,0:0:0:0:
192,192,68407,1,0,0:0:0:0:
320,192,68634,1,0,0:0:0:0:
192,192,68748,1,0,0:0:0:0:
192,192,68975,1,0,0:0:0:0:
320,192,69089,1,0,0:0:0:0:
64,192,69203,1,0,0:0:0:0:
192,192,69316,1,0,0:0:0:0:
448,192,69430,1,0,0:0:0:0:
320,192,69543,1,0,0:0:0:0:
192,192,69657,1,0,0:0:0:0:
64,192,69771,1,0,0:0:0:0:
320,192,69884,1,0,0:0:0:0:
448,192,69998,1,0,0:0:0:0:
320,192,70112,1,0,0:0:0:0:
192,192,70168,1,0,0:0:0:0:
64,192,70225,1,0,0:0:0:0:
192,192,70282,1,0,0:0:0:0:
320,192,70339,1,0,0:0:0:0:
448,192,70396,1,0,0:0:0:0:
320,192,70453,1,0,0:0:0:0:
192,192,70509,1,0,0:0:0:0:
64,192,70566,1,0,0:0:0:0:
192,192,70680,1,0,0:0:0:0:
320,192,70794,1,0,0:0:0:0:
192,192,70907,1,0,0:0:0:0:
448,192,71021,1,0,0:0:0:0:
320,192,71134,1,0,0:0:0:0:
64,192,71248,1,0,0:0:0:0:
448,192,71248,1,0,0:0:0:0:
320,192,71703,1,0,0:0:0:0:
448,192,72157,1,0,0:0:0:0:
320,192,72384,1,0,0:0:0:0:
192,192,72612,1,0,0:0:0:0:
320,192,72612,1,0,0:0:0:0:
448,192,72839,1,0,0:0:0:0:
64,192,73066,1,0,0:0:0:0:
448,192,73066,1,0,0:0:0:0:
320,192,73521,1,0,0:0:0:0:
448,192,73521,1,0,0:0:0:0:
192,192,73748,1,0,0:0:0:0:
64,192,73975,1,0,0:0:0:0:
448,192,73975,1,0,0:0:0:0:
64,192,74430,1,0,0:0:0:0:
320,0,74430,128,0,75339:1:0:0:0:
64,192,74884,1,0,0:0:0:0:
192,192,74884,1,0,0:0:0:0:
64,192,75339,1,0,0:0:0:0:
448,192,75339,1,0,0:0:0:0:
448,192,75566,1,0,0:0:0:0:
64,192,75793,1,0,0:0:0:0:
320,192,75793,1,0,0:0:0:0:
192,192,76021,1,0,0:0:0:0:
320,192,76248,1,0,0:0:0:0:
448,192,76248,1,0,0:0:0:0:
192,192,76475,1,0,0:0:0:0:
448,192,76703,1,0,0:0:0:0:
64,0,76703,128,0,77157:1:0:0:0:
192,192,77157,1,0,0:0:0:0:
320,192,77157,1,0,0:0:0:0:
320,192,77384,1,0,0:0:0:0:
64,192,77612,1,0,0:0:0:0:
448,192,77612,1,0,0:0:0:0:
448,192,77839,1,0,0:0:0:0:
320,192,78066,1,0,0:0:0:0:
448,192,78066,1,0,0:0:0:0:
192,0,78293,128,0,78975:1:0:0:0:
64,192,78521,1,0,0:0:0:0:
448,192,78521,1,0,0:0:0:0:
64,192,78975,1,0,0:0:0:0:
320,192,78975,1,0,0:0:0:0:
192,192,79430,1,0,0:0:0:0:
320,192,79430,1,0,0:0:0:0:
64,192,79884,1,0,0:0:0:0:
448,192,79884,1,0,0:0:0:0:
192,192,80339,1,0,0:0:0:0:
320,0,80339,128,0,80793:1:0:0:0:
64,192,80793,1,0,0:0:0:0:
448,192,80793,1,0,0:0:0:0:
192,0,81021,128,0,81703:1:0:0:0:
320,192,81248,1,0,0:0:0:0:
448,192,81248,1,0,0:0:0:0:
64,192,81703,1,0,0:0:0:0:
320,192,81703,1,0,0:0:0:0:
448,192,81930,1,0,0:0:0:0:
192,192,82157,1,0,0:0:0:0:
320,192,82157,1,0,0:0:0:0:
64,192,82384,1,0,0:0:0:0:
192,192,82612,1,0,0:0:0:0:
448,192,82612,1,0,0:0:0:0:
320,0,82839,128,0,83521:1:0:0:0:
64,192,83066,1,0,0:0:0:0:
192,192,83066,1,0,0:0:0:0:
192,192,83521,1,0,0:0:0:0:
448,192,83521,1,0,0:0:0:0:
448,192,83748,1,0,0:0:0:0:
192,192,83975,1,0,0:0:0:0:
320,192,83975,1,0,0:0:0:0:
192,192,84430,1,0,0:0:0:0:
448,192,84430,1,0,0:0:0:0:
448,192,84657,1,0,0:0:0:0:
64,192,84884,1,0,0:0:0:0:
192,192,84884,1,0,0:0:0:0:
320,192,85112,1,0,0:0:0:0:
192,192,85339,1,0,0:0:0:0:
448,192,85339,1,0,0:0:0:0:
320,192,85566,1,0,0:0:0:0:
64,192,85793,1,0,0:0:0:0:
448,192,85793,1,0,0:0:0:0:
320,192,86021,1,0,0:0:0:0:
448,192,86134,1,0,0:0:0:0:
64,192,86248,1,0,0:0:0:0:
320,192,86248,1,0,0:0:0:0:
64,192,86475,1,0,0:0:0:0:
448,192,86475,1,0,0:0:0:0:
192,192,86703,1,0,0:0:0:0:
320,192,86703,1,0,0:0:0:0:
64,192,86816,1,0,0:0:0:0:
192,192,86930,1,0,0:0:0:0:
448,192,86930,1,0,0:0:0:0:
320,192,87157,1,0,0:0:0:0:
448,192,87157,1,0,0:0:0:0:
192,192,87384,1,0,0:0:0:0:
320,192,87384,1,0,0:0:0:0:
448,192,87612,1,0,0:0:0:0:
64,0,87612,128,0,88293:1:0:0:0:
320,192,88066,1,0,0:0:0:0:
448,192,88066,1,0,0:0:0:0:
192,0,88293,128,0,88975:1:0:0:0:
64,192,88521,1,0,0:0:0:0:
448,192,88521,1,0,0:0:0:0:
64,192,88975,1,0,0:0:0:0:
448,0,88975,128,0,89657:1:0:0:0:
64,192,89430,1,0,0:0:0:0:
192,192,89430,1,0,0:0:0:0:
192,192,89884,1,0,0:0:0:0:
448,192,89884,1,0,0:0:0:0:
64,192,90112,1,0,0:0:0:0:
192,192,90339,1,0,0:0:0:0:
320,192,90339,1,0,0:0:0:0:
320,192,90566,1,0,0:0:0:0:
192,192,90793,1,0,0:0:0:0:
448,192,90793,1,0,0:0:0:0:
192,192,91021,1,0,0:0:0:0:
320,192,91248,1,0,0:0:0:0:
448,192,91248,1,0,0:0:0:0:
64,192,91703,1,0,0:0:0:0:
320,192,91703,1,0,0:0:0:0:
320,192,91930,1,0,0:0:0:0:
64,192,92157,1,0,0:0:0:0:
192,192,92157,1,0,0:0:0:0:
448,192,92384,1,0,0:0:0:0:
64,192,92612,1,0,0:0:0:0:
192,192,92612,1,0,0:0:0:0:
320,0,92839,128,0,93521:1:0:0:0:
64,192,93066,1,0,0:0:0:0:
192,192,93066,1,0,0:0:0:0:
192,192,93521,1,0,0:0:0:0:
448,192,93521,1,0,0:0:0:0:
64,192,93975,1,0,0:0:0:0:
448,0,93975,128,0,94430:1:0:0:0:
320,192,94430,1,0,0:0:0:0:
192,0,94430,128,0,94884:1:0:0:0:
448,192,94884,1,0,0:0:0:0:
320,0,94884,128,0,95339:1:0:0:0:
64,192,95339,1,0,0:0:0:0:
192,192,95339,1,0,0:0:0:0:
192,0,95566,128,0,96248:1:0:0:0:
64,192,95793,1,0,0:0:0:0:
448,192,95793,1,0,0:0:0:0:
320,192,96248,1,0,0:0:0:0:
448,192,96248,1,0,0:0:0:0:
320,192,96475,1,0,0:0:0:0:
192,192,96703,1,0,0:0:0:0:
448,192,96703,1,0,0:0:0:0:
320,192,96930,1,0,0:0:0:0:
192,192,97157,1,0,0:0:0:0:
320,192,97157,1,0,0:0:0:0:
320,0,97384,128,0,98066:1:0:0:0:
64,192,97612,1,0,0:0:0:0:
448,192,97612,1,0,0:0:0:0:
64,192,98066,1,0,0:0:0:0:
192,192,98066,1,0,0:0:0:0:
192,192,98293,1,0,0:0:0:0:
64,192,98521,1,0,0:0:0:0:
448,192,98521,1,0,0:0:0:0:
192,192,98975,1,0,0:0:0:0:
448,192,98975,1,0,0:0:0:0:
192,192,99203,1,0,0:0:0:0:
320,192,99203,1,0,0:0:0:0:
320,192,99657,1,0,0:0:0:0:
448,192,99657,1,0,0:0:0:0:
64,192,99884,1,0,0:0:0:0:
192,192,100112,1,0,0:0:0:0:
320,192,100112,1,0,0:0:0:0:
192,192,100793,1,0,0:0:0:0:
448,192,101248,1,0,0:0:0:0:
320,192,101703,1,0,0:0:0:0:
448,192,101703,1,0,0:0:0:0:
448,192,102157,1,0,0:0:0:0:
64,0,102157,128,0,104884:1:0:0:0:
320,192,102271,1,0,0:0:0:0:
448,192,102384,1,0,0:0:0:0:
320,192,102612,1,0,0:0:0:0:
448,192,102612,1,0,0:0:0:0:
192,192,102725,1,0,0:0:0:0:
320,192,102953,1,0,0:0:0:0:
192,192,103066,1,0,0:0:0:0:
448,192,103066,1,0,0:0:0:0:
448,192,103407,1,0,0:0:0:0:
192,192,103521,1,0,0:0:0:0:
320,192,103521,1,0,0:0:0:0:
448,192,103634,1,0,0:0:0:0:
192,192,103862,1,0,0:0:0:0:
320,192,103975,1,0,0:0:0:0:
448,192,103975,1,0,0:0:0:0:
320,192,104203,1,0,0:0:0:0:
448,192,104316,1,0,0:0:0:0:
192,192,104543,1,0,0:0:0:0:
320,192,104657,1,0,0:0:0:0:
448,192,104771,1,0,0:0:0:0:
320,192,104998,1,0,0:0:0:0:
192,192,105225,1,0,0:0:0:0:
320,192,105452,1,0,0:0:0:0:
192,192,105680,1,0,0:0:0:0:
64,192,105793,1,0,0:0:0:0:
320,192,105793,1,0,0:0:0:0:
448,192,105907,1,0,0:0:0:0:
64,192,106021,1,0,0:0:0:0:
64,192,106248,1,0,0:0:0:0:
448,192,106248,1,0,0:0:0:0:
192,192,106475,1,0,0:0:0:0:
320,192,106702,1,0,0:0:0:0:
448,192,106702,1,0,0:0:0:0:
192,192,106816,1,0,0:0:0:0:
192,192,107043,1,0,0:0:0:0:
64,192,107157,1,0,0:0:0:0:
320,192,107157,1,0,0:0:0:0:
448,192,107271,1,0,0:0:0:0:
320,192,107498,1,0,0:0:0:0:
192,192,107612,1,0,0:0:0:0:
448,192,107612,1,0,0:0:0:0:
64,192,107839,1,0,0:0:0:0:
448,192,107839,1,0,0:0:0:0:
192,192,107952,1,0,0:0:0:0:
320,192,107952,1,0,0:0:0:0:
64,0,108066,128,0,108123:1:0:0:0:
192,192,108180,1,0,0:0:0:0:
448,192,108180,1,0,0:0:0:0:
320,192,108293,1,0,0:0:0:0:
448,192,108293,1,0,0:0:0:0:
192,192,108521,1,0,0:0:0:0:
448,0,108521,128,0,108577:1:0:0:0:
64,192,108634,1,0,0:0:0:0:
320,192,108634,1,0,0:0:0:0:
192,0,108748,128,0,108805:1:0:0:0:
64,192,108862,1,0,0:0:0:0:
448,192,108862,1,0,0:0:0:0:
192,192,108975,1,0,0:0:0:0:
320,192,108975,1,0,0:0:0:0:
64,192,109202,1,0,0:0:0:0:
320,0,109202,128,0,109259:1:0:0:0:
192,192,109430,1,0,0:0:0:0:
448,0,109430,128,0,112157:1:0:0:0:
64,192,109543,1,0,0:0:0:0:
320,192,109657,1,0,0:0:0:0:
64,192,109884,1,0,0:0:0:0:
192,192,109884,1,0,0:0:0:0:
320,192,109998,1,0,0:0:0:0:
192,192,110225,1,0,0:0:0:0:
64,192,110339,1,0,0:0:0:0:
320,192,110339,1,0,0:0:0:0:
64,192,110680,1,0,0:0:0:0:
192,192,110793,1,0,0:0:0:0:
320,192,110793,1,0,0:0:0:0:
64,192,110907,1,0,0:0:0:0:
192,192,111134,1,0,0:0:0:0:
64,192,111248,1,0,0:0:0:0:
320,192,111248,1,0,0:0:0:0:
320,192,111475,1,0,0:0:0:0:
192,192,111589,1,0,0:0:0:0:
320,192,111816,1,0,0:0:0:0:
64,192,111930,1,0,0:0:0:0:
320,192,112043,1,0,0:0:0:0:
64,192,112271,1,0,0:0:0:0:
448,192,112498,1,0,0:0:0:0:
64,192,112725,1,0,0:0:0:0:
448,192,112952,1,0,0:0:0:0:
64,192,113066,1,0,0:0:0:0:
192,192,113066,1,0,0:0:0:0:
320,192,113180,1,0,0:0:0:0:
192,192,113293,1,0,0:0:0:0:
64,192,113521,1,0,0:0:0:0:
320,192,113521,1,0,0:0:0:0:
448,192,113748,1,0,0:0:0:0:
192,192,113975,1,0,0:0:0:0:
320,192,113975,1,0,0:0:0:0:
448,192,114089,1,0,0:0:0:0:
320,192,114316,1,0,0:0:0:0:
64,192,114430,1,0,0:0:0:0:
448,192,114430,1,0,0:0:0:0:
192,192,114543,1,0,0:0:0:0:
320,192,114657,1,0,0:0:0:0:
448,192,114657,1,0,0:0:0:0:
64,192,114771,1,0,0:0:0:0:
320,192,114884,1,0,0:0:0:0:
448,192,114884,1,0,0:0:0:0:
192,192,115112,1,0,0:0:0:0:
64,192,115225,1,0,0:0:0:0:
320,192,115452,1,0,0:0:0:0:
64,192,115566,1,0,0:0:0:0:
64,0,116021,128,0,116702:1:0:0:0:
320,192,116702,1,0,0:0:0:0:
192,192,116930,1,0,0:0:0:0:
64,192,117157,1,0,0:0:0:0:
320,192,117384,1,0,0:0:0:0:
448,192,117498,1,0,0:0:0:0:
320,192,117725,1,0,0:0:0:0:
192,192,118066,1,0,0:0:0:0:
192,192,118293,1,0,0:0:0:0:
448,192,118520,1,0,0:0:0:0:
192,192,118861,1,0,0:0:0:0:
320,0,119202,128,0,119657:1:0:0:0:
192,0,119884,128,0,120339:1:0:0:0:
64,192,120339,1,0,0:0:0:0:
448,192,120566,1,0,0:0:0:0:
192,192,120793,1,0,0:0:0:0:
448,192,121020,1,0,0:0:0:0:
320,192,121134,1,0,0:0:0:0:
320,192,121361,1,0,0:0:0:0:
320,192,121589,1,0,0:0:0:0:
192,192,121702,1,0,0:0:0:0:
320,192,121929,1,0,0:0:0:0:
448,192,122157,1,0,0:0:0:0:
320,192,122498,1,0,0:0:0:0:
192,0,122839,128,0,123975:1:0:0:0:
448,0,123520,128,0,123975:1:0:0:0:
64,192,123975,1,0,0:0:0:0:
320,192,123975,1,0,0:0:0:0:
320,192,124202,1,0,0:0:0:0:
192,192,124429,1,0,0:0:0:0:
448,192,124429,1,0,0:0:0:0:
64,192,124657,1,0,0:0:0:0:
192,192,124770,1,0,0:0:0:0:
64,192,124884,1,0,0:0:0:0:
320,192,124884,1,0,0:0:0:0:
448,192,124998,1,0,0:0:0:0:
192,192,125225,1,0,0:0:0:0:
64,192,125338,1,0,0:0:0:0:
320,192,125338,1,0,0:0:0:0:
320,192,125566,1,0,0:0:0:0:
192,192,125793,1,0,0:0:0:0:
448,192,125793,1,0,0:0:0:0:
320,192,126134,1,0,0:0:0:0:
64,192,126248,1,0,0:0:0:0:
192,192,126248,1,0,0:0:0:0:
448,0,126475,128,0,127157:1:0:0:0:
192,192,126702,1,0,0:0:0:0:
320,192,126702,1,0,0:0:0:0:
64,192,127157,1,0,0:0:0:0:
320,192,127157,1,0,0:0:0:0:
192,192,127611,1,0,0:0:0:0:
448,192,127611,1,0,0:0:0:0:
64,192,127838,1,0,0:0:0:0:
192,192,127838,1,0,0:0:0:0:
320,192,128066,1,0,0:0:0:0:
448,192,128066,1,0,0:0:0:0:
192,192,128293,1,0,0:0:0:0:
320,192,128407,1,0,0:0:0:0:
448,192,128407,1,0,0:0:0:0:
64,192,128747,1,0,0:0:0:0:
320,192,128747,1,0,0:0:0:0:
192,192,128975,1,0,0:0:0:0:
448,192,128975,1,0,0:0:0:0:
64,192,129202,1,0,0:0:0:0:
192,192,129202,1,0,0:0:0:0:
320,192,129429,1,0,0:0:0:0:
448,192,129429,1,0,0:0:0:0:
64,192,129770,1,0,0:0:0:0:
448,192,129827,1,0,0:0:0:0:
64,192,129884,1,0,0:0:0:0:
192,0,130111,128,0,130566:1:0:0:0:
320,192,130225,1,0,0:0:0:0:
448,192,130338,1,0,0:0:0:0:
64,192,130793,1,0,0:0:0:0:
448,0,130793,128,0,131247:1:0:0:0:
64,0,131247,128,0,131304:1:0:0:0:
192,0,131247,128,0,132668:1:0:0:0:
320,0,131588,128,0,131645:1:0:0:0:
448,0,131929,128,0,131986:1:0:0:0:
64,0,132270,128,0,132327:1:0:0:0:
320,0,132611,128,0,132668:1:0:0:0:
192,192,133065,1,0,0:0:0:0:
64,0,133065,128,0,133122:1:0:0:0:
448,192,133293,1,0,0:0:0:0:
64,0,133406,128,0,133463:1:0:0:0:
448,192,133520,1,0,0:0:0:0:
192,0,133520,128,0,133577:1:0:0:0:
320,0,133747,128,0,133804:1:0:0:0:
448,192,133974,1,0,0:0:0:0:
320,0,134088,128,0,134145:1:0:0:0:
64,192,134202,1,0,0:0:0:0:
448,0,134429,128,0,134486:1:0:0:0:
320,0,134429,128,0,136701:1:0:0:0:
192,0,134883,128,0,134940:1:0:0:0:
448,0,135224,128,0,135281:1:0:0:0:
192,0,135565,128,0,135622:1:0:0:0:
64,0,135906,128,0,135963:1:0:0:0:
192,0,136247,128,0,136304:1:0:0:0:
448,0,136701,128,0,136758:1:0:0:0:
448,0,137042,128,0,137099:1:0:0:0:
64,0,137156,128,0,137213:1:0:0:0:
320,192,137383,1,0,0:0:0:0:
448,0,137383,128,0,137440:1:0:0:0:
192,192,137610,1,0,0:0:0:0:
448,0,137724,128,0,137781:1:0:0:0:
64,192,137838,1,0,0:0:0:0:
448,0,138065,128,0,138122:1:0:0:0:
320,0,138292,128,0,138349:1:0:0:0:
448,192,138519,1,0,0:0:0:0:
64,0,138519,128,0,139656:1:0:0:0:
192,192,138974,1,0,0:0:0:0:
448,192,138974,1,0,0:0:0:0:
192,192,139428,1,0,0:0:0:0:
320,192,139428,1,0,0:0:0:0:
64,192,139883,1,0,0:0:0:0:
448,192,139883,1,0,0:0:0:0:
192,192,140338,1,0,0:0:0:0:
448,192,140338,1,0,0:0:0:0:
192,192,140678,1,0,0:0:0:0:
448,192,140678,1,0,0:0:0:0:
64,192,140792,1,0,0:0:0:0:
320,192,141019,1,0,0:0:0:0:
448,192,141019,1,0,0:0:0:0:
64,192,141133,1,0,0:0:0:0:
64,192,141360,1,0,0:0:0:0:
448,192,141360,1,0,0:0:0:0:
192,192,141474,1,0,0:0:0:0:
192,192,141701,1,0,0:0:0:0:
448,192,141701,1,0,0:0:0:0:
320,192,141815,1,0,0:0:0:0:
448,192,141928,1,0,0:0:0:0:
192,192,142156,1,0,0:0:0:0:
64,192,142269,1,0,0:0:0:0:
192,192,142383,1,0,0:0:0:0:
320,192,142497,1,0,0:0:0:0:
448,192,142610,1,0,0:0:0:0:
320,192,142724,1,0,0:0:0:0:
192,192,142837,1,0,0:0:0:0:
64,192,142894,1,0,0:0:0:0:
192,192,142951,1,0,0:0:0:0:
320,192,143008,1,0,0:0:0:0:
448,192,143065,1,0,0:0:0:0:
320,192,143122,1,0,0:0:0:0:
192,192,143178,1,0,0:0:0:0:
64,192,143235,1,0,0:0:0:0:
192,192,143292,1,0,0:0:0:0:
320,192,143406,1,0,0:0:0:0:
192,192,143519,1,0,0:0:0:0:
64,192,143633,1,0,0:0:0:0:
192,192,143747,1,0,0:0:0:0:
320,192,143860,1,0,0:0:0:0:
64,192,143974,1,0,0:0:0:0:
448,192,143974,1,0,0:0:0:0:
320,192,144656,1,0,0:0:0:0:
64,192,144883,1,0,0:0:0:0:
192,192,145111,1,0,0:0:0:0:
448,192,145338,1,0,0:0:0:0:
192,192,145565,1,0,0:0:0:0:
320,0,145792,128,0,147658:1:0:0:0:
64,192,146067,1,0,0:0:0:0:
448,192,146294,1,0,0:0:0:0:
192,192,146408,1,0,0:0:0:0:
64,192,146635,1,0,0:0:0:0:
448,192,147203,1,0,0:0:0:0:
64,192,147317,1,0,0:0:0:0:
448,192,147544,1,0,0:0:0:0:
192,192,147658,1,0,0:0:0:0:
64,192,147885,1,0,0:0:0:0:
192,192,147999,1,0,0:0:0:0:
448,192,148340,1,0,0:0:0:0:
64,192,148567,1,0,0:0:0:0:
320,192,148794,1,0,0:0:0:0:
192,192,149022,1,0,0:0:0:0:
192,0,149249,128,0,151295:1:0:0:0:
320,192,149476,1,0,0:0:0:0:
64,192,149704,1,0,0:0:0:0:
448,192,149931,1,0,0:0:0:0:
320,192,150044,1,0,0:0:0:0:
64,192,150272,1,0,0:0:0:0:
448,192,150840,1,0,0:0:0:0:
320,192,150954,1,0,0:0:0:0:
64,192,151181,1,0,0:0:0:0:
320,192,151295,1,0,0:0:0:0:
448,192,151522,1,0,0:0:0:0:
192,192,151635,1,0,0:0:0:0:
320,192,151976,1,0,0:0:0:0:
448,192,151976,1,0,0:0:0:0:
64,192,152204,1,0,0:0:0:0:
320,192,152431,1,0,0:0:0:0:
192,192,152658,1,0,0:0:0:0:
320,192,152885,1,0,0:0:0:0:
64,192,153113,1,0,0:0:0:0:
192,192,153113,1,0,0:0:0:0:
64,192,153567,1,0,0:0:0:0:
448,192,153567,1,0,0:0:0:0:
192,192,154022,1,0,0:0:0:0:
320,192,154022,1,0,0:0:0:0:
320,192,154476,1,0,0:0:0:0:
448,192,154476,1,0,0:0:0:0:
192,192,154931,1,0,0:0:0:0:
448,192,154931,1,0,0:0:0:0:
64,192,155385,1,0,0:0:0:0:
320,192,155385,1,0,0:0:0:0:
192,192,155840,1,0,0:0:0:0:
320,192,155840,1,0,0:0:0:0:
320,192,156295,1,0,0:0:0:0:
448,192,156295,1,0,0:0:0:0:
64,192,156749,1,0,0:0:0:0:
192,192,156749,1,0,0:0:0:0:
192,192,157090,1,0,0:0:0:0:
448,192,157090,1,0,0:0:0:0:
320,192,157204,1,0,0:0:0:0:
64,192,157431,1,0,0:0:0:0:
320,192,157431,1,0,0:0:0:0:
192,192,157545,1,0,0:0:0:0:
192,192,157772,1,0,0:0:0:0:
448,192,157772,1,0,0:0:0:0:
320,192,157885,1,0,0:0:0:0:
64,192,158113,1,0,0:0:0:0:
192,192,158113,1,0,0:0:0:0:
192,192,158340,1,0,0:0:0:0:
448,192,158340,1,0,0:0:0:0:
320,192,158567,1,0,0:0:0:0:
448,192,158681,1,0,0:0:0:0:
320,192,158794,1,0,0:0:0:0:
192,192,158908,1,0,0:0:0:0:
64,192,159022,1,0,0:0:0:0:
192,192,159135,1,0,0:0:0:0:
320,192,159249,1,0,0:0:0:0:
448,192,159306,1,0,0:0:0:0:
320,192,159363,1,0,0:0:0:0:
192,192,159419,1,0,0:0:0:0:
64,192,159476,1,0,0:0:0:0:
192,192,159533,1,0,0:0:0:0:
320,192,159590,1,0,0:0:0:0:
448,192,159647,1,0,0:0:0:0:
320,192,159703,1,0,0:0:0:0:
192,192,159817,1,0,0:0:0:0:
64,192,159931,1,0,0:0:0:0:
192,192,160044,1,0,0:0:0:0:
320,192,160158,1,0,0:0:0:0:
448,192,160272,1,0,0:0:0:0:
64,192,160385,1,0,0:0:0:0:
320,192,160385,1,0,0:0:0:0:
192,192,160840,1,0,0:0:0:0:
192,192,161294,1,0,0:0:0:0:
64,192,161521,1,0,0:0:0:0:
320,192,161749,1,0,0:0:0:0:
448,192,161749,1,0,0:0:0:0:
192,192,161976,1,0,0:0:0:0:
64,192,162203,1,0,0:0:0:0:
448,192,162203,1,0,0:0:0:0:
64,192,162658,1,0,0:0:0:0:
192,192,162658,1,0,0:0:0:0:
320,192,162885,1,0,0:0:0:0:
64,192,163112,1,0,0:0:0:0:
448,192,163112,1,0,0:0:0:0:
448,192,163567,1,0,0:0:0:0:
192,0,163567,128,0,164476:1:0:0:0:
320,192,164021,1,0,0:0:0:0:
448,192,164021,1,0,0:0:0:0:
64,192,164476,1,0,0:0:0:0:
448,192,164476,1,0,0:0:0:0:
64,192,164703,1,0,0:0:0:0:
192,192,164931,1,0,0:0:0:0:
448,192,164931,1,0,0:0:0:0:
320,192,165158,1,0,0:0:0:0:
64,192,165385,1,0,0:0:0:0:
192,192,165385,1,0,0:0:0:0:
320,192,165612,1,0,0:0:0:0:
64,192,165840,1,0,0:0:0:0:
448,0,165840,128,0,166294:1:0:0:0:
192,192,166294,1,0,0:0:0:0:
320,192,166294,1,0,0:0:0:0:
192,192,166521,1,0,0:0:0:0:
64,192,166749,1,0,0:0:0:0:
448,192,166749,1,0,0:0:0:0:
64,192,166976,1,0,0:0:0:0:
64,192,167203,1,0,0:0:0:0:
192,192,167203,1,0,0:0:0:0:
320,0,167430,128,0,168112:1:0:0:0:
64,192,167658,1,0,0:0:0:0:
448,192,167658,1,0,0:0:0:0:
192,192,168112,1,0,0:0:0:0:
448,192,168112,1,0,0:0:0:0:
192,192,168567,1,0,0:0:0:0:
320,192,168567,1,0,0:0:0:0:
64,192,169021,1,0,0:0:0:0:
448,192,169021,1,0,0:0:0:0:
320,192,169476,1,0,0:0:0:0:
192,0,169476,128,0,169930:1:0:0:0:
64,192,169930,1,0,0:0:0:0:
448,192,169930,1,0,0:0:0:0:
320,0,170158,128,0,170839:1:0:0:0:
64,192,170385,1,0,0:0:0:0:
192,192,170385,1,0,0:0:0:0:
192,192,170839,1,0,0:0:0:0:
448,192,170839,1,0,0:0:0:0:
64,192,171067,1,0,0:0:0:0:
192,192,171294,1,0,0:0:0:0:
320,192,171294,1,0,0:0:0:0:
448,192,171521,1,0,0:0:0:0:
64,192,171748,1,0,0:0:0:0:
320,192,171748,1,0,0:0:0:0:
192,0,171976,128,0,172658:1:0:0:0:
320,192,172203,1,0,0:0:0:0:
448,192,172203,1,0,0:0:0:0:
64,192,172658,1,0,0:0:0:0:
320,192,172658,1,0,0:0:0:0:
64,192,172885,1,0,0:0:0:0:
192,192,173112,1,0,0:0:0:0:
320,192,173112,1,0,0:0:0:0:
64,192,173567,1,0,0:0:0:0:
320,192,173567,1,0,0:0:0:0:
64,192,173794,1,0,0:0:0:0:
320,192,174021,1,0,0:0:0:0:
448,192,174021,1,0,0:0:0:0:
192,192,174248,1,0,0:0:0:0:
64,192,174476,1,0,0:0:0:0:
320,192,174476,1,0,0:0:0:0:
192,192,174703,1,0,0:0:0:0:
64,192,174930,1,0,0:0:0:0:
448,192,174930,1,0,0:0:0:0:
192,192,175158,1,0,0:0:0:0:
64,192,175271,1,0,0:0:0:0:
192,192,175385,1,0,0:0:0:0:
448,192,175385,1,0,0:0:0:0:
64,192,175612,1,0,0:0:0:0:
448,192,175612,1,0,0:0:0:0:
192,192,175839,1,0,0:0:0:0:
320,192,175839,1,0,0:0:0:0:
448,192,175953,1,0,0:0:0:0:
64,192,176067,1,0,0:0:0:0:
320,192,176067,1,0,0:0:0:0:
64,192,176294,1,0,0:0:0:0:
192,192,176294,1,0,0:0:0:0:
192,192,176521,1,0,0:0:0:0:
320,192,176521,1,0,0:0:0:0:
64,192,176749,1,0,0:0:0:0:
448,0,176749,128,0,177430:1:0:0:0:
64,192,177203,1,0,0:0:0:0:
192,192,177203,1,0,0:0:0:0:
320,0,177430,128,0,178112:1:0:0:0:
64,192,177658,1,0,0:0:0:0:
448,192,177658,1,0,0:0:0:0:
448,192,178112,1,0,0:0:0:0:
64,0,178112,128,0,178794:1:0:0:0:
320,192,178567,1,0,0:0:0:0:
448,192,178567,1,0,0:0:0:0:
64,192,179021,1,0,0:0:0:0:
320,192,179021,1,0,0:0:0:0:
448,192,179248,1,0,0:0:0:0:
192,192,179476,1,0,0:0:0:0:
320,192,179476,1,0,0:0:0:0:
192,192,179703,1,0,0:0:0:0:
64,192,179930,1,0,0:0:0:0:
320,192,179930,1,0,0:0:0:0:
320,192,180158,1,0,0:0:0:0:
64,192,180385,1,0,0:0:0:0:
192,192,180385,1,0,0:0:0:0:
192,192,180839,1,0,0:0:0:0:
448,192,180839,1,0,0:0:0:0:
192,192,181067,1,0,0:0:0:0:
320,192,181294,1,0,0:0:0:0:
448,192,181294,1,0,0:0:0:0:
64,192,181521,1,0,0:0:0:0:
320,192,181748,1,0,0:0:0:0:
448,192,181748,1,0,0:0:0:0:
192,0,181976,128,0,182657:1:0:0:0:
320,192,182203,1,0,0:0:0:0:
448,192,182203,1,0,0:0:0:0:
64,192,182657,1,0,0:0:0:0:
320,192,182657,1,0,0:0:0:0:
448,192,183112,1,0,0:0:0:0:
64,0,183112,128,0,183567:1:0:0:0:
192,192,183567,1,0,0:0:0:0:
320,0,183567,128,0,184021:1:0:0:0:
64,192,184021,1,0,0:0:0:0:
192,0,184021,128,0,184476:1:0:0:0:
320,192,184476,1,0,0:0:0:0:
448,192,184476,1,0,0:0:0:0:
320,0,184703,128,0,185385:1:0:0:0:
64,192,184930,1,0,0:0:0:0:
448,192,184930,1,0,0:0:0:0:
64,192,185385,1,0,0:0:0:0:
192,192,185385,1,0,0:0:0:0:
192,192,185612,1,0,0:0:0:0:
64,192,185839,1,0,0:0:0:0:
320,192,185839,1,0,0:0:0:0:
192,192,186066,1,0,0:0:0:0:
192,192,186294,1,0,0:0:0:0:
320,192,186294,1,0,0:0:0:0:
192,0,186521,128,0,187203:1:0:0:0:
64,192,186748,1,0,0:0:0:0:
448,192,186748,1,0,0:0:0:0:
320,192,187203,1,0,0:0:0:0:
448,192,187203,1,0,0:0:0:0:
320,192,187430,1,0,0:0:0:0:
64,192,187657,1,0,0:0:0:0:
448,192,187657,1,0,0:0:0:0:
64,192,188112,1,0,0:0:0:0:
320,192,188112,1,0,0:0:0:0:
192,192,188339,1,0,0:0:0:0:
320,192,188339,1,0,0:0:0:0:
64,192,188794,1,0,0:0:0:0:
192,192,188794,1,0,0:0:0:0:
448,192,189021,1,0,0:0:0:0:
192,192,189248,1,0,0:0:0:0:
320,192,189248,1,0,0:0:0:0:
320,192,189930,1,0,0:0:0:0:
64,192,190385,1,0,0:0:0:0:
64,192,190839,1,0,0:0:0:0:
320,192,190839,1,0,0:0:0:0:
320,192,191294,1,0,0:0:0:0:
192,0,191294,128,0,194021:1:0:0:0:
448,192,191521,1,0,0:0:0:0:
320,192,191748,1,0,0:0:0:0:
448,192,191748,1,0,0:0:0:0:
64,192,191975,1,0,0:0:0:0:
64,192,192203,1,0,0:0:0:0:
448,192,192203,1,0,0:0:0:0:
320,192,192430,1,0,0:0:0:0:
320,192,192657,1,0,0:0:0:0:
448,192,192657,1,0,0:0:0:0:
64,192,192884,1,0,0:0:0:0:
320,192,193112,1,0,0:0:0:0:
448,192,193112,1,0,0:0:0:0:
448,192,193339,1,0,0:0:0:0:
64,192,193566,1,0,0:0:0:0:
320,192,193566,1,0,0:0:0:0:
448,192,193793,1,0,0:0:0:0:
64,192,194021,1,0,0:0:0:0:
448,192,194021,1,0,0:0:0:0:
320,192,194248,1,0,0:0:0:0:
64,192,194475,1,0,0:0:0:0:
448,192,194475,1,0,0:0:0:0:
192,0,194703,128,0,195839:1:0:0:0:
320,192,194930,1,0,0:0:0:0:
448,192,194930,1,0,0:0:0:0:
64,192,195157,1,0,0:0:0:0:
64,192,195384,1,0,0:0:0:0:
448,192,195384,1,0,0:0:0:0:
320,192,195612,1,0,0:0:0:0:
320,192,195839,1,0,0:0:0:0:
448,192,195839,1,0,0:0:0:0:
64,192,196066,1,0,0:0:0:0:
192,192,196293,1,0,0:0:0:0:
320,192,196293,1,0,0:0:0:0:
448,0,196521,128,0,197203:1:0:0:0:
64,192,196748,1,0,0:0:0:0:
320,192,196748,1,0,0:0:0:0:
320,192,196975,1,0,0:0:0:0:
192,192,197089,1,0,0:0:0:0:
320,192,197203,1,0,0:0:0:0:
64,0,197203,128,0,197657:1:0:0:0:
320,192,197430,1,0,0:0:0:0:
192,192,197543,1,0,0:0:0:0:
320,192,197657,1,0,0:0:0:0:
448,192,197657,1,0,0:0:0:0:
320,192,197884,1,0,0:0:0:0:
64,192,198112,1,0,0:0:0:0:
448,192,198112,1,0,0:0:0:0:
192,192,198339,1,0,0:0:0:0:
448,192,198566,1,0,0:0:0:0:
320,0,198566,128,0,199930:1:0:0:0:
64,192,198793,1,0,0:0:0:0:
64,192,199021,1,0,0:0:0:0:
448,192,199021,1,0,0:0:0:0:
192,192,199248,1,0,0:0:0:0:
64,192,199475,1,0,0:0:0:0:
192,192,199475,1,0,0:0:0:0:
64,192,199703,1,0,0:0:0:0:
192,192,199930,1,0,0:0:0:0:
448,192,199930,1,0,0:0:0:0:
64,192,200157,1,0,0:0:0:0:
320,192,200384,1,0,0:0:0:0:
192,0,200384,128,0,201293:1:0:0:0:
320,192,200612,1,0,0:0:0:0:
64,192,200839,1,0,0:0:0:0:
448,192,200839,1,0,0:0:0:0:
448,192,201066,1,0,0:0:0:0:
64,192,201293,1,0,0:0:0:0:
320,0,201293,128,0,201748:1:0:0:0:
192,192,201521,1,0,0:0:0:0:
192,192,201748,1,0,0:0:0:0:
448,0,201748,128,0,204021:1:0:0:0:
64,192,201975,1,0,0:0:0:0:
192,192,202202,1,0,0:0:0:0:
320,192,202202,1,0,0:0:0:0:
192,192,202430,1,0,0:0:0:0:
64,192,202657,1,0,0:0:0:0:
320,192,202657,1,0,0:0:0:0:
64,192,202884,1,0,0:0:0:0:
64,192,203112,1,0,0:0:0:0:
192,192,203112,1,0,0:0:0:0:
320,192,203339,1,0,0:0:0:0:
64,192,203566,1,0,0:0:0:0:
192,192,203566,1,0,0:0:0:0:
192,192,203793,1,0,0:0:0:0:
64,192,204021,1,0,0:0:0:0:
320,192,204021,1,0,0:0:0:0:
192,192,204475,1,0,0:0:0:0:
448,192,204475,1,0,0:0:0:0:
64,192,204930,1,0,0:0:0:0:
320,192,204930,1,0,0:0:0:0:
192,192,205384,1,0,0:0:0:0:
320,192,205384,1,0,0:0:0:0:
64,0,205839,128,0,208566:1:0:0:0:
192,0,205839,128,0,209475:1:0:0:0:
448,192,206293,1,0,0:0:0:0:
320,192,206748,1,0,0:0:0:0:
448,192,207202,1,0,0:0:0:0:
320,192,207657,1,0,0:0:0:0:
