osu file format v12

[General]
AudioFilename: kz(livetune) x 8#Prince feat. Hatsune Miku - Weekender Girl.mp3
AudioLeadIn: 2
PreviewTime: 51249
Countdown: 0
SampleSet: None
StackLeniency: 0.7
Mode: 3
LetterboxInBreaks: 0
SpecialStyle: 0
WidescreenStoryboard: 0

[Editor]
DistanceSpacing: 0.8
BeatDivisor: 4
GridSize: 8

[Metadata]
Title:Weekender Girl
TitleUnicode:
Artist:kz(livetune) x Hachiouji-P feat. Hatsune Miku
ArtistUnicode:kz(livetune) x Hachiouji-P feat. Hatsune Miku
Creator:Akei
Version:Medium
Source:Stepmania
Tags:Stepmania
BeatmapID:306719
BeatmapSetID:119465

[Difficulty]
HPDrainRate:5
CircleSize:4
OverallDifficulty:7
ApproachRate:10
SliderMultiplier:1.4
SliderTickRate:1

[Events]
//Background and Video events
0,0,"background.jpg",0,0
//Break Periods
//Storyboard Layer 0 (Background)
//Storyboard Layer 1 (Fail)
//Storyboard Layer 2 (Pass)
//Storyboard Layer 3 (Foreground)
//Storyboard Sound Samples
//Background Colour Transformations
3,100,163,162,255

[TimingPoints]
-115,454.5454,4,1,0,15,1,0
143975.5,60000000000000,4,1,0,15,1,0
143975.5,60000000000000,4,1,0,15,1,0
143975.5,60000000000000,4,1,0,15,1,0
143975.5,60000000000000,4,1,0,15,1,0
144430.5,454.5454,4,1,0,15,1,0
144430.5,454.5454,4,1,0,15,1,0
144430.5,454.5454,4,1,0,15,1,0
144430.5,454.5454,4,1,0,15,1,0
162261.6,454.5454,4,1,0,15,1,0

[HitObjects]
320,192,339,1,0,0:0:0:0:
192,192,566,1,0,0:0:0:0:
448,192,794,1,0,0:0:0:0:
192,192,907,1,0,0:0:0:0:
320,192,1135,1,0,0:0:0:0:
320,192,1703,1,0,0:0:0:0:
192,192,1816,1,0,0:0:0:0:
320,192,2044,1,0,0:0:0:0:
448,192,2157,1,0,0:0:0:0:
320,192,2385,1,0,0:0:0:0:
192,192,2498,1,0,0:0:0:0:
448,192,2839,1,0,0:0:0:0:
448,192,3294,1,0,0:0:0:0:
64,192,3521,1,0,0:0:0:0:
448,192,3975,1,0,0:0:0:0:
320,192,4203,1,0,0:0:0:0:
192,192,4430,1,0,0:0:0:0:
320,192,4544,1,0,0:0:0:0:
448,192,4771,1,0,0:0:0:0:
320,192,5339,1,0,0:0:0:0:
192,192,5453,1,0,0:0:0:0:
448,192,5680,1,0,0:0:0:0:
64,192,5794,1,0,0:0:0:0:
320,192,6021,1,0,0:0:0:0:
448,192,6134,1,0,0:0:0:0:
448,192,6475,1,0,0:0:0:0:
192,192,6930,1,0,0:0:0:0:
320,192,7157,1,0,0:0:0:0:
448,192,7612,1,0,0:0:0:0:
192,192,8066,1,0,0:0:0:0:
320,192,8521,1,0,0:0:0:0:
192,192,8748,1,0,0:0:0:0:
448,192,8975,1,0,0:0:0:0:
320,192,9089,1,0,0:0:0:0:
192,192,9430,1,0,0:0:0:0:
320,192,9885,1,0,0:0:0:0:
192,192,10339,1,0,0:0:0:0:
448,192,10566,1,0,0:0:0:0:
320,192,10794,1,0,0:0:0:0:
320,192,11248,1,0,0:0:0:0:
64,192,11703,1,0,0:0:0:0:
320,192,12157,1,0,0:0:0:0:
192,192,12385,1,0,0:0:0:0:
320,192,12612,1,0,0:0:0:0:
64,192,12725,1,0,0:0:0:0:
448,0,13066,128,0,14885:1:0:0:0:
320,192,15112,1,0,0:0:0:0:
448,192,15339,1,0,0:0:0:0:
64,192,15566,1,0,0:0:0:0:
192,192,15680,1,0,0:0:0:0:
320,192,15907,1,0,0:0:0:0:
320,192,16135,1,0,0:0:0:0:
448,192,16248,1,0,0:0:0:0:
192,192,16475,1,0,0:0:0:0:
320,192,16703,1,0,0:0:0:0:
448,192,16930,1,0,0:0:0:0:
192,192,17044,1,0,0:0:0:0:
192,0,17385,128,0,18066:1:0:0:0:
320,192,18521,1,0,0:0:0:0:
64,192,18748,1,0,0:0:0:0:
448,192,18975,1,0,0:0:0:0:
192,192,19203,1,0,0:0:0:0:
448,192,19316,1,0,0:0:0:0:
320,192,19544,1,0,0:0:0:0:
320,192,19771,1,0,0:0:0:0:
64,192,19885,1,0,0:0:0:0:
192,192,20112,1,0,0:0:0:0:
448,192,20339,1,0,0:0:0:0:
320,192,20566,1,0,0:0:0:0:
192,192,20794,1,0,0:0:0:0:
320,0,21021,128,0,22157:1:0:0:0:
64,192,22385,1,0,0:0:0:0:
192,192,22612,1,0,0:0:0:0:
448,192,22839,1,0,0:0:0:0:
320,192,22953,1,0,0:0:0:0:
192,192,23180,1,0,0:0:0:0:
448,192,23407,1,0,0:0:0:0:
320,192,23521,1,0,0:0:0:0:
192,192,23748,1,0,0:0:0:0:
448,192,23975,1,0,0:0:0:0:
320,192,24316,1,0,0:0:0:0:
448,0,24657,128,0,25339:1:0:0:0:
64,192,26021,1,0,0:0:0:0:
320,192,26248,1,0,0:0:0:0:
448,192,26475,1,0,0:0:0:0:
192,192,26589,1,0,0:0:0:0:
320,192,26930,1,0,0:0:0:0:
192,192,27157,1,0,0:0:0:0:
320,192,27385,1,0,0:0:0:0:
64,192,27612,1,0,0:0:0:0:
448,192,27953,1,0,0:0:0:0:
320,192,28294,1,0,0:0:0:0:
192,0,28975,128,0,29430:1:0:0:0:
448,192,29430,1,0,0:0:0:0:
64,192,29885,1,0,0:0:0:0:
320,192,30339,1,0,0:0:0:0:
192,192,30794,1,0,0:0:0:0:
448,192,31248,1,0,0:0:0:0:
64,192,31703,1,0,0:0:0:0:
192,192,32157,1,0,0:0:0:0:
320,192,32612,1,0,0:0:0:0:
192,192,33066,1,0,0:0:0:0:
448,192,33521,1,0,0:0:0:0:
192,192,33975,1,0,0:0:0:0:
320,192,34430,1,0,0:0:0:0:
64,192,34885,1,0,0:0:0:0:
448,192,35225,1,0,0:0:0:0:
320,192,35566,1,0,0:0:0:0:
448,192,35907,1,0,0:0:0:0:
192,192,36248,1,0,0:0:0:0:
320,192,36475,1,0,0:0:0:0:
448,192,36703,1,0,0:0:0:0:
192,192,37157,1,0,0:0:0:0:
320,192,37612,1,0,0:0:0:0:
64,192,38066,1,0,0:0:0:0:
320,192,38521,1,0,0:0:0:0:
448,192,38975,1,0,0:0:0:0:
64,192,39430,1,0,0:0:0:0:
192,192,39885,1,0,0:0:0:0:
448,192,40339,1,0,0:0:0:0:
192,192,40794,1,0,0:0:0:0:
320,192,41248,1,0,0:0:0:0:
64,192,41703,1,0,0:0:0:0:
448,192,42157,1,0,0:0:0:0:
64,192,42498,1,0,0:0:0:0:
320,192,42839,1,0,0:0:0:0:
192,0,43294,128,0,43975:1:0:0:0:
320,192,43975,1,0,0:0:0:0:
448,192,43975,1,0,0:0:0:0:
64,192,44203,1,0,0:0:0:0:
320,192,44430,1,0,0:0:0:0:
448,192,44657,1,0,0:0:0:0:
320,192,44771,1,0,0:0:0:0:
192,192,44998,1,0,0:0:0:0:
448,192,45225,1,0,0:0:0:0:
320,192,45339,1,0,0:0:0:0:
64,192,45566,1,0,0:0:0:0:
320,192,45794,1,0,0:0:0:0:
448,192,46021,1,0,0:0:0:0:
192,192,46248,1,0,0:0:0:0:
448,0,46476,128,0,47612:1:0:0:0:
64,192,47612,1,0,0:0:0:0:
320,192,47839,1,0,0:0:0:0:
192,192,48066,1,0,0:0:0:0:
320,192,48294,1,0,0:0:0:0:
448,192,48407,1,0,0:0:0:0:
320,192,48748,1,0,0:0:0:0:
64,192,48976,1,0,0:0:0:0:
192,192,49203,1,0,0:0:0:0:
448,192,49430,1,0,0:0:0:0:
192,192,49885,1,0,0:0:0:0:
64,0,50112,128,0,51248:1:0:0:0:
320,192,51248,1,0,0:0:0:0:
192,192,51476,1,0,0:0:0:0:
448,192,51703,1,0,0:0:0:0:
320,192,51930,1,0,0:0:0:0:
448,192,52044,1,0,0:0:0:0:
64,192,52271,1,0,0:0:0:0:
448,192,52498,1,0,0:0:0:0:
320,192,52612,1,0,0:0:0:0:
320,192,52839,1,0,0:0:0:0:
448,192,53066,1,0,0:0:0:0:
192,192,53294,1,0,0:0:0:0:
192,192,53521,1,0,0:0:0:0:
320,0,53748,128,0,54885:1:0:0:0:
448,192,54885,1,0,0:0:0:0:
64,192,55112,1,0,0:0:0:0:
192,192,55339,1,0,0:0:0:0:
448,192,55566,1,0,0:0:0:0:
320,192,55680,1,0,0:0:0:0:
192,192,56021,1,0,0:0:0:0:
448,192,56248,1,0,0:0:0:0:
192,192,56476,1,0,0:0:0:0:
320,192,56703,1,0,0:0:0:0:
192,192,57044,1,0,0:0:0:0:
320,192,57385,1,0,0:0:0:0:
192,192,57839,1,0,0:0:0:0:
320,0,58066,128,0,58521:1:0:0:0:
64,0,58521,128,0,59885:1:0:0:0:
448,192,59885,1,0,0:0:0:0:
192,192,60339,1,0,0:0:0:0:
320,192,60566,1,0,0:0:0:0:
448,192,60794,1,0,0:0:0:0:
320,192,61248,1,0,0:0:0:0:
64,0,61703,128,0,63976:1:0:0:0:
320,192,64657,1,0,0:0:0:0:
448,192,64885,1,0,0:0:0:0:
192,192,65112,1,0,0:0:0:0:
320,192,65339,1,0,0:0:0:0:
64,192,65566,1,0,0:0:0:0:
448,192,65794,1,0,0:0:0:0:
192,192,66248,1,0,0:0:0:0:
64,192,66703,1,0,0:0:0:0:
448,192,67157,1,0,0:0:0:0:
192,192,67612,1,0,0:0:0:0:
448,192,68066,1,0,0:0:0:0:
64,192,68521,1,0,0:0:0:0:
192,192,68976,1,0,0:0:0:0:
448,192,69430,1,0,0:0:0:0:
192,192,69885,1,0,0:0:0:0:
448,192,70339,1,0,0:0:0:0:
192,192,70794,1,0,0:0:0:0:
64,192,71248,1,0,0:0:0:0:
448,192,71248,1,0,0:0:0:0:
320,192,71703,1,0,0:0:0:0:
448,192,72157,1,0,0:0:0:0:
320,192,72385,1,0,0:0:0:0:
192,192,72612,1,0,0:0:0:0:
64,192,73066,1,0,0:0:0:0:
192,192,73748,1,0,0:0:0:0:
320,0,74430,128,0,75339:1:0:0:0:
448,192,75567,1,0,0:0:0:0:
64,192,75794,1,0,0:0:0:0:
192,192,76021,1,0,0:0:0:0:
320,192,76248,1,0,0:0:0:0:
192,192,76476,1,0,0:0:0:0:
64,0,76703,128,0,77157:1:0:0:0:
192,192,77157,1,0,0:0:0:0:
320,192,77385,1,0,0:0:0:0:
448,192,77839,1,0,0:0:0:0:
192,0,78294,128,0,78976:1:0:0:0:
192,192,79430,1,0,0:0:0:0:
320,192,79885,1,0,0:0:0:0:
320,0,80339,128,0,80794:1:0:0:0:
64,192,80794,1,0,0:0:0:0:
192,0,81021,128,0,81703:1:0:0:0:
448,192,81930,1,0,0:0:0:0:
320,192,82157,1,0,0:0:0:0:
64,192,82385,1,0,0:0:0:0:
192,192,82612,1,0,0:0:0:0:
320,0,82839,128,0,83521:1:0:0:0:
448,192,83748,1,0,0:0:0:0:
320,192,83976,1,0,0:0:0:0:
192,192,84430,1,0,0:0:0:0:
448,192,84657,1,0,0:0:0:0:
320,192,85112,1,0,0:0:0:0:
320,192,85567,1,0,0:0:0:0:
320,192,86248,1,0,0:0:0:0:
192,192,86703,1,0,0:0:0:0:
448,192,86930,1,0,0:0:0:0:
320,192,87157,1,0,0:0:0:0:
192,192,87385,1,0,0:0:0:0:
64,0,87612,128,0,88294:1:0:0:0:
192,0,88294,128,0,88976:1:0:0:0:
448,0,88976,128,0,89657:1:0:0:0:
64,192,90112,1,0,0:0:0:0:
192,192,90339,1,0,0:0:0:0:
320,192,90567,1,0,0:0:0:0:
448,192,90794,1,0,0:0:0:0:
192,192,91021,1,0,0:0:0:0:
320,192,91248,1,0,0:0:0:0:
64,192,91703,1,0,0:0:0:0:
320,192,91930,1,0,0:0:0:0:
448,192,92385,1,0,0:0:0:0:
192,192,92612,1,0,0:0:0:0:
320,0,92839,128,0,93521:1:0:0:0:
448,0,93976,128,0,94430:1:0:0:0:
192,0,94430,128,0,94885:1:0:0:0:
320,0,94885,128,0,95339:1:0:0:0:
64,192,95339,1,0,0:0:0:0:
192,0,95567,128,0,96248:1:0:0:0:
320,192,96476,1,0,0:0:0:0:
448,192,96703,1,0,0:0:0:0:
320,192,96930,1,0,0:0:0:0:
192,192,97157,1,0,0:0:0:0:
320,0,97385,128,0,98067:1:0:0:0:
192,192,98294,1,0,0:0:0:0:
64,192,98521,1,0,0:0:0:0:
448,192,98976,1,0,0:0:0:0:
320,192,99203,1,0,0:0:0:0:
448,192,99657,1,0,0:0:0:0:
320,192,100112,1,0,0:0:0:0:
192,192,100794,1,0,0:0:0:0:
448,192,101248,1,0,0:0:0:0:
192,192,101703,1,0,0:0:0:0:
320,0,102157,128,0,104885:1:0:0:0:
448,192,104885,1,0,0:0:0:0:
64,192,105339,1,0,0:0:0:0:
320,192,105794,1,0,0:0:0:0:
192,192,106248,1,0,0:0:0:0:
448,192,106703,1,0,0:0:0:0:
64,192,107158,1,0,0:0:0:0:
448,192,107612,1,0,0:0:0:0:
320,192,107953,1,0,0:0:0:0:
192,192,108294,1,0,0:0:0:0:
320,192,108635,1,0,0:0:0:0:
448,192,108976,1,0,0:0:0:0:
320,192,109203,1,0,0:0:0:0:
192,0,109430,128,0,111703:1:0:0:0:
448,192,111703,1,0,0:0:0:0:
64,192,112157,1,0,0:0:0:0:
192,192,112612,1,0,0:0:0:0:
448,192,113067,1,0,0:0:0:0:
192,192,113521,1,0,0:0:0:0:
320,192,113976,1,0,0:0:0:0:
64,192,114430,1,0,0:0:0:0:
448,0,114885,128,0,115794:1:0:0:0:
192,192,116248,1,0,0:0:0:0:
448,192,116703,1,0,0:0:0:0:
192,192,116930,1,0,0:0:0:0:
64,192,117157,1,0,0:0:0:0:
320,192,117385,1,0,0:0:0:0:
448,192,117498,1,0,0:0:0:0:
320,192,117726,1,0,0:0:0:0:
320,192,117953,1,0,0:0:0:0:
192,192,118067,1,0,0:0:0:0:
192,192,118294,1,0,0:0:0:0:
448,192,118521,1,0,0:0:0:0:
192,192,118862,1,0,0:0:0:0:
320,0,119203,128,0,119657:1:0:0:0:
64,192,120339,1,0,0:0:0:0:
448,192,120566,1,0,0:0:0:0:
192,192,120794,1,0,0:0:0:0:
448,192,121021,1,0,0:0:0:0:
320,192,121135,1,0,0:0:0:0:
320,192,121362,1,0,0:0:0:0:
320,192,121589,1,0,0:0:0:0:
192,192,121703,1,0,0:0:0:0:
320,192,121930,1,0,0:0:0:0:
448,192,122157,1,0,0:0:0:0:
320,192,122498,1,0,0:0:0:0:
192,0,122839,128,0,123975:1:0:0:0:
320,192,124203,1,0,0:0:0:0:
192,192,124430,1,0,0:0:0:0:
64,192,124657,1,0,0:0:0:0:
192,192,124771,1,0,0:0:0:0:
448,192,124998,1,0,0:0:0:0:
192,192,125225,1,0,0:0:0:0:
64,192,125339,1,0,0:0:0:0:
320,192,125566,1,0,0:0:0:0:
192,192,125794,1,0,0:0:0:0:
320,192,126134,1,0,0:0:0:0:
448,0,126475,128,0,127157:1:0:0:0:
320,192,127157,1,0,0:0:0:0:
192,192,127612,1,0,0:0:0:0:
64,192,127839,1,0,0:0:0:0:
448,192,128066,1,0,0:0:0:0:
192,192,128293,1,0,0:0:0:0:
320,192,128407,1,0,0:0:0:0:
64,192,128748,1,0,0:0:0:0:
448,192,128975,1,0,0:0:0:0:
192,192,129203,1,0,0:0:0:0:
320,192,129430,1,0,0:0:0:0:
64,192,129771,1,0,0:0:0:0:
192,0,130112,128,0,130566:1:0:0:0:
320,0,130793,128,0,131248:1:0:0:0:
192,0,131248,128,0,132612:1:0:0:0:
448,192,132612,1,0,0:0:0:0:
320,192,133066,1,0,0:0:0:0:
64,192,133293,1,0,0:0:0:0:
192,192,133521,1,0,0:0:0:0:
320,192,133975,1,0,0:0:0:0:
64,0,134430,128,0,136702:1:0:0:0:
448,192,137384,1,0,0:0:0:0:
320,192,137611,1,0,0:0:0:0:
192,192,137839,1,0,0:0:0:0:
64,192,138066,1,0,0:0:0:0:
320,192,138293,1,0,0:0:0:0:
448,192,138521,1,0,0:0:0:0:
192,192,138975,1,0,0:0:0:0:
320,192,139430,1,0,0:0:0:0:
64,192,139884,1,0,0:0:0:0:
448,192,140339,1,0,0:0:0:0:
320,192,140793,1,0,0:0:0:0:
192,192,141248,1,0,0:0:0:0:
448,192,141702,1,0,0:0:0:0:
64,192,142157,1,0,0:0:0:0:
448,192,142611,1,0,0:0:0:0:
320,192,143066,1,0,0:0:0:0:
192,192,143521,1,0,0:0:0:0:
448,192,143975,1,0,0:0:0:0:
320,192,144657,1,0,0:0:0:0:
64,192,144885,1,0,0:0:0:0:
192,192,145112,1,0,0:0:0:0:
448,192,145339,1,0,0:0:0:0:
192,192,145566,1,0,0:0:0:0:
320,0,145794,128,0,147716:1:0:0:0:
448,192,148398,1,0,0:0:0:0:
64,192,148625,1,0,0:0:0:0:
320,192,148852,1,0,0:0:0:0:
192,192,149079,1,0,0:0:0:0:
192,0,149307,128,0,151352:1:0:0:0:
448,192,152034,1,0,0:0:0:0:
64,192,152261,1,0,0:0:0:0:
320,192,152488,1,0,0:0:0:0:
192,192,152716,1,0,0:0:0:0:
320,192,152943,1,0,0:0:0:0:
192,192,153170,1,0,0:0:0:0:
64,192,153625,1,0,0:0:0:0:
192,192,154079,1,0,0:0:0:0:
320,192,154534,1,0,0:0:0:0:
448,192,154988,1,0,0:0:0:0:
64,192,155443,1,0,0:0:0:0:
320,192,155898,1,0,0:0:0:0:
448,192,156352,1,0,0:0:0:0:
192,192,156807,1,0,0:0:0:0:
320,192,157261,1,0,0:0:0:0:
448,192,157716,1,0,0:0:0:0:
64,192,158170,1,0,0:0:0:0:
192,192,158625,1,0,0:0:0:0:
320,192,159079,1,0,0:0:0:0:
64,192,159534,1,0,0:0:0:0:
192,192,159988,1,0,0:0:0:0:
64,192,160443,1,0,0:0:0:0:
448,192,160443,1,0,0:0:0:0:
192,192,160898,1,0,0:0:0:0:
192,192,161352,1,0,0:0:0:0:
64,192,161579,1,0,0:0:0:0:
320,192,161807,1,0,0:0:0:0:
192,192,162034,1,0,0:0:0:0:
448,192,162261,1,0,0:0:0:0:
192,192,162943,1,0,0:0:0:0:
192,0,163625,128,0,164534:1:0:0:0:
320,192,164761,1,0,0:0:0:0:
448,192,164988,1,0,0:0:0:0:
320,192,165216,1,0,0:0:0:0:
192,192,165443,1,0,0:0:0:0:
320,192,165670,1,0,0:0:0:0:
448,192,165897,1,0,0:0:0:0:
320,192,166352,1,0,0:0:0:0:
192,192,166579,1,0,0:0:0:0:
448,192,167034,1,0,0:0:0:0:
192,0,167488,128,0,168170:1:0:0:0:
320,192,168625,1,0,0:0:0:0:
192,192,169079,1,0,0:0:0:0:
192,0,169534,128,0,169988:1:0:0:0:
448,192,169988,1,0,0:0:0:0:
320,0,170215,128,0,170897:1:0:0:0:
448,192,171125,1,0,0:0:0:0:
192,192,171352,1,0,0:0:0:0:
64,192,171579,1,0,0:0:0:0:
320,192,171806,1,0,0:0:0:0:
448,0,172034,128,0,172715:1:0:0:0:
64,192,172943,1,0,0:0:0:0:
192,192,173170,1,0,0:0:0:0:
320,192,173624,1,0,0:0:0:0:
192,192,173852,1,0,0:0:0:0:
448,192,174306,1,0,0:0:0:0:
192,192,174761,1,0,0:0:0:0:
64,192,175443,1,0,0:0:0:0:
320,192,175897,1,0,0:0:0:0:
448,192,176124,1,0,0:0:0:0:
192,192,176352,1,0,0:0:0:0:
320,192,176579,1,0,0:0:0:0:
448,0,176806,128,0,177261:1:0:0:0:
320,0,177488,128,0,177943:1:0:0:0:
64,192,177943,1,0,0:0:0:0:
192,0,178170,128,0,179079:1:0:0:0:
448,192,179306,1,0,0:0:0:0:
320,192,179533,1,0,0:0:0:0:
192,192,179761,1,0,0:0:0:0:
64,192,179988,1,0,0:0:0:0:
320,192,180215,1,0,0:0:0:0:
192,192,180442,1,0,0:0:0:0:
448,192,180897,1,0,0:0:0:0:
320,192,181124,1,0,0:0:0:0:
64,192,181579,1,0,0:0:0:0:
320,192,181806,1,0,0:0:0:0:
448,0,182033,128,0,182715:1:0:0:0:
64,0,183170,128,0,183624:1:0:0:0:
320,0,183624,128,0,184079:1:0:0:0:
192,0,184079,128,0,184533:1:0:0:0:
448,192,184533,1,0,0:0:0:0:
320,0,184760,128,0,185442:1:0:0:0:
448,192,185670,1,0,0:0:0:0:
64,192,185897,1,0,0:0:0:0:
448,192,186124,1,0,0:0:0:0:
320,192,186351,1,0,0:0:0:0:
192,0,186579,128,0,187260:1:0:0:0:
64,192,187488,1,0,0:0:0:0:
448,192,187715,1,0,0:0:0:0:
320,192,188169,1,0,0:0:0:0:
192,192,188397,1,0,0:0:0:0:
448,192,188851,1,0,0:0:0:0:
320,0,189306,128,0,189760:1:0:0:0:
448,192,189988,1,0,0:0:0:0:
64,192,190442,1,0,0:0:0:0:
320,192,190897,1,0,0:0:0:0:
192,0,191351,128,0,194078:1:0:0:0:
448,192,194533,1,0,0:0:0:0:
192,0,194760,128,0,195897:1:0:0:0:
64,192,196124,1,0,0:0:0:0:
320,192,196351,1,0,0:0:0:0:
448,0,196578,128,0,197260:1:0:0:0:
64,0,197260,128,0,197715:1:0:0:0:
448,192,197715,1,0,0:0:0:0:
320,192,197942,1,0,0:0:0:0:
192,192,198397,1,0,0:0:0:0:
320,0,198624,128,0,199987:1:0:0:0:
64,192,200215,1,0,0:0:0:0:
192,0,200442,128,0,201351:1:0:0:0:
64,192,201351,1,0,0:0:0:0:
448,0,201806,128,0,204078:1:0:0:0:
192,192,204533,1,0,0:0:0:0:
320,192,204987,1,0,0:0:0:0:
320,192,205442,1,0,0:0:0:0:
64,0,205896,128,0,208624:1:0:0:0:
192,0,205896,128,0,209533:1:0:0:0:
