osu file format v12

[General]
AudioFilename: kz(livetune) x 8#Prince feat. Hatsune Miku - Weekender Girl.mp3
AudioLeadIn: 2
PreviewTime: 51249
Countdown: 0
SampleSet: None
StackLeniency: 0.7
Mode: 3
LetterboxInBreaks: 0
SpecialStyle: 0
WidescreenStoryboard: 0

[Editor]
DistanceSpacing: 0.8
BeatDivisor: 4
GridSize: 8

[Metadata]
Title:Weekender Girl
TitleUnicode:
Artist:kz(livetune) x Hachiouji-P feat. Hatsune Miku
ArtistUnicode:kz(livetune) x Hachiouji-P feat. Hatsune Miku
Creator:Akei
Version:Hard
Source:Stepmania
Tags:Stepmania
BeatmapID:306718
BeatmapSetID:119465

[Difficulty]
HPDrainRate:5
CircleSize:4
OverallDifficulty:7
ApproachRate:10
SliderMultiplier:1.4
SliderTickRate:1

[Events]
//Background and Video events
0,0,"background.jpg",0,0
//Break Periods
//Storyboard Layer 0 (Background)
//Storyboard Layer 1 (Fail)
//Storyboard Layer 2 (Pass)
//Storyboard Layer 3 (Foreground)
//Storyboard Sound Samples
//Background Colour Transformations
3,100,163,162,255

[TimingPoints]
-115,454.5454,4,1,0,15,1,0
143975.2,60000000000000,4,1,0,15,1,0
143975.2,60000000000000,4,1,0,15,1,0
143975.2,60000000000000,4,1,0,15,1,0
143975.2,60000000000000,4,1,0,15,1,0
144430.2,454.5454,4,1,0,15,1,0
144430.2,454.5454,4,1,0,15,1,0
144430.2,454.5454,4,1,0,15,1,0
144430.2,454.5454,4,1,0,15,1,0
162204.7,454.5454,4,1,0,15,1,0

[HitObjects]
64,192,339,1,0,0:0:0:0:
448,192,566,1,0,0:0:0:0:
320,192,794,1,0,0:0:0:0:
448,192,907,1,0,0:0:0:0:
64,192,1135,1,0,0:0:0:0:
64,192,1703,1,0,0:0:0:0:
448,192,1816,1,0,0:0:0:0:
64,192,2044,1,0,0:0:0:0:
320,192,2157,1,0,0:0:0:0:
64,192,2385,1,0,0:0:0:0:
448,192,2498,1,0,0:0:0:0:
320,192,2839,1,0,0:0:0:0:
320,192,3294,1,0,0:0:0:0:
192,192,3521,1,0,0:0:0:0:
320,192,3975,1,0,0:0:0:0:
64,192,4203,1,0,0:0:0:0:
448,192,4430,1,0,0:0:0:0:
64,192,4544,1,0,0:0:0:0:
320,192,4771,1,0,0:0:0:0:
64,192,5339,1,0,0:0:0:0:
448,192,5453,1,0,0:0:0:0:
320,192,5680,1,0,0:0:0:0:
192,192,5794,1,0,0:0:0:0:
64,192,6021,1,0,0:0:0:0:
320,192,6134,1,0,0:0:0:0:
320,192,6475,1,0,0:0:0:0:
448,192,6930,1,0,0:0:0:0:
64,192,7157,1,0,0:0:0:0:
64,192,7612,1,0,0:0:0:0:
320,192,7612,1,0,0:0:0:0:
192,192,7839,1,0,0:0:0:0:
448,192,8066,1,0,0:0:0:0:
192,192,8180,1,0,0:0:0:0:
320,192,8407,1,0,0:0:0:0:
64,192,8748,1,0,0:0:0:0:
192,192,8748,1,0,0:0:0:0:
320,192,8975,1,0,0:0:0:0:
448,192,8975,1,0,0:0:0:0:
192,192,9089,1,0,0:0:0:0:
320,192,9316,1,0,0:0:0:0:
64,192,9430,1,0,0:0:0:0:
448,192,9430,1,0,0:0:0:0:
320,192,9657,1,0,0:0:0:0:
192,192,9771,1,0,0:0:0:0:
448,192,10112,1,0,0:0:0:0:
320,192,10566,1,0,0:0:0:0:
448,192,10566,1,0,0:0:0:0:
64,192,10794,1,0,0:0:0:0:
320,192,10794,1,0,0:0:0:0:
64,192,11248,1,0,0:0:0:0:
448,192,11248,1,0,0:0:0:0:
320,192,11475,1,0,0:0:0:0:
192,192,11703,1,0,0:0:0:0:
320,192,11816,1,0,0:0:0:0:
448,192,12044,1,0,0:0:0:0:
192,192,12385,1,0,0:0:0:0:
320,192,12385,1,0,0:0:0:0:
64,192,12612,1,0,0:0:0:0:
320,192,12612,1,0,0:0:0:0:
192,192,12725,1,0,0:0:0:0:
448,192,12953,1,0,0:0:0:0:
64,192,13066,1,0,0:0:0:0:
320,192,13294,1,0,0:0:0:0:
448,192,13407,1,0,0:0:0:0:
448,0,13748,128,0,14430:1:0:0:0:
192,0,14203,128,0,14430:1:0:0:0:
320,192,14430,1,0,0:0:0:0:
64,192,14885,1,0,0:0:0:0:
448,192,14885,1,0,0:0:0:0:
320,192,15112,1,0,0:0:0:0:
448,192,15339,1,0,0:0:0:0:
64,192,15566,1,0,0:0:0:0:
192,192,15680,1,0,0:0:0:0:
64,192,15794,1,0,0:0:0:0:
448,192,15794,1,0,0:0:0:0:
320,192,15907,1,0,0:0:0:0:
320,192,16135,1,0,0:0:0:0:
448,192,16248,1,0,0:0:0:0:
192,192,16475,1,0,0:0:0:0:
64,192,16703,1,0,0:0:0:0:
320,192,16703,1,0,0:0:0:0:
448,192,16930,1,0,0:0:0:0:
192,192,17044,1,0,0:0:0:0:
192,0,17385,128,0,18066:1:0:0:0:
320,192,17612,1,0,0:0:0:0:
448,192,17612,1,0,0:0:0:0:
448,0,18066,128,0,18521:1:0:0:0:
320,192,18521,1,0,0:0:0:0:
64,192,18748,1,0,0:0:0:0:
448,192,18975,1,0,0:0:0:0:
192,192,19203,1,0,0:0:0:0:
448,192,19316,1,0,0:0:0:0:
64,192,19430,1,0,0:0:0:0:
192,192,19430,1,0,0:0:0:0:
320,192,19544,1,0,0:0:0:0:
320,192,19771,1,0,0:0:0:0:
64,192,19885,1,0,0:0:0:0:
192,192,20112,1,0,0:0:0:0:
320,192,20339,1,0,0:0:0:0:
448,192,20339,1,0,0:0:0:0:
320,192,20680,1,0,0:0:0:0:
320,0,21021,128,0,21703:1:0:0:0:
192,192,21248,1,0,0:0:0:0:
448,192,21248,1,0,0:0:0:0:
64,0,21703,128,0,22157:1:0:0:0:
192,192,22157,1,0,0:0:0:0:
448,192,22157,1,0,0:0:0:0:
64,192,22385,1,0,0:0:0:0:
192,192,22612,1,0,0:0:0:0:
448,192,22839,1,0,0:0:0:0:
320,192,22953,1,0,0:0:0:0:
64,192,23066,1,0,0:0:0:0:
448,192,23066,1,0,0:0:0:0:
192,192,23180,1,0,0:0:0:0:
448,192,23407,1,0,0:0:0:0:
320,192,23521,1,0,0:0:0:0:
192,192,23748,1,0,0:0:0:0:
192,192,23975,1,0,0:0:0:0:
448,192,23975,1,0,0:0:0:0:
320,192,24316,1,0,0:0:0:0:
448,0,24657,128,0,25339:1:0:0:0:
64,192,24885,1,0,0:0:0:0:
192,192,24885,1,0,0:0:0:0:
192,0,25339,128,0,25794:1:0:0:0:
320,192,25794,1,0,0:0:0:0:
448,192,25794,1,0,0:0:0:0:
64,192,26021,1,0,0:0:0:0:
320,192,26248,1,0,0:0:0:0:
448,192,26475,1,0,0:0:0:0:
192,192,26589,1,0,0:0:0:0:
320,192,26589,1,0,0:0:0:0:
64,192,26930,1,0,0:0:0:0:
320,192,26930,1,0,0:0:0:0:
192,192,27157,1,0,0:0:0:0:
448,192,27157,1,0,0:0:0:0:
320,192,27385,1,0,0:0:0:0:
64,192,27612,1,0,0:0:0:0:
320,192,27612,1,0,0:0:0:0:
320,192,27953,1,0,0:0:0:0:
192,192,28010,1,0,0:0:0:0:
320,192,28066,1,0,0:0:0:0:
320,192,28294,1,0,0:0:0:0:
448,192,28407,1,0,0:0:0:0:
192,192,28521,1,0,0:0:0:0:
64,0,28748,128,0,28975:1:0:0:0:
192,0,28975,128,0,29430:1:0:0:0:
64,192,29430,1,0,0:0:0:0:
320,192,29544,1,0,0:0:0:0:
448,192,29657,1,0,0:0:0:0:
320,192,29885,1,0,0:0:0:0:
448,192,29998,1,0,0:0:0:0:
64,192,30225,1,0,0:0:0:0:
192,192,30339,1,0,0:0:0:0:
320,192,30680,1,0,0:0:0:0:
448,192,30907,1,0,0:0:0:0:
64,192,31135,1,0,0:0:0:0:
320,192,31248,1,0,0:0:0:0:
320,192,31475,1,0,0:0:0:0:
448,192,31589,1,0,0:0:0:0:
192,192,31816,1,0,0:0:0:0:
320,192,31930,1,0,0:0:0:0:
448,192,32044,1,0,0:0:0:0:
320,192,32271,1,0,0:0:0:0:
192,192,32498,1,0,0:0:0:0:
320,192,32725,1,0,0:0:0:0:
192,192,32953,1,0,0:0:0:0:
320,192,33066,1,0,0:0:0:0:
448,192,33180,1,0,0:0:0:0:
64,192,33294,1,0,0:0:0:0:
448,192,33521,1,0,0:0:0:0:
192,192,33748,1,0,0:0:0:0:
448,192,33975,1,0,0:0:0:0:
192,192,34089,1,0,0:0:0:0:
192,192,34316,1,0,0:0:0:0:
448,192,34544,1,0,0:0:0:0:
320,192,34771,1,0,0:0:0:0:
192,192,34885,1,0,0:0:0:0:
64,192,35112,1,0,0:0:0:0:
320,192,35225,1,0,0:0:0:0:
448,192,35453,1,0,0:0:0:0:
320,192,35566,1,0,0:0:0:0:
320,192,35794,1,0,0:0:0:0:
192,192,35907,1,0,0:0:0:0:
448,192,36135,1,0,0:0:0:0:
192,192,36248,1,0,0:0:0:0:
320,192,36475,1,0,0:0:0:0:
192,192,36703,1,0,0:0:0:0:
64,192,36816,1,0,0:0:0:0:
320,192,36930,1,0,0:0:0:0:
64,192,37157,1,0,0:0:0:0:
320,192,37271,1,0,0:0:0:0:
192,192,37498,1,0,0:0:0:0:
448,192,37612,1,0,0:0:0:0:
64,192,37953,1,0,0:0:0:0:
320,192,38180,1,0,0:0:0:0:
192,192,38407,1,0,0:0:0:0:
64,192,38521,1,0,0:0:0:0:
320,192,38748,1,0,0:0:0:0:
192,192,38862,1,0,0:0:0:0:
448,192,39089,1,0,0:0:0:0:
64,192,39203,1,0,0:0:0:0:
320,192,39316,1,0,0:0:0:0:
64,192,39544,1,0,0:0:0:0:
448,192,39771,1,0,0:0:0:0:
64,192,39998,1,0,0:0:0:0:
448,192,40226,1,0,0:0:0:0:
64,192,40339,1,0,0:0:0:0:
320,192,40453,1,0,0:0:0:0:
192,192,40566,1,0,0:0:0:0:
320,192,40794,1,0,0:0:0:0:
448,192,41021,1,0,0:0:0:0:
320,192,41248,1,0,0:0:0:0:
448,192,41362,1,0,0:0:0:0:
320,192,41589,1,0,0:0:0:0:
448,192,41703,1,0,0:0:0:0:
192,192,41816,1,0,0:0:0:0:
64,192,42044,1,0,0:0:0:0:
448,192,42157,1,0,0:0:0:0:
192,192,42385,1,0,0:0:0:0:
64,192,42498,1,0,0:0:0:0:
320,192,42726,1,0,0:0:0:0:
64,192,42839,1,0,0:0:0:0:
64,0,43294,128,0,43976:1:0:0:0:
320,192,43976,1,0,0:0:0:0:
448,192,43976,1,0,0:0:0:0:
64,192,44203,1,0,0:0:0:0:
192,192,44430,1,0,0:0:0:0:
320,192,44430,1,0,0:0:0:0:
448,192,44657,1,0,0:0:0:0:
320,192,44771,1,0,0:0:0:0:
64,192,44885,1,0,0:0:0:0:
448,192,44885,1,0,0:0:0:0:
192,192,44998,1,0,0:0:0:0:
448,192,45226,1,0,0:0:0:0:
192,192,45339,1,0,0:0:0:0:
320,192,45339,1,0,0:0:0:0:
64,192,45566,1,0,0:0:0:0:
320,192,45794,1,0,0:0:0:0:
448,192,45794,1,0,0:0:0:0:
320,192,46135,1,0,0:0:0:0:
64,192,46248,1,0,0:0:0:0:
192,192,46248,1,0,0:0:0:0:
448,0,46476,128,0,47157:1:0:0:0:
64,192,46703,1,0,0:0:0:0:
320,192,46703,1,0,0:0:0:0:
192,0,47157,128,0,47612:1:0:0:0:
64,192,47612,1,0,0:0:0:0:
448,192,47612,1,0,0:0:0:0:
320,192,47839,1,0,0:0:0:0:
64,192,48066,1,0,0:0:0:0:
192,192,48066,1,0,0:0:0:0:
320,192,48294,1,0,0:0:0:0:
448,192,48407,1,0,0:0:0:0:
192,192,48521,1,0,0:0:0:0:
320,192,48521,1,0,0:0:0:0:
320,192,48748,1,0,0:0:0:0:
64,192,48976,1,0,0:0:0:0:
448,192,48976,1,0,0:0:0:0:
192,192,49203,1,0,0:0:0:0:
320,192,49430,1,0,0:0:0:0:
448,192,49430,1,0,0:0:0:0:
192,192,49771,1,0,0:0:0:0:
320,192,49885,1,0,0:0:0:0:
448,192,49885,1,0,0:0:0:0:
64,0,50112,128,0,50794:1:0:0:0:
192,192,50339,1,0,0:0:0:0:
448,192,50339,1,0,0:0:0:0:
320,192,50794,1,0,0:0:0:0:
448,0,50794,128,0,51248:1:0:0:0:
192,192,51248,1,0,0:0:0:0:
320,192,51248,1,0,0:0:0:0:
192,192,51476,1,0,0:0:0:0:
64,192,51703,1,0,0:0:0:0:
448,192,51703,1,0,0:0:0:0:
320,192,51930,1,0,0:0:0:0:
448,192,52044,1,0,0:0:0:0:
192,192,52157,1,0,0:0:0:0:
320,192,52157,1,0,0:0:0:0:
64,192,52271,1,0,0:0:0:0:
448,192,52498,1,0,0:0:0:0:
64,192,52612,1,0,0:0:0:0:
320,192,52612,1,0,0:0:0:0:
320,192,52839,1,0,0:0:0:0:
192,192,53066,1,0,0:0:0:0:
448,192,53066,1,0,0:0:0:0:
192,192,53407,1,0,0:0:0:0:
64,192,53521,1,0,0:0:0:0:
448,192,53521,1,0,0:0:0:0:
320,0,53748,128,0,54430:1:0:0:0:
192,192,53976,1,0,0:0:0:0:
448,192,53976,1,0,0:0:0:0:
64,192,54430,1,0,0:0:0:0:
192,192,54430,1,0,0:0:0:0:
320,192,54885,1,0,0:0:0:0:
448,192,54885,1,0,0:0:0:0:
64,192,55112,1,0,0:0:0:0:
320,192,55112,1,0,0:0:0:0:
192,192,55339,1,0,0:0:0:0:
448,192,55339,1,0,0:0:0:0:
448,192,55566,1,0,0:0:0:0:
192,192,55680,1,0,0:0:0:0:
320,192,55680,1,0,0:0:0:0:
192,192,56021,1,0,0:0:0:0:
320,192,56021,1,0,0:0:0:0:
320,192,56248,1,0,0:0:0:0:
448,192,56248,1,0,0:0:0:0:
192,192,56476,1,0,0:0:0:0:
320,192,56476,1,0,0:0:0:0:
64,192,56703,1,0,0:0:0:0:
192,192,56703,1,0,0:0:0:0:
192,192,57044,1,0,0:0:0:0:
320,192,57101,1,0,0:0:0:0:
192,192,57157,1,0,0:0:0:0:
448,0,57385,128,0,58066:1:0:0:0:
320,192,57498,1,0,0:0:0:0:
192,192,57612,1,0,0:0:0:0:
320,0,58066,128,0,58521:1:0:0:0:
64,0,58521,128,0,59885:1:0:0:0:
448,192,59885,1,0,0:0:0:0:
192,192,60339,1,0,0:0:0:0:
320,192,60566,1,0,0:0:0:0:
448,192,60794,1,0,0:0:0:0:
320,192,61248,1,0,0:0:0:0:
64,0,61703,128,0,63976:1:0:0:0:
320,192,64657,1,0,0:0:0:0:
448,192,64885,1,0,0:0:0:0:
192,192,65112,1,0,0:0:0:0:
320,192,65339,1,0,0:0:0:0:
64,192,65566,1,0,0:0:0:0:
320,192,65794,1,0,0:0:0:0:
448,192,65794,1,0,0:0:0:0:
64,192,66248,1,0,0:0:0:0:
448,192,66248,1,0,0:0:0:0:
192,192,66703,1,0,0:0:0:0:
320,192,66703,1,0,0:0:0:0:
192,192,67157,1,0,0:0:0:0:
448,192,67157,1,0,0:0:0:0:
192,192,67612,1,0,0:0:0:0:
320,192,67726,1,0,0:0:0:0:
192,192,67953,1,0,0:0:0:0:
448,192,68066,1,0,0:0:0:0:
320,192,68294,1,0,0:0:0:0:
192,192,68407,1,0,0:0:0:0:
320,192,68635,1,0,0:0:0:0:
192,192,68748,1,0,0:0:0:0:
192,192,68975,1,0,0:0:0:0:
320,192,69089,1,0,0:0:0:0:
64,192,69203,1,0,0:0:0:0:
192,192,69316,1,0,0:0:0:0:
448,192,69430,1,0,0:0:0:0:
320,192,69544,1,0,0:0:0:0:
192,192,69657,1,0,0:0:0:0:
64,192,69771,1,0,0:0:0:0:
320,192,69885,1,0,0:0:0:0:
448,192,69998,1,0,0:0:0:0:
320,192,70112,1,0,0:0:0:0:
192,192,70169,1,0,0:0:0:0:
64,192,70226,1,0,0:0:0:0:
192,192,70282,1,0,0:0:0:0:
320,192,70339,1,0,0:0:0:0:
448,192,70396,1,0,0:0:0:0:
320,192,70453,1,0,0:0:0:0:
192,192,70510,1,0,0:0:0:0:
64,192,70566,1,0,0:0:0:0:
192,192,70680,1,0,0:0:0:0:
320,192,70794,1,0,0:0:0:0:
192,192,70907,1,0,0:0:0:0:
448,192,71021,1,0,0:0:0:0:
320,192,71135,1,0,0:0:0:0:
64,192,71248,1,0,0:0:0:0:
448,192,71248,1,0,0:0:0:0:
320,192,71703,1,0,0:0:0:0:
448,192,72157,1,0,0:0:0:0:
320,192,72385,1,0,0:0:0:0:
192,192,72612,1,0,0:0:0:0:
320,192,72612,1,0,0:0:0:0:
448,192,72839,1,0,0:0:0:0:
64,192,73066,1,0,0:0:0:0:
448,192,73066,1,0,0:0:0:0:
320,192,73521,1,0,0:0:0:0:
448,192,73521,1,0,0:0:0:0:
192,192,73748,1,0,0:0:0:0:
64,192,73975,1,0,0:0:0:0:
448,192,73975,1,0,0:0:0:0:
64,192,74430,1,0,0:0:0:0:
320,0,74430,128,0,75339:1:0:0:0:
64,192,74885,1,0,0:0:0:0:
192,192,74885,1,0,0:0:0:0:
64,192,75339,1,0,0:0:0:0:
448,192,75339,1,0,0:0:0:0:
448,192,75566,1,0,0:0:0:0:
64,192,75794,1,0,0:0:0:0:
320,192,75794,1,0,0:0:0:0:
192,192,76021,1,0,0:0:0:0:
320,192,76248,1,0,0:0:0:0:
448,192,76248,1,0,0:0:0:0:
192,192,76475,1,0,0:0:0:0:
448,192,76703,1,0,0:0:0:0:
64,0,76703,128,0,77157:1:0:0:0:
192,192,77157,1,0,0:0:0:0:
320,192,77157,1,0,0:0:0:0:
320,192,77385,1,0,0:0:0:0:
64,192,77612,1,0,0:0:0:0:
448,192,77612,1,0,0:0:0:0:
448,192,77839,1,0,0:0:0:0:
320,192,78066,1,0,0:0:0:0:
448,192,78066,1,0,0:0:0:0:
192,0,78294,128,0,78976:1:0:0:0:
64,192,78521,1,0,0:0:0:0:
448,192,78521,1,0,0:0:0:0:
64,192,78976,1,0,0:0:0:0:
320,192,78976,1,0,0:0:0:0:
192,192,79430,1,0,0:0:0:0:
320,192,79430,1,0,0:0:0:0:
64,192,79885,1,0,0:0:0:0:
448,192,79885,1,0,0:0:0:0:
192,192,80339,1,0,0:0:0:0:
320,0,80339,128,0,80794:1:0:0:0:
64,192,80794,1,0,0:0:0:0:
448,192,80794,1,0,0:0:0:0:
192,0,81021,128,0,81703:1:0:0:0:
320,192,81248,1,0,0:0:0:0:
448,192,81248,1,0,0:0:0:0:
64,192,81703,1,0,0:0:0:0:
320,192,81703,1,0,0:0:0:0:
448,192,81930,1,0,0:0:0:0:
192,192,82157,1,0,0:0:0:0:
320,192,82157,1,0,0:0:0:0:
64,192,82385,1,0,0:0:0:0:
192,192,82612,1,0,0:0:0:0:
448,192,82612,1,0,0:0:0:0:
320,0,82839,128,0,83521:1:0:0:0:
64,192,83066,1,0,0:0:0:0:
192,192,83066,1,0,0:0:0:0:
192,192,83521,1,0,0:0:0:0:
448,192,83521,1,0,0:0:0:0:
448,192,83748,1,0,0:0:0:0:
192,192,83976,1,0,0:0:0:0:
320,192,83976,1,0,0:0:0:0:
192,192,84430,1,0,0:0:0:0:
448,192,84430,1,0,0:0:0:0:
448,192,84657,1,0,0:0:0:0:
64,192,84885,1,0,0:0:0:0:
192,192,84885,1,0,0:0:0:0:
320,192,85112,1,0,0:0:0:0:
192,192,85339,1,0,0:0:0:0:
448,192,85339,1,0,0:0:0:0:
320,192,85566,1,0,0:0:0:0:
64,192,85794,1,0,0:0:0:0:
448,192,85794,1,0,0:0:0:0:
320,192,86021,1,0,0:0:0:0:
448,192,86135,1,0,0:0:0:0:
64,192,86248,1,0,0:0:0:0:
320,192,86248,1,0,0:0:0:0:
64,192,86475,1,0,0:0:0:0:
448,192,86475,1,0,0:0:0:0:
192,192,86703,1,0,0:0:0:0:
320,192,86703,1,0,0:0:0:0:
64,192,86816,1,0,0:0:0:0:
192,192,86930,1,0,0:0:0:0:
448,192,86930,1,0,0:0:0:0:
320,192,87157,1,0,0:0:0:0:
448,192,87157,1,0,0:0:0:0:
192,192,87385,1,0,0:0:0:0:
320,192,87385,1,0,0:0:0:0:
448,192,87612,1,0,0:0:0:0:
64,0,87612,128,0,88294:1:0:0:0:
320,192,88066,1,0,0:0:0:0:
448,192,88066,1,0,0:0:0:0:
192,0,88294,128,0,88975:1:0:0:0:
64,192,88521,1,0,0:0:0:0:
448,192,88521,1,0,0:0:0:0:
64,192,88975,1,0,0:0:0:0:
448,0,88975,128,0,89657:1:0:0:0:
64,192,89430,1,0,0:0:0:0:
192,192,89430,1,0,0:0:0:0:
192,192,89885,1,0,0:0:0:0:
448,192,89885,1,0,0:0:0:0:
64,192,90112,1,0,0:0:0:0:
192,192,90339,1,0,0:0:0:0:
320,192,90339,1,0,0:0:0:0:
320,192,90566,1,0,0:0:0:0:
192,192,90794,1,0,0:0:0:0:
448,192,90794,1,0,0:0:0:0:
192,192,91021,1,0,0:0:0:0:
320,192,91248,1,0,0:0:0:0:
448,192,91248,1,0,0:0:0:0:
64,192,91703,1,0,0:0:0:0:
320,192,91703,1,0,0:0:0:0:
320,192,91930,1,0,0:0:0:0:
64,192,92157,1,0,0:0:0:0:
192,192,92157,1,0,0:0:0:0:
448,192,92385,1,0,0:0:0:0:
64,192,92612,1,0,0:0:0:0:
192,192,92612,1,0,0:0:0:0:
320,0,92839,128,0,93521:1:0:0:0:
64,192,93066,1,0,0:0:0:0:
192,192,93066,1,0,0:0:0:0:
192,192,93521,1,0,0:0:0:0:
448,192,93521,1,0,0:0:0:0:
64,192,93975,1,0,0:0:0:0:
448,0,93975,128,0,94430:1:0:0:0:
320,192,94430,1,0,0:0:0:0:
192,0,94430,128,0,94885:1:0:0:0:
448,192,94885,1,0,0:0:0:0:
320,0,94885,128,0,95339:1:0:0:0:
64,192,95339,1,0,0:0:0:0:
192,192,95339,1,0,0:0:0:0:
192,0,95566,128,0,96248:1:0:0:0:
64,192,95794,1,0,0:0:0:0:
448,192,95794,1,0,0:0:0:0:
320,192,96248,1,0,0:0:0:0:
448,192,96248,1,0,0:0:0:0:
320,192,96475,1,0,0:0:0:0:
192,192,96703,1,0,0:0:0:0:
448,192,96703,1,0,0:0:0:0:
320,192,96930,1,0,0:0:0:0:
192,192,97157,1,0,0:0:0:0:
320,192,97157,1,0,0:0:0:0:
320,0,97385,128,0,98066:1:0:0:0:
64,192,97612,1,0,0:0:0:0:
448,192,97612,1,0,0:0:0:0:
64,192,98066,1,0,0:0:0:0:
192,192,98066,1,0,0:0:0:0:
192,192,98294,1,0,0:0:0:0:
64,192,98521,1,0,0:0:0:0:
448,192,98521,1,0,0:0:0:0:
192,192,98976,1,0,0:0:0:0:
448,192,98976,1,0,0:0:0:0:
192,192,99203,1,0,0:0:0:0:
320,192,99203,1,0,0:0:0:0:
320,192,99657,1,0,0:0:0:0:
448,192,99657,1,0,0:0:0:0:
64,192,99885,1,0,0:0:0:0:
192,192,100112,1,0,0:0:0:0:
320,192,100112,1,0,0:0:0:0:
192,192,100794,1,0,0:0:0:0:
448,192,101248,1,0,0:0:0:0:
192,192,101703,1,0,0:0:0:0:
448,192,101703,1,0,0:0:0:0:
64,192,102157,1,0,0:0:0:0:
320,0,102157,128,0,104885:1:0:0:0:
64,192,102612,1,0,0:0:0:0:
448,192,102612,1,0,0:0:0:0:
192,192,103066,1,0,0:0:0:0:
448,192,103066,1,0,0:0:0:0:
64,192,103521,1,0,0:0:0:0:
192,192,103521,1,0,0:0:0:0:
192,192,103976,1,0,0:0:0:0:
448,192,103976,1,0,0:0:0:0:
64,192,104430,1,0,0:0:0:0:
192,192,104430,1,0,0:0:0:0:
64,192,104885,1,0,0:0:0:0:
448,192,104885,1,0,0:0:0:0:
64,192,105339,1,0,0:0:0:0:
448,192,105339,1,0,0:0:0:0:
192,192,105794,1,0,0:0:0:0:
320,192,105794,1,0,0:0:0:0:
192,192,106248,1,0,0:0:0:0:
448,192,106248,1,0,0:0:0:0:
192,192,106703,1,0,0:0:0:0:
448,192,106703,1,0,0:0:0:0:
64,192,107157,1,0,0:0:0:0:
320,192,107157,1,0,0:0:0:0:
448,192,107612,1,0,0:0:0:0:
192,192,107726,1,0,0:0:0:0:
320,192,107953,1,0,0:0:0:0:
448,192,108066,1,0,0:0:0:0:
192,192,108294,1,0,0:0:0:0:
448,192,108407,1,0,0:0:0:0:
320,192,108635,1,0,0:0:0:0:
192,192,108748,1,0,0:0:0:0:
448,192,108975,1,0,0:0:0:0:
64,192,109089,1,0,0:0:0:0:
320,192,109203,1,0,0:0:0:0:
192,0,109430,128,0,111703:1:0:0:0:
64,192,109885,1,0,0:0:0:0:
448,192,109885,1,0,0:0:0:0:
320,192,110339,1,0,0:0:0:0:
448,192,110339,1,0,0:0:0:0:
64,192,110794,1,0,0:0:0:0:
448,192,110794,1,0,0:0:0:0:
64,192,111248,1,0,0:0:0:0:
320,192,111248,1,0,0:0:0:0:
320,192,111703,1,0,0:0:0:0:
448,192,111703,1,0,0:0:0:0:
64,192,112157,1,0,0:0:0:0:
448,192,112157,1,0,0:0:0:0:
192,192,112612,1,0,0:0:0:0:
320,192,112612,1,0,0:0:0:0:
448,192,113066,1,0,0:0:0:0:
320,192,113180,1,0,0:0:0:0:
64,192,113294,1,0,0:0:0:0:
320,192,113521,1,0,0:0:0:0:
448,192,113748,1,0,0:0:0:0:
320,192,113975,1,0,0:0:0:0:
192,192,114089,1,0,0:0:0:0:
64,192,114316,1,0,0:0:0:0:
192,192,114544,1,0,0:0:0:0:
320,192,114771,1,0,0:0:0:0:
448,192,114884,1,0,0:0:0:0:
64,192,115112,1,0,0:0:0:0:
320,192,115225,1,0,0:0:0:0:
448,192,115453,1,0,0:0:0:0:
192,192,115566,1,0,0:0:0:0:
192,0,116021,128,0,116475:1:0:0:0:
448,192,116703,1,0,0:0:0:0:
192,192,116930,1,0,0:0:0:0:
64,192,117157,1,0,0:0:0:0:
320,192,117384,1,0,0:0:0:0:
448,192,117498,1,0,0:0:0:0:
320,192,117725,1,0,0:0:0:0:
320,192,117953,1,0,0:0:0:0:
192,192,118066,1,0,0:0:0:0:
192,192,118293,1,0,0:0:0:0:
448,192,118521,1,0,0:0:0:0:
192,192,118862,1,0,0:0:0:0:
320,0,119202,128,0,119657:1:0:0:0:
192,0,119884,128,0,120339:1:0:0:0:
64,192,120339,1,0,0:0:0:0:
448,192,120566,1,0,0:0:0:0:
192,192,120793,1,0,0:0:0:0:
448,192,121021,1,0,0:0:0:0:
320,192,121134,1,0,0:0:0:0:
320,192,121362,1,0,0:0:0:0:
320,192,121589,1,0,0:0:0:0:
192,192,121702,1,0,0:0:0:0:
320,192,121930,1,0,0:0:0:0:
448,192,122157,1,0,0:0:0:0:
320,192,122498,1,0,0:0:0:0:
192,0,122839,128,0,123975:1:0:0:0:
448,0,123521,128,0,123975:1:0:0:0:
64,192,123975,1,0,0:0:0:0:
320,192,123975,1,0,0:0:0:0:
320,192,124202,1,0,0:0:0:0:
192,192,124430,1,0,0:0:0:0:
448,192,124430,1,0,0:0:0:0:
64,192,124657,1,0,0:0:0:0:
192,192,124770,1,0,0:0:0:0:
64,192,124884,1,0,0:0:0:0:
320,192,124884,1,0,0:0:0:0:
448,192,124998,1,0,0:0:0:0:
192,192,125225,1,0,0:0:0:0:
64,192,125339,1,0,0:0:0:0:
320,192,125339,1,0,0:0:0:0:
320,192,125566,1,0,0:0:0:0:
192,192,125793,1,0,0:0:0:0:
448,192,125793,1,0,0:0:0:0:
320,192,126134,1,0,0:0:0:0:
64,192,126248,1,0,0:0:0:0:
192,192,126248,1,0,0:0:0:0:
448,0,126475,128,0,127157:1:0:0:0:
192,192,126702,1,0,0:0:0:0:
320,192,126702,1,0,0:0:0:0:
64,192,127157,1,0,0:0:0:0:
320,192,127157,1,0,0:0:0:0:
192,192,127611,1,0,0:0:0:0:
448,192,127611,1,0,0:0:0:0:
64,192,127839,1,0,0:0:0:0:
192,192,127839,1,0,0:0:0:0:
320,192,128066,1,0,0:0:0:0:
448,192,128066,1,0,0:0:0:0:
192,192,128293,1,0,0:0:0:0:
320,192,128407,1,0,0:0:0:0:
448,192,128407,1,0,0:0:0:0:
64,192,128748,1,0,0:0:0:0:
320,192,128748,1,0,0:0:0:0:
192,192,128975,1,0,0:0:0:0:
448,192,128975,1,0,0:0:0:0:
64,192,129202,1,0,0:0:0:0:
192,192,129202,1,0,0:0:0:0:
320,192,129429,1,0,0:0:0:0:
448,192,129429,1,0,0:0:0:0:
64,192,129770,1,0,0:0:0:0:
448,192,129827,1,0,0:0:0:0:
64,192,129884,1,0,0:0:0:0:
192,0,130111,128,0,130566:1:0:0:0:
320,192,130225,1,0,0:0:0:0:
448,192,130339,1,0,0:0:0:0:
64,192,130793,1,0,0:0:0:0:
320,0,130793,128,0,131248:1:0:0:0:
448,192,131248,1,0,0:0:0:0:
192,0,131248,128,0,132611:1:0:0:0:
64,192,131702,1,0,0:0:0:0:
448,192,131702,1,0,0:0:0:0:
320,192,132157,1,0,0:0:0:0:
448,192,132157,1,0,0:0:0:0:
64,192,132611,1,0,0:0:0:0:
448,192,132611,1,0,0:0:0:0:
192,192,133066,1,0,0:0:0:0:
320,192,133066,1,0,0:0:0:0:
64,192,133293,1,0,0:0:0:0:
192,192,133520,1,0,0:0:0:0:
448,192,133520,1,0,0:0:0:0:
64,192,133975,1,0,0:0:0:0:
320,192,133975,1,0,0:0:0:0:
320,192,134429,1,0,0:0:0:0:
64,0,134429,128,0,136702:1:0:0:0:
320,192,134884,1,0,0:0:0:0:
448,192,134884,1,0,0:0:0:0:
192,192,135339,1,0,0:0:0:0:
448,192,135339,1,0,0:0:0:0:
320,192,135793,1,0,0:0:0:0:
448,192,135793,1,0,0:0:0:0:
192,192,136248,1,0,0:0:0:0:
320,192,136248,1,0,0:0:0:0:
192,192,136702,1,0,0:0:0:0:
448,192,136702,1,0,0:0:0:0:
448,192,137384,1,0,0:0:0:0:
64,192,137611,1,0,0:0:0:0:
320,192,137611,1,0,0:0:0:0:
192,192,137839,1,0,0:0:0:0:
64,192,138066,1,0,0:0:0:0:
448,192,138066,1,0,0:0:0:0:
320,192,138293,1,0,0:0:0:0:
64,192,138520,1,0,0:0:0:0:
448,192,138520,1,0,0:0:0:0:
192,192,138975,1,0,0:0:0:0:
448,192,138975,1,0,0:0:0:0:
192,192,139429,1,0,0:0:0:0:
320,192,139429,1,0,0:0:0:0:
64,192,139884,1,0,0:0:0:0:
448,192,139884,1,0,0:0:0:0:
192,192,140338,1,0,0:0:0:0:
448,192,140338,1,0,0:0:0:0:
192,192,140679,1,0,0:0:0:0:
448,192,140679,1,0,0:0:0:0:
64,192,140793,1,0,0:0:0:0:
320,192,141020,1,0,0:0:0:0:
448,192,141020,1,0,0:0:0:0:
64,192,141134,1,0,0:0:0:0:
64,192,141361,1,0,0:0:0:0:
448,192,141361,1,0,0:0:0:0:
192,192,141475,1,0,0:0:0:0:
192,192,141702,1,0,0:0:0:0:
448,192,141702,1,0,0:0:0:0:
320,192,141816,1,0,0:0:0:0:
448,192,141929,1,0,0:0:0:0:
192,192,142157,1,0,0:0:0:0:
64,192,142270,1,0,0:0:0:0:
192,192,142384,1,0,0:0:0:0:
320,192,142498,1,0,0:0:0:0:
448,192,142611,1,0,0:0:0:0:
320,192,142725,1,0,0:0:0:0:
192,192,142838,1,0,0:0:0:0:
64,192,142895,1,0,0:0:0:0:
192,192,142952,1,0,0:0:0:0:
320,192,143009,1,0,0:0:0:0:
448,192,143066,1,0,0:0:0:0:
320,192,143122,1,0,0:0:0:0:
192,192,143179,1,0,0:0:0:0:
64,192,143236,1,0,0:0:0:0:
192,192,143293,1,0,0:0:0:0:
320,192,143407,1,0,0:0:0:0:
192,192,143520,1,0,0:0:0:0:
64,192,143634,1,0,0:0:0:0:
192,192,143747,1,0,0:0:0:0:
320,192,143861,1,0,0:0:0:0:
64,192,143975,1,0,0:0:0:0:
448,192,143975,1,0,0:0:0:0:
320,192,144657,1,0,0:0:0:0:
64,192,144884,1,0,0:0:0:0:
192,192,145112,1,0,0:0:0:0:
448,192,145339,1,0,0:0:0:0:
192,192,145566,1,0,0:0:0:0:
320,0,145793,128,0,147659:1:0:0:0:
64,192,146068,1,0,0:0:0:0:
448,192,146295,1,0,0:0:0:0:
192,192,146409,1,0,0:0:0:0:
64,192,146636,1,0,0:0:0:0:
448,192,147204,1,0,0:0:0:0:
64,192,147318,1,0,0:0:0:0:
448,192,147545,1,0,0:0:0:0:
192,192,147659,1,0,0:0:0:0:
64,192,147886,1,0,0:0:0:0:
192,192,148000,1,0,0:0:0:0:
448,192,148341,1,0,0:0:0:0:
64,192,148568,1,0,0:0:0:0:
320,192,148795,1,0,0:0:0:0:
192,192,149023,1,0,0:0:0:0:
192,0,149250,128,0,151295:1:0:0:0:
320,192,149477,1,0,0:0:0:0:
64,192,149704,1,0,0:0:0:0:
448,192,149932,1,0,0:0:0:0:
320,192,150045,1,0,0:0:0:0:
64,192,150273,1,0,0:0:0:0:
448,192,150841,1,0,0:0:0:0:
320,192,150955,1,0,0:0:0:0:
64,192,151182,1,0,0:0:0:0:
320,192,151295,1,0,0:0:0:0:
448,192,151523,1,0,0:0:0:0:
192,192,151636,1,0,0:0:0:0:
320,192,151977,1,0,0:0:0:0:
448,192,151977,1,0,0:0:0:0:
64,192,152205,1,0,0:0:0:0:
320,192,152432,1,0,0:0:0:0:
192,192,152659,1,0,0:0:0:0:
320,192,152886,1,0,0:0:0:0:
64,192,153114,1,0,0:0:0:0:
192,192,153114,1,0,0:0:0:0:
64,192,153568,1,0,0:0:0:0:
448,192,153568,1,0,0:0:0:0:
192,192,154023,1,0,0:0:0:0:
320,192,154023,1,0,0:0:0:0:
320,192,154477,1,0,0:0:0:0:
448,192,154477,1,0,0:0:0:0:
192,192,154932,1,0,0:0:0:0:
448,192,154932,1,0,0:0:0:0:
64,192,155386,1,0,0:0:0:0:
320,192,155386,1,0,0:0:0:0:
192,192,155841,1,0,0:0:0:0:
320,192,155841,1,0,0:0:0:0:
320,192,156296,1,0,0:0:0:0:
448,192,156296,1,0,0:0:0:0:
64,192,156750,1,0,0:0:0:0:
192,192,156750,1,0,0:0:0:0:
192,192,157091,1,0,0:0:0:0:
448,192,157091,1,0,0:0:0:0:
320,192,157205,1,0,0:0:0:0:
64,192,157432,1,0,0:0:0:0:
320,192,157432,1,0,0:0:0:0:
192,192,157545,1,0,0:0:0:0:
192,192,157773,1,0,0:0:0:0:
448,192,157773,1,0,0:0:0:0:
320,192,157886,1,0,0:0:0:0:
64,192,158114,1,0,0:0:0:0:
192,192,158114,1,0,0:0:0:0:
192,192,158341,1,0,0:0:0:0:
448,192,158341,1,0,0:0:0:0:
320,192,158568,1,0,0:0:0:0:
448,192,158682,1,0,0:0:0:0:
320,192,158795,1,0,0:0:0:0:
192,192,158909,1,0,0:0:0:0:
64,192,159023,1,0,0:0:0:0:
192,192,159136,1,0,0:0:0:0:
320,192,159250,1,0,0:0:0:0:
448,192,159307,1,0,0:0:0:0:
320,192,159363,1,0,0:0:0:0:
192,192,159420,1,0,0:0:0:0:
64,192,159477,1,0,0:0:0:0:
192,192,159534,1,0,0:0:0:0:
320,192,159591,1,0,0:0:0:0:
448,192,159647,1,0,0:0:0:0:
320,192,159704,1,0,0:0:0:0:
192,192,159818,1,0,0:0:0:0:
64,192,159932,1,0,0:0:0:0:
192,192,160045,1,0,0:0:0:0:
320,192,160159,1,0,0:0:0:0:
448,192,160272,1,0,0:0:0:0:
64,192,160386,1,0,0:0:0:0:
320,192,160386,1,0,0:0:0:0:
192,192,160841,1,0,0:0:0:0:
192,192,161295,1,0,0:0:0:0:
64,192,161522,1,0,0:0:0:0:
320,192,161750,1,0,0:0:0:0:
448,192,161750,1,0,0:0:0:0:
192,192,161977,1,0,0:0:0:0:
64,192,162204,1,0,0:0:0:0:
448,192,162204,1,0,0:0:0:0:
64,192,162659,1,0,0:0:0:0:
192,192,162659,1,0,0:0:0:0:
320,192,162886,1,0,0:0:0:0:
64,192,163113,1,0,0:0:0:0:
448,192,163113,1,0,0:0:0:0:
448,192,163568,1,0,0:0:0:0:
192,0,163568,128,0,164477:1:0:0:0:
320,192,164022,1,0,0:0:0:0:
448,192,164022,1,0,0:0:0:0:
64,192,164477,1,0,0:0:0:0:
448,192,164477,1,0,0:0:0:0:
64,192,164704,1,0,0:0:0:0:
192,192,164931,1,0,0:0:0:0:
448,192,164931,1,0,0:0:0:0:
320,192,165159,1,0,0:0:0:0:
64,192,165386,1,0,0:0:0:0:
192,192,165386,1,0,0:0:0:0:
320,192,165613,1,0,0:0:0:0:
64,192,165840,1,0,0:0:0:0:
448,0,165840,128,0,166295:1:0:0:0:
192,192,166295,1,0,0:0:0:0:
320,192,166295,1,0,0:0:0:0:
192,192,166522,1,0,0:0:0:0:
64,192,166750,1,0,0:0:0:0:
448,192,166750,1,0,0:0:0:0:
64,192,166977,1,0,0:0:0:0:
64,192,167204,1,0,0:0:0:0:
192,192,167204,1,0,0:0:0:0:
320,0,167431,128,0,168113:1:0:0:0:
64,192,167659,1,0,0:0:0:0:
448,192,167659,1,0,0:0:0:0:
192,192,168113,1,0,0:0:0:0:
448,192,168113,1,0,0:0:0:0:
192,192,168568,1,0,0:0:0:0:
320,192,168568,1,0,0:0:0:0:
64,192,169022,1,0,0:0:0:0:
448,192,169022,1,0,0:0:0:0:
320,192,169477,1,0,0:0:0:0:
192,0,169477,128,0,169931:1:0:0:0:
64,192,169931,1,0,0:0:0:0:
448,192,169931,1,0,0:0:0:0:
320,0,170159,128,0,170840:1:0:0:0:
64,192,170386,1,0,0:0:0:0:
192,192,170386,1,0,0:0:0:0:
192,192,170840,1,0,0:0:0:0:
448,192,170840,1,0,0:0:0:0:
64,192,171068,1,0,0:0:0:0:
192,192,171295,1,0,0:0:0:0:
320,192,171295,1,0,0:0:0:0:
448,192,171522,1,0,0:0:0:0:
64,192,171749,1,0,0:0:0:0:
320,192,171749,1,0,0:0:0:0:
192,0,171977,128,0,172658:1:0:0:0:
320,192,172204,1,0,0:0:0:0:
448,192,172204,1,0,0:0:0:0:
64,192,172658,1,0,0:0:0:0:
320,192,172658,1,0,0:0:0:0:
64,192,172886,1,0,0:0:0:0:
192,192,173113,1,0,0:0:0:0:
320,192,173113,1,0,0:0:0:0:
64,192,173568,1,0,0:0:0:0:
320,192,173568,1,0,0:0:0:0:
64,192,173795,1,0,0:0:0:0:
320,192,174022,1,0,0:0:0:0:
448,192,174022,1,0,0:0:0:0:
192,192,174249,1,0,0:0:0:0:
64,192,174477,1,0,0:0:0:0:
320,192,174477,1,0,0:0:0:0:
192,192,174704,1,0,0:0:0:0:
64,192,174931,1,0,0:0:0:0:
448,192,174931,1,0,0:0:0:0:
192,192,175158,1,0,0:0:0:0:
64,192,175272,1,0,0:0:0:0:
192,192,175386,1,0,0:0:0:0:
448,192,175386,1,0,0:0:0:0:
64,192,175613,1,0,0:0:0:0:
448,192,175613,1,0,0:0:0:0:
192,192,175840,1,0,0:0:0:0:
320,192,175840,1,0,0:0:0:0:
448,192,175954,1,0,0:0:0:0:
64,192,176068,1,0,0:0:0:0:
320,192,176068,1,0,0:0:0:0:
64,192,176295,1,0,0:0:0:0:
192,192,176295,1,0,0:0:0:0:
192,192,176522,1,0,0:0:0:0:
320,192,176522,1,0,0:0:0:0:
64,192,176749,1,0,0:0:0:0:
448,0,176749,128,0,177431:1:0:0:0:
64,192,177204,1,0,0:0:0:0:
192,192,177204,1,0,0:0:0:0:
320,0,177431,128,0,178113:1:0:0:0:
64,192,177659,1,0,0:0:0:0:
448,192,177659,1,0,0:0:0:0:
448,192,178113,1,0,0:0:0:0:
64,0,178113,128,0,178795:1:0:0:0:
320,192,178568,1,0,0:0:0:0:
448,192,178568,1,0,0:0:0:0:
64,192,179022,1,0,0:0:0:0:
320,192,179022,1,0,0:0:0:0:
448,192,179249,1,0,0:0:0:0:
192,192,179477,1,0,0:0:0:0:
320,192,179477,1,0,0:0:0:0:
192,192,179704,1,0,0:0:0:0:
64,192,179931,1,0,0:0:0:0:
320,192,179931,1,0,0:0:0:0:
320,192,180158,1,0,0:0:0:0:
64,192,180386,1,0,0:0:0:0:
192,192,180386,1,0,0:0:0:0:
192,192,180840,1,0,0:0:0:0:
448,192,180840,1,0,0:0:0:0:
192,192,181068,1,0,0:0:0:0:
320,192,181295,1,0,0:0:0:0:
448,192,181295,1,0,0:0:0:0:
64,192,181522,1,0,0:0:0:0:
320,192,181749,1,0,0:0:0:0:
448,192,181749,1,0,0:0:0:0:
192,0,181977,128,0,182658:1:0:0:0:
320,192,182204,1,0,0:0:0:0:
448,192,182204,1,0,0:0:0:0:
64,192,182658,1,0,0:0:0:0:
320,192,182658,1,0,0:0:0:0:
448,192,183113,1,0,0:0:0:0:
64,0,183113,128,0,183567:1:0:0:0:
192,192,183567,1,0,0:0:0:0:
320,0,183567,128,0,184022:1:0:0:0:
64,192,184022,1,0,0:0:0:0:
192,0,184022,128,0,184477:1:0:0:0:
320,192,184477,1,0,0:0:0:0:
448,192,184477,1,0,0:0:0:0:
320,0,184704,128,0,185386:1:0:0:0:
64,192,184931,1,0,0:0:0:0:
448,192,184931,1,0,0:0:0:0:
64,192,185386,1,0,0:0:0:0:
192,192,185386,1,0,0:0:0:0:
192,192,185613,1,0,0:0:0:0:
64,192,185840,1,0,0:0:0:0:
320,192,185840,1,0,0:0:0:0:
192,192,186067,1,0,0:0:0:0:
192,192,186295,1,0,0:0:0:0:
320,192,186295,1,0,0:0:0:0:
192,0,186522,128,0,187204:1:0:0:0:
64,192,186749,1,0,0:0:0:0:
448,192,186749,1,0,0:0:0:0:
320,192,187204,1,0,0:0:0:0:
448,192,187204,1,0,0:0:0:0:
320,192,187431,1,0,0:0:0:0:
64,192,187658,1,0,0:0:0:0:
448,192,187658,1,0,0:0:0:0:
64,192,188113,1,0,0:0:0:0:
320,192,188113,1,0,0:0:0:0:
192,192,188340,1,0,0:0:0:0:
320,192,188340,1,0,0:0:0:0:
64,192,188795,1,0,0:0:0:0:
192,192,188795,1,0,0:0:0:0:
448,192,189022,1,0,0:0:0:0:
192,192,189249,1,0,0:0:0:0:
320,192,189249,1,0,0:0:0:0:
320,192,189931,1,0,0:0:0:0:
64,192,190385,1,0,0:0:0:0:
64,192,190840,1,0,0:0:0:0:
320,192,190840,1,0,0:0:0:0:
192,0,191295,128,0,194022:1:0:0:0:
448,192,194476,1,0,0:0:0:0:
192,0,194704,128,0,195840:1:0:0:0:
64,192,196067,1,0,0:0:0:0:
320,192,196294,1,0,0:0:0:0:
448,0,196522,128,0,197204:1:0:0:0:
320,192,196976,1,0,0:0:0:0:
192,192,197090,1,0,0:0:0:0:
64,0,197204,128,0,197658:1:0:0:0:
320,192,197431,1,0,0:0:0:0:
192,192,197545,1,0,0:0:0:0:
448,192,197658,1,0,0:0:0:0:
320,192,197885,1,0,0:0:0:0:
192,192,198340,1,0,0:0:0:0:
320,0,198567,128,0,199931:1:0:0:0:
64,192,200158,1,0,0:0:0:0:
192,0,200385,128,0,201294:1:0:0:0:
64,192,201294,1,0,0:0:0:0:
448,0,201749,128,0,204022:1:0:0:0:
192,192,204476,1,0,0:0:0:0:
320,192,204931,1,0,0:0:0:0:
320,192,205385,1,0,0:0:0:0:
64,0,205840,128,0,208567:1:0:0:0:
192,0,205840,128,0,209476:1:0:0:0:
