osu file format v12

[General]
AudioFilename: kz(livetune) x 8#Prince feat. Hatsune Miku - Weekender Girl.mp3
AudioLeadIn: 2
PreviewTime: 51249
Countdown: 0
SampleSet: None
StackLeniency: 0.7
Mode: 3
LetterboxInBreaks: 0
SpecialStyle: 0
WidescreenStoryboard: 0

[Editor]
DistanceSpacing: 0.8
BeatDivisor: 4
GridSize: 8

[Metadata]
Title:Weekender Girl
TitleUnicode:
Artist:kz(livetune) x Hachiouji-P feat. Hatsune Miku
ArtistUnicode:kz(livetune) x Hachiouji-P feat. Hatsune Miku
Creator:Akei
Version:Easy
Source:Stepmania
Tags:Stepmania
BeatmapID:306717
BeatmapSetID:119465

[Difficulty]
HPDrainRate:5
CircleSize:4
OverallDifficulty:7
ApproachRate:10
SliderMultiplier:1.4
SliderTickRate:1

[Events]
//Background and Video events
0,0,"background.jpg",0,0
//Break Periods
//Storyboard Layer 0 (Background)
//Storyboard Layer 1 (Fail)
//Storyboard Layer 2 (Pass)
//Storyboard Layer 3 (Foreground)
//Storyboard Sound Samples
//Background Colour Transformations
3,100,163,162,255

[TimingPoints]
-115,454.5454,4,1,0,15,1,0
143976,60000000000000,4,1,0,15,1,0
143976,60000000000000,4,1,0,15,1,0
143976,60000000000000,4,1,0,15,1,0
143976,60000000000000,4,1,0,15,1,0
144431,454.5454,4,1,0,15,1,0
144431,454.5454,4,1,0,15,1,0
144431,454.5454,4,1,0,15,1,0
144431,454.5454,4,1,0,15,1,0
162603.2,454.5454,4,1,0,15,1,0

[HitObjects]
320,0,339,128,0,1248:1:0:0:0:
192,0,2157,128,0,3066:1:0:0:0:
448,0,3975,128,0,4885:1:0:0:0:
64,0,5794,128,0,6703:1:0:0:0:
448,192,7612,1,0,0:0:0:0:
192,192,8748,1,0,0:0:0:0:
448,192,8975,1,0,0:0:0:0:
192,192,9430,1,0,0:0:0:0:
448,192,10566,1,0,0:0:0:0:
320,0,11248,128,0,12157:1:0:0:0:
192,192,12384,1,0,0:0:0:0:
320,192,12612,1,0,0:0:0:0:
448,0,13066,128,0,14884:1:0:0:0:
320,192,15112,1,0,0:0:0:0:
448,192,15339,1,0,0:0:0:0:
64,192,15566,1,0,0:0:0:0:
320,192,15794,1,0,0:0:0:0:
448,192,16248,1,0,0:0:0:0:
192,192,16475,1,0,0:0:0:0:
320,192,16703,1,0,0:0:0:0:
448,192,16930,1,0,0:0:0:0:
64,192,17157,1,0,0:0:0:0:
192,0,17384,128,0,18066:1:0:0:0:
320,192,18521,1,0,0:0:0:0:
64,192,18748,1,0,0:0:0:0:
448,192,18975,1,0,0:0:0:0:
192,192,19203,1,0,0:0:0:0:
320,192,19430,1,0,0:0:0:0:
448,192,19657,1,0,0:0:0:0:
64,0,19885,128,0,20339:1:0:0:0:
448,0,20339,128,0,20794:1:0:0:0:
192,192,20794,1,0,0:0:0:0:
320,0,21021,128,0,22157:1:0:0:0:
64,192,22385,1,0,0:0:0:0:
192,192,22612,1,0,0:0:0:0:
192,192,23066,1,0,0:0:0:0:
64,192,23294,1,0,0:0:0:0:
320,192,23521,1,0,0:0:0:0:
192,192,23748,1,0,0:0:0:0:
448,192,23975,1,0,0:0:0:0:
64,192,24430,1,0,0:0:0:0:
448,0,24657,128,0,25339:1:0:0:0:
64,192,26021,1,0,0:0:0:0:
320,192,26248,1,0,0:0:0:0:
448,192,26475,1,0,0:0:0:0:
320,192,26703,1,0,0:0:0:0:
192,192,27157,1,0,0:0:0:0:
320,192,27385,1,0,0:0:0:0:
64,192,27612,1,0,0:0:0:0:
448,192,28066,1,0,0:0:0:0:
320,192,28521,1,0,0:0:0:0:
192,0,28975,128,0,29430:1:0:0:0:
448,192,29430,1,0,0:0:0:0:
64,192,29885,1,0,0:0:0:0:
320,192,30339,1,0,0:0:0:0:
192,192,30794,1,0,0:0:0:0:
448,192,31248,1,0,0:0:0:0:
64,192,31703,1,0,0:0:0:0:
192,192,32157,1,0,0:0:0:0:
320,192,32612,1,0,0:0:0:0:
192,192,33066,1,0,0:0:0:0:
448,192,33521,1,0,0:0:0:0:
192,192,33975,1,0,0:0:0:0:
320,192,34430,1,0,0:0:0:0:
64,192,34885,1,0,0:0:0:0:
448,192,35225,1,0,0:0:0:0:
320,192,35566,1,0,0:0:0:0:
448,192,35907,1,0,0:0:0:0:
192,192,36248,1,0,0:0:0:0:
320,192,36475,1,0,0:0:0:0:
448,192,36703,1,0,0:0:0:0:
192,192,37157,1,0,0:0:0:0:
320,192,37612,1,0,0:0:0:0:
64,192,38066,1,0,0:0:0:0:
320,192,38521,1,0,0:0:0:0:
448,192,38975,1,0,0:0:0:0:
64,192,39430,1,0,0:0:0:0:
192,192,39885,1,0,0:0:0:0:
448,192,40339,1,0,0:0:0:0:
192,192,40794,1,0,0:0:0:0:
320,192,41248,1,0,0:0:0:0:
64,192,41703,1,0,0:0:0:0:
448,192,42157,1,0,0:0:0:0:
64,192,42498,1,0,0:0:0:0:
320,192,42839,1,0,0:0:0:0:
192,0,43294,128,0,43975:1:0:0:0:
320,192,43975,1,0,0:0:0:0:
448,192,44203,1,0,0:0:0:0:
64,192,44430,1,0,0:0:0:0:
448,192,44657,1,0,0:0:0:0:
320,192,44885,1,0,0:0:0:0:
192,192,45339,1,0,0:0:0:0:
64,192,45566,1,0,0:0:0:0:
320,192,45794,1,0,0:0:0:0:
192,192,46248,1,0,0:0:0:0:
448,0,46475,128,0,47612:1:0:0:0:
64,192,47612,1,0,0:0:0:0:
320,192,47839,1,0,0:0:0:0:
192,192,48066,1,0,0:0:0:0:
448,192,48521,1,0,0:0:0:0:
320,192,48748,1,0,0:0:0:0:
64,192,48975,1,0,0:0:0:0:
192,192,49203,1,0,0:0:0:0:
448,192,49430,1,0,0:0:0:0:
192,192,49885,1,0,0:0:0:0:
64,0,50112,128,0,51248:1:0:0:0:
320,192,51248,1,0,0:0:0:0:
192,192,51475,1,0,0:0:0:0:
448,192,51703,1,0,0:0:0:0:
192,192,52157,1,0,0:0:0:0:
64,192,52385,1,0,0:0:0:0:
192,192,52612,1,0,0:0:0:0:
320,192,52839,1,0,0:0:0:0:
448,192,53066,1,0,0:0:0:0:
192,192,53521,1,0,0:0:0:0:
320,0,53748,128,0,54885:1:0:0:0:
448,192,54885,1,0,0:0:0:0:
64,192,55112,1,0,0:0:0:0:
192,192,55339,1,0,0:0:0:0:
320,192,55566,1,0,0:0:0:0:
448,192,55794,1,0,0:0:0:0:
64,192,56021,1,0,0:0:0:0:
192,192,56248,1,0,0:0:0:0:
320,192,56476,1,0,0:0:0:0:
448,192,56703,1,0,0:0:0:0:
192,192,57044,1,0,0:0:0:0:
320,192,57385,1,0,0:0:0:0:
192,192,57839,1,0,0:0:0:0:
320,0,58066,128,0,58521:1:0:0:0:
64,0,58521,128,0,59885:1:0:0:0:
448,192,59885,1,0,0:0:0:0:
192,192,60339,1,0,0:0:0:0:
320,192,60566,1,0,0:0:0:0:
448,192,60794,1,0,0:0:0:0:
320,192,61248,1,0,0:0:0:0:
64,0,61703,128,0,63976:1:0:0:0:
320,0,63976,128,0,65794:1:0:0:0:
448,192,65794,1,0,0:0:0:0:
192,192,66248,1,0,0:0:0:0:
64,192,66703,1,0,0:0:0:0:
448,192,67157,1,0,0:0:0:0:
192,192,67612,1,0,0:0:0:0:
448,192,68066,1,0,0:0:0:0:
64,192,68521,1,0,0:0:0:0:
192,192,68976,1,0,0:0:0:0:
448,192,69430,1,0,0:0:0:0:
192,192,69885,1,0,0:0:0:0:
448,192,70339,1,0,0:0:0:0:
192,192,70794,1,0,0:0:0:0:
64,192,71248,1,0,0:0:0:0:
448,192,71248,1,0,0:0:0:0:
320,192,71703,1,0,0:0:0:0:
448,192,72157,1,0,0:0:0:0:
320,192,72385,1,0,0:0:0:0:
192,192,72612,1,0,0:0:0:0:
64,192,73066,1,0,0:0:0:0:
192,192,73748,1,0,0:0:0:0:
320,0,74430,128,0,75339:1:0:0:0:
448,192,75566,1,0,0:0:0:0:
64,192,75794,1,0,0:0:0:0:
192,192,76021,1,0,0:0:0:0:
320,192,76248,1,0,0:0:0:0:
192,192,76476,1,0,0:0:0:0:
64,0,76703,128,0,77157:1:0:0:0:
192,192,77157,1,0,0:0:0:0:
320,192,77385,1,0,0:0:0:0:
448,192,77839,1,0,0:0:0:0:
192,0,78294,128,0,78976:1:0:0:0:
192,192,79430,1,0,0:0:0:0:
320,192,79885,1,0,0:0:0:0:
320,0,80339,128,0,80794:1:0:0:0:
64,192,80794,1,0,0:0:0:0:
192,0,81021,128,0,81703:1:0:0:0:
448,192,81930,1,0,0:0:0:0:
320,192,82157,1,0,0:0:0:0:
64,192,82385,1,0,0:0:0:0:
192,0,82612,128,0,83521:1:0:0:0:
448,192,83748,1,0,0:0:0:0:
320,192,83976,1,0,0:0:0:0:
192,192,84430,1,0,0:0:0:0:
448,192,84657,1,0,0:0:0:0:
320,192,85112,1,0,0:0:0:0:
320,192,85567,1,0,0:0:0:0:
320,192,86248,1,0,0:0:0:0:
192,192,86703,1,0,0:0:0:0:
448,192,86930,1,0,0:0:0:0:
320,192,87157,1,0,0:0:0:0:
192,192,87385,1,0,0:0:0:0:
64,0,87612,128,0,88294:1:0:0:0:
192,0,88294,128,0,88976:1:0:0:0:
448,0,88976,128,0,89657:1:0:0:0:
64,192,90112,1,0,0:0:0:0:
192,192,90339,1,0,0:0:0:0:
320,192,90567,1,0,0:0:0:0:
448,192,90794,1,0,0:0:0:0:
192,192,91021,1,0,0:0:0:0:
320,192,91248,1,0,0:0:0:0:
64,192,91703,1,0,0:0:0:0:
320,192,91930,1,0,0:0:0:0:
448,192,92385,1,0,0:0:0:0:
192,192,92612,1,0,0:0:0:0:
320,0,92839,128,0,93521:1:0:0:0:
448,0,93976,128,0,94430:1:0:0:0:
192,0,94430,128,0,94885:1:0:0:0:
320,0,94885,128,0,95339:1:0:0:0:
64,192,95339,1,0,0:0:0:0:
192,0,95567,128,0,96248:1:0:0:0:
320,192,96476,1,0,0:0:0:0:
448,192,96703,1,0,0:0:0:0:
320,192,96930,1,0,0:0:0:0:
192,192,97157,1,0,0:0:0:0:
320,0,97385,128,0,98067:1:0:0:0:
192,192,98294,1,0,0:0:0:0:
64,192,98521,1,0,0:0:0:0:
448,192,98976,1,0,0:0:0:0:
320,192,99203,1,0,0:0:0:0:
448,192,99657,1,0,0:0:0:0:
320,192,100112,1,0,0:0:0:0:
192,192,100794,1,0,0:0:0:0:
448,192,101248,1,0,0:0:0:0:
192,192,101703,1,0,0:0:0:0:
320,0,102157,128,0,104885:1:0:0:0:
448,192,104885,1,0,0:0:0:0:
64,192,105339,1,0,0:0:0:0:
320,192,105794,1,0,0:0:0:0:
192,192,106248,1,0,0:0:0:0:
448,192,106703,1,0,0:0:0:0:
64,192,107157,1,0,0:0:0:0:
448,192,107612,1,0,0:0:0:0:
320,192,107953,1,0,0:0:0:0:
192,192,108294,1,0,0:0:0:0:
320,192,108635,1,0,0:0:0:0:
448,192,108976,1,0,0:0:0:0:
320,192,109203,1,0,0:0:0:0:
192,0,109430,128,0,111703:1:0:0:0:
448,192,111703,1,0,0:0:0:0:
64,192,112157,1,0,0:0:0:0:
192,192,112612,1,0,0:0:0:0:
448,192,113067,1,0,0:0:0:0:
192,192,113521,1,0,0:0:0:0:
320,192,113976,1,0,0:0:0:0:
64,192,114430,1,0,0:0:0:0:
448,0,114885,128,0,115794:1:0:0:0:
192,192,116248,1,0,0:0:0:0:
448,192,116703,1,0,0:0:0:0:
320,192,116930,1,0,0:0:0:0:
64,192,117157,1,0,0:0:0:0:
448,192,117612,1,0,0:0:0:0:
64,192,118067,1,0,0:0:0:0:
192,192,118294,1,0,0:0:0:0:
448,192,118521,1,0,0:0:0:0:
192,192,118976,1,0,0:0:0:0:
320,0,119203,128,0,120339:1:0:0:0:
64,192,120339,1,0,0:0:0:0:
448,192,120567,1,0,0:0:0:0:
192,192,120794,1,0,0:0:0:0:
320,192,121021,1,0,0:0:0:0:
448,192,121248,1,0,0:0:0:0:
192,192,121703,1,0,0:0:0:0:
320,192,121930,1,0,0:0:0:0:
448,192,122157,1,0,0:0:0:0:
320,192,122498,1,0,0:0:0:0:
192,0,122839,128,0,123976:1:0:0:0:
320,192,124203,1,0,0:0:0:0:
192,192,124430,1,0,0:0:0:0:
320,192,124885,1,0,0:0:0:0:
448,192,125112,1,0,0:0:0:0:
64,192,125339,1,0,0:0:0:0:
320,192,125567,1,0,0:0:0:0:
192,192,125794,1,0,0:0:0:0:
448,192,126021,1,0,0:0:0:0:
320,192,126248,1,0,0:0:0:0:
448,0,126476,128,0,127612:1:0:0:0:
192,192,127612,1,0,0:0:0:0:
64,192,127839,1,0,0:0:0:0:
448,192,128067,1,0,0:0:0:0:
320,192,128521,1,0,0:0:0:0:
64,192,128748,1,0,0:0:0:0:
448,192,128976,1,0,0:0:0:0:
192,192,129203,1,0,0:0:0:0:
320,192,129430,1,0,0:0:0:0:
64,192,129885,1,0,0:0:0:0:
192,192,130112,1,0,0:0:0:0:
448,192,130339,1,0,0:0:0:0:
64,192,130567,1,0,0:0:0:0:
320,0,130794,128,0,131248:1:0:0:0:
192,0,131248,128,0,132612:1:0:0:0:
448,192,132612,1,0,0:0:0:0:
320,192,133067,1,0,0:0:0:0:
64,192,133294,1,0,0:0:0:0:
192,192,133521,1,0,0:0:0:0:
320,192,133976,1,0,0:0:0:0:
64,0,134430,128,0,136703:1:0:0:0:
448,192,137385,1,0,0:0:0:0:
320,192,137612,1,0,0:0:0:0:
192,192,137839,1,0,0:0:0:0:
64,192,138066,1,0,0:0:0:0:
320,192,138294,1,0,0:0:0:0:
448,192,138521,1,0,0:0:0:0:
192,192,138975,1,0,0:0:0:0:
320,192,139430,1,0,0:0:0:0:
64,192,139885,1,0,0:0:0:0:
448,192,140339,1,0,0:0:0:0:
320,192,140794,1,0,0:0:0:0:
192,192,141248,1,0,0:0:0:0:
448,192,141703,1,0,0:0:0:0:
64,192,142157,1,0,0:0:0:0:
448,192,142612,1,0,0:0:0:0:
320,192,143066,1,0,0:0:0:0:
192,192,143521,1,0,0:0:0:0:
448,192,143975,1,0,0:0:0:0:
320,192,144658,1,0,0:0:0:0:
64,192,144885,1,0,0:0:0:0:
192,192,145112,1,0,0:0:0:0:
448,192,145340,1,0,0:0:0:0:
192,192,145567,1,0,0:0:0:0:
320,0,145794,128,0,148057:1:0:0:0:
64,192,148966,1,0,0:0:0:0:
192,0,149875,128,0,151694:1:0:0:0:
64,192,152603,1,0,0:0:0:0:
448,192,153512,1,0,0:0:0:0:
64,192,153966,1,0,0:0:0:0:
192,192,154421,1,0,0:0:0:0:
320,192,154875,1,0,0:0:0:0:
448,192,155330,1,0,0:0:0:0:
64,192,155785,1,0,0:0:0:0:
320,192,156239,1,0,0:0:0:0:
448,192,156694,1,0,0:0:0:0:
192,192,157148,1,0,0:0:0:0:
320,192,157603,1,0,0:0:0:0:
448,192,158057,1,0,0:0:0:0:
64,192,158512,1,0,0:0:0:0:
192,192,158966,1,0,0:0:0:0:
320,192,159421,1,0,0:0:0:0:
64,192,159875,1,0,0:0:0:0:
192,192,160330,1,0,0:0:0:0:
64,192,160785,1,0,0:0:0:0:
448,192,160785,1,0,0:0:0:0:
192,192,161239,1,0,0:0:0:0:
192,192,161694,1,0,0:0:0:0:
64,192,161921,1,0,0:0:0:0:
320,192,162148,1,0,0:0:0:0:
192,192,162375,1,0,0:0:0:0:
448,192,162603,1,0,0:0:0:0:
192,192,163285,1,0,0:0:0:0:
192,0,163966,128,0,164875:1:0:0:0:
320,192,165103,1,0,0:0:0:0:
448,192,165330,1,0,0:0:0:0:
320,192,165557,1,0,0:0:0:0:
192,192,165784,1,0,0:0:0:0:
320,192,166012,1,0,0:0:0:0:
448,192,166239,1,0,0:0:0:0:
320,192,166694,1,0,0:0:0:0:
192,192,166921,1,0,0:0:0:0:
448,192,167375,1,0,0:0:0:0:
64,192,168057,1,0,0:0:0:0:
320,192,168966,1,0,0:0:0:0:
192,192,169421,1,0,0:0:0:0:
192,0,169875,128,0,170330:1:0:0:0:
448,192,170330,1,0,0:0:0:0:
320,0,170557,128,0,171239:1:0:0:0:
448,192,171466,1,0,0:0:0:0:
192,192,171693,1,0,0:0:0:0:
64,192,171921,1,0,0:0:0:0:
320,192,172148,1,0,0:0:0:0:
448,0,172375,128,0,173057:1:0:0:0:
64,192,173284,1,0,0:0:0:0:
192,192,173511,1,0,0:0:0:0:
320,192,173966,1,0,0:0:0:0:
192,192,174193,1,0,0:0:0:0:
448,192,174648,1,0,0:0:0:0:
192,192,175102,1,0,0:0:0:0:
448,192,175330,1,0,0:0:0:0:
64,192,175784,1,0,0:0:0:0:
320,192,176239,1,0,0:0:0:0:
448,192,176466,1,0,0:0:0:0:
192,192,176693,1,0,0:0:0:0:
320,192,176920,1,0,0:0:0:0:
448,0,177148,128,0,177602:1:0:0:0:
320,0,177830,128,0,178284:1:0:0:0:
64,192,178284,1,0,0:0:0:0:
192,0,178511,128,0,179420:1:0:0:0:
448,192,179648,1,0,0:0:0:0:
320,192,179875,1,0,0:0:0:0:
192,192,180102,1,0,0:0:0:0:
64,192,180329,1,0,0:0:0:0:
320,192,180557,1,0,0:0:0:0:
192,192,180784,1,0,0:0:0:0:
448,192,181239,1,0,0:0:0:0:
320,192,181466,1,0,0:0:0:0:
64,192,181920,1,0,0:0:0:0:
320,192,182148,1,0,0:0:0:0:
448,0,182375,128,0,183057:1:0:0:0:
64,0,183511,128,0,183966:1:0:0:0:
320,0,183966,128,0,184420:1:0:0:0:
192,0,184420,128,0,184875:1:0:0:0:
448,192,184875,1,0,0:0:0:0:
320,0,185102,128,0,185784:1:0:0:0:
448,192,186011,1,0,0:0:0:0:
64,192,186238,1,0,0:0:0:0:
448,192,186466,1,0,0:0:0:0:
320,192,186693,1,0,0:0:0:0:
192,0,186920,128,0,187602:1:0:0:0:
64,192,187829,1,0,0:0:0:0:
448,192,188056,1,0,0:0:0:0:
320,192,188511,1,0,0:0:0:0:
192,192,188738,1,0,0:0:0:0:
448,192,189193,1,0,0:0:0:0:
320,0,189647,128,0,190102:1:0:0:0:
448,192,190329,1,0,0:0:0:0:
64,192,190784,1,0,0:0:0:0:
320,192,191238,1,0,0:0:0:0:
192,0,191693,128,0,194420:1:0:0:0:
448,192,194875,1,0,0:0:0:0:
192,0,195102,128,0,196238:1:0:0:0:
64,192,196465,1,0,0:0:0:0:
320,192,196693,1,0,0:0:0:0:
448,0,196920,128,0,197602:1:0:0:0:
64,0,197602,128,0,198056:1:0:0:0:
448,192,198056,1,0,0:0:0:0:
320,192,198284,1,0,0:0:0:0:
192,192,198738,1,0,0:0:0:0:
320,0,198965,128,0,200329:1:0:0:0:
64,192,200556,1,0,0:0:0:0:
192,0,200783,128,0,201693:1:0:0:0:
64,192,201693,1,0,0:0:0:0:
448,0,202147,128,0,204420:1:0:0:0:
192,192,204874,1,0,0:0:0:0:
320,192,205329,1,0,0:0:0:0:
64,192,205783,1,0,0:0:0:0:
192,0,206238,128,0,208965:1:0:0:0:
448,0,206238,128,0,209874:1:0:0:0:
