osu file format v12

[General]
AudioFilename: kz(livetune) x 8#Prince feat. Hatsune Miku - Weekender Girl.mp3
AudioLeadIn: 2
PreviewTime: 51249
Countdown: 0
SampleSet: None
StackLeniency: 0.7
Mode: 3
LetterboxInBreaks: 0
SpecialStyle: 0
WidescreenStoryboard: 0

[Editor]
DistanceSpacing: 0.8
BeatDivisor: 4
GridSize: 8

[Metadata]
Title:Weekender Girl
TitleUnicode:
Artist:kz(livetune) x Hachiouji-P feat. Hatsune Miku
ArtistUnicode:kz(livetune) x Hachiouji-P feat. Hatsune Miku
Creator:Akei
Version:Beginner
Source:Stepmania
Tags:Stepmania
BeatmapID:306716
BeatmapSetID:119465

[Difficulty]
HPDrainRate:5
CircleSize:4
OverallDifficulty:7
ApproachRate:10
SliderMultiplier:1.4
SliderTickRate:1

[Events]
//Background and Video events
0,0,"background.jpg",0,0
//Break Periods
//Storyboard Layer 0 (Background)
//Storyboard Layer 1 (Fail)
//Storyboard Layer 2 (Pass)
//Storyboard Layer 3 (Foreground)
//Storyboard Sound Samples
//Background Colour Transformations
3,100,163,162,255

[TimingPoints]
-115,454.5454,4,1,0,15,1,0
143976.2,60000000000000,4,1,0,15,1,0
143976.2,60000000000000,4,1,0,15,1,0
143976.2,60000000000000,4,1,0,15,1,0
143976.2,60000000000000,4,1,0,15,1,0
144431.2,454.5454,4,1,0,15,1,0
144431.2,454.5454,4,1,0,15,1,0
144431.2,454.5454,4,1,0,15,1,0
144431.2,454.5454,4,1,0,15,1,0
162603.5,454.5454,4,1,0,15,1,0

[HitObjects]
320,0,339,128,0,1248:1:0:0:0:
192,0,2157,128,0,3066:1:0:0:0:
448,0,3975,128,0,4885:1:0:0:0:
64,0,5794,128,0,6703:1:0:0:0:
448,192,7612,1,0,0:0:0:0:
64,192,8521,1,0,0:0:0:0:
192,192,9430,1,0,0:0:0:0:
448,192,10339,1,0,0:0:0:0:
320,192,11248,1,0,0:0:0:0:
64,192,12157,1,0,0:0:0:0:
448,192,13066,1,0,0:0:0:0:
320,192,13521,1,0,0:0:0:0:
192,192,13975,1,0,0:0:0:0:
192,192,14885,1,0,0:0:0:0:
448,192,15339,1,0,0:0:0:0:
448,192,16248,1,0,0:0:0:0:
320,192,16703,1,0,0:0:0:0:
64,192,17157,1,0,0:0:0:0:
192,0,17612,128,0,18521:1:0:0:0:
448,192,18521,1,0,0:0:0:0:
64,192,18975,1,0,0:0:0:0:
64,192,19885,1,0,0:0:0:0:
448,192,20339,1,0,0:0:0:0:
192,192,20794,1,0,0:0:0:0:
320,0,21248,128,0,22157:1:0:0:0:
448,192,22157,1,0,0:0:0:0:
192,192,22612,1,0,0:0:0:0:
320,192,23521,1,0,0:0:0:0:
448,192,23975,1,0,0:0:0:0:
64,192,24430,1,0,0:0:0:0:
448,0,24884,128,0,25794:1:0:0:0:
320,192,26248,1,0,0:0:0:0:
192,192,27157,1,0,0:0:0:0:
64,192,27612,1,0,0:0:0:0:
448,192,28066,1,0,0:0:0:0:
320,192,28521,1,0,0:0:0:0:
192,0,28975,128,0,29430:1:0:0:0:
448,192,29430,1,0,0:0:0:0:
64,192,29884,1,0,0:0:0:0:
320,192,30339,1,0,0:0:0:0:
192,192,30794,1,0,0:0:0:0:
448,192,31248,1,0,0:0:0:0:
64,192,31703,1,0,0:0:0:0:
192,192,32157,1,0,0:0:0:0:
320,192,32612,1,0,0:0:0:0:
192,192,33066,1,0,0:0:0:0:
448,192,33521,1,0,0:0:0:0:
192,192,33975,1,0,0:0:0:0:
320,192,34430,1,0,0:0:0:0:
64,0,34884,128,0,36248:1:0:0:0:
192,192,36248,1,0,0:0:0:0:
448,192,36703,1,0,0:0:0:0:
192,192,37157,1,0,0:0:0:0:
320,192,37612,1,0,0:0:0:0:
64,192,38066,1,0,0:0:0:0:
320,192,38521,1,0,0:0:0:0:
448,192,38975,1,0,0:0:0:0:
64,192,39430,1,0,0:0:0:0:
192,192,39885,1,0,0:0:0:0:
448,192,40339,1,0,0:0:0:0:
192,192,40794,1,0,0:0:0:0:
320,192,41248,1,0,0:0:0:0:
64,192,41703,1,0,0:0:0:0:
448,0,42157,128,0,43521:1:0:0:0:
320,192,43975,1,0,0:0:0:0:
64,192,44430,1,0,0:0:0:0:
192,192,45339,1,0,0:0:0:0:
320,192,45794,1,0,0:0:0:0:
192,192,46248,1,0,0:0:0:0:
448,0,46703,128,0,47612:1:0:0:0:
64,192,47612,1,0,0:0:0:0:
192,192,48066,1,0,0:0:0:0:
64,192,48975,1,0,0:0:0:0:
448,192,49430,1,0,0:0:0:0:
192,192,49885,1,0,0:0:0:0:
64,0,50339,128,0,51248:1:0:0:0:
320,192,51248,1,0,0:0:0:0:
448,192,51703,1,0,0:0:0:0:
192,192,52612,1,0,0:0:0:0:
448,192,53066,1,0,0:0:0:0:
192,192,53521,1,0,0:0:0:0:
320,0,53975,128,0,54885:1:0:0:0:
448,192,54885,1,0,0:0:0:0:
192,192,55339,1,0,0:0:0:0:
192,192,56248,1,0,0:0:0:0:
448,192,56703,1,0,0:0:0:0:
192,192,57157,1,0,0:0:0:0:
448,192,57612,1,0,0:0:0:0:
320,0,58066,128,0,58521:1:0:0:0:
64,0,58521,128,0,59885:1:0:0:0:
448,192,59885,1,0,0:0:0:0:
192,192,60339,1,0,0:0:0:0:
448,192,60794,1,0,0:0:0:0:
320,192,61248,1,0,0:0:0:0:
64,0,61703,128,0,63975:1:0:0:0:
320,0,63975,128,0,65794:1:0:0:0:
448,192,65794,1,0,0:0:0:0:
192,192,66248,1,0,0:0:0:0:
64,192,66703,1,0,0:0:0:0:
448,192,67157,1,0,0:0:0:0:
192,192,67612,1,0,0:0:0:0:
448,192,68066,1,0,0:0:0:0:
64,192,68521,1,0,0:0:0:0:
192,192,68976,1,0,0:0:0:0:
448,192,69430,1,0,0:0:0:0:
192,192,69885,1,0,0:0:0:0:
448,192,70339,1,0,0:0:0:0:
192,192,70794,1,0,0:0:0:0:
64,192,71248,1,0,0:0:0:0:
448,192,71248,1,0,0:0:0:0:
320,192,72612,1,0,0:0:0:0:
64,192,73066,1,0,0:0:0:0:
320,192,73521,1,0,0:0:0:0:
448,192,73976,1,0,0:0:0:0:
320,0,74430,128,0,75339:1:0:0:0:
64,192,75794,1,0,0:0:0:0:
320,192,76248,1,0,0:0:0:0:
64,0,76703,128,0,77157:1:0:0:0:
192,0,77157,128,0,77612:1:0:0:0:
448,192,77612,1,0,0:0:0:0:
320,192,78066,1,0,0:0:0:0:
448,192,78521,1,0,0:0:0:0:
192,192,79430,1,0,0:0:0:0:
320,192,79885,1,0,0:0:0:0:
320,0,80339,128,0,80794:1:0:0:0:
64,0,80794,128,0,81703:1:0:0:0:
320,192,82157,1,0,0:0:0:0:
192,0,82612,128,0,83521:1:0:0:0:
320,192,83976,1,0,0:0:0:0:
192,192,84430,1,0,0:0:0:0:
64,192,84885,1,0,0:0:0:0:
448,192,85339,1,0,0:0:0:0:
64,192,85794,1,0,0:0:0:0:
448,192,86248,1,0,0:0:0:0:
192,192,86703,1,0,0:0:0:0:
320,192,87157,1,0,0:0:0:0:
64,0,87612,128,0,88066:1:0:0:0:
192,0,88066,128,0,88521:1:0:0:0:
320,192,88521,1,0,0:0:0:0:
448,0,88976,128,0,89885:1:0:0:0:
320,192,89885,1,0,0:0:0:0:
192,192,90339,1,0,0:0:0:0:
448,192,90794,1,0,0:0:0:0:
320,192,91248,1,0,0:0:0:0:
64,192,91703,1,0,0:0:0:0:
448,192,92157,1,0,0:0:0:0:
192,0,92612,128,0,93066:1:0:0:0:
64,0,93066,128,0,93521:1:0:0:0:
448,0,93976,128,0,94430:1:0:0:0:
192,0,94430,128,0,94885:1:0:0:0:
320,0,94885,128,0,95339:1:0:0:0:
64,0,95339,128,0,96248:1:0:0:0:
448,192,96703,1,0,0:0:0:0:
192,192,97157,1,0,0:0:0:0:
320,0,97612,128,0,98067:1:0:0:0:
64,192,98521,1,0,0:0:0:0:
448,192,98976,1,0,0:0:0:0:
192,192,99430,1,0,0:0:0:0:
320,192,99885,1,0,0:0:0:0:
192,192,100339,1,0,0:0:0:0:
64,192,100794,1,0,0:0:0:0:
448,192,101248,1,0,0:0:0:0:
192,192,101703,1,0,0:0:0:0:
320,0,102157,128,0,104885:1:0:0:0:
448,192,104885,1,0,0:0:0:0:
64,192,105339,1,0,0:0:0:0:
320,192,105794,1,0,0:0:0:0:
192,192,106248,1,0,0:0:0:0:
448,192,106703,1,0,0:0:0:0:
64,192,107157,1,0,0:0:0:0:
192,192,107612,1,0,0:0:0:0:
320,192,108067,1,0,0:0:0:0:
192,192,108521,1,0,0:0:0:0:
448,192,108976,1,0,0:0:0:0:
192,0,109430,128,0,111703:1:0:0:0:
448,192,111703,1,0,0:0:0:0:
64,192,112157,1,0,0:0:0:0:
192,192,112612,1,0,0:0:0:0:
448,192,113067,1,0,0:0:0:0:
192,192,113521,1,0,0:0:0:0:
320,192,113976,1,0,0:0:0:0:
64,192,114430,1,0,0:0:0:0:
448,0,114885,128,0,115794:1:0:0:0:
192,192,116248,1,0,0:0:0:0:
448,192,116703,1,0,0:0:0:0:
64,192,117157,1,0,0:0:0:0:
64,192,118067,1,0,0:0:0:0:
448,192,118521,1,0,0:0:0:0:
192,192,118976,1,0,0:0:0:0:
320,0,119430,128,0,120339:1:0:0:0:
64,192,120339,1,0,0:0:0:0:
192,192,120794,1,0,0:0:0:0:
192,192,121703,1,0,0:0:0:0:
64,192,122157,1,0,0:0:0:0:
448,192,122612,1,0,0:0:0:0:
192,0,123067,128,0,123976:1:0:0:0:
448,192,123976,1,0,0:0:0:0:
64,192,124430,1,0,0:0:0:0:
64,192,125339,1,0,0:0:0:0:
448,192,125794,1,0,0:0:0:0:
192,192,126248,1,0,0:0:0:0:
320,0,126703,128,0,127612:1:0:0:0:
192,192,127612,1,0,0:0:0:0:
448,192,128067,1,0,0:0:0:0:
192,192,128976,1,0,0:0:0:0:
320,192,129430,1,0,0:0:0:0:
64,192,129885,1,0,0:0:0:0:
448,192,130339,1,0,0:0:0:0:
320,0,130794,128,0,131248:1:0:0:0:
192,0,131248,128,0,132612:1:0:0:0:
448,192,132612,1,0,0:0:0:0:
320,192,133067,1,0,0:0:0:0:
192,192,133521,1,0,0:0:0:0:
320,192,133976,1,0,0:0:0:0:
64,0,134430,128,0,136703:1:0:0:0:
320,192,137612,1,0,0:0:0:0:
64,192,138067,1,0,0:0:0:0:
448,192,138521,1,0,0:0:0:0:
192,192,138976,1,0,0:0:0:0:
320,192,139430,1,0,0:0:0:0:
64,192,139885,1,0,0:0:0:0:
448,192,140339,1,0,0:0:0:0:
320,192,140794,1,0,0:0:0:0:
192,192,141248,1,0,0:0:0:0:
448,192,141703,1,0,0:0:0:0:
64,192,142158,1,0,0:0:0:0:
448,192,142612,1,0,0:0:0:0:
320,192,143067,1,0,0:0:0:0:
192,192,143521,1,0,0:0:0:0:
448,0,143976,128,0,144658:1:0:0:0:
64,192,144885,1,0,0:0:0:0:
448,192,145340,1,0,0:0:0:0:
320,0,145794,128,0,148058:1:0:0:0:
64,192,148967,1,0,0:0:0:0:
192,0,149876,128,0,151694:1:0:0:0:
64,192,152603,1,0,0:0:0:0:
448,192,153512,1,0,0:0:0:0:
64,192,153967,1,0,0:0:0:0:
192,192,154421,1,0,0:0:0:0:
320,192,154876,1,0,0:0:0:0:
448,192,155330,1,0,0:0:0:0:
64,192,155785,1,0,0:0:0:0:
320,192,156239,1,0,0:0:0:0:
448,192,156694,1,0,0:0:0:0:
192,192,157148,1,0,0:0:0:0:
320,192,157603,1,0,0:0:0:0:
448,192,158058,1,0,0:0:0:0:
64,192,158512,1,0,0:0:0:0:
192,192,158967,1,0,0:0:0:0:
320,192,159421,1,0,0:0:0:0:
64,192,159876,1,0,0:0:0:0:
192,192,160330,1,0,0:0:0:0:
64,192,160785,1,0,0:0:0:0:
448,192,160785,1,0,0:0:0:0:
320,192,162148,1,0,0:0:0:0:
448,192,162603,1,0,0:0:0:0:
192,192,163058,1,0,0:0:0:0:
64,192,163512,1,0,0:0:0:0:
192,0,163967,128,0,164876:1:0:0:0:
448,192,165330,1,0,0:0:0:0:
192,192,165785,1,0,0:0:0:0:
448,0,166239,128,0,166694:1:0:0:0:
320,0,166694,128,0,167148:1:0:0:0:
64,192,167148,1,0,0:0:0:0:
192,192,167603,1,0,0:0:0:0:
64,192,168058,1,0,0:0:0:0:
320,192,168967,1,0,0:0:0:0:
192,192,169421,1,0,0:0:0:0:
192,0,169876,128,0,170330:1:0:0:0:
448,0,170330,128,0,171239:1:0:0:0:
192,192,171694,1,0,0:0:0:0:
320,0,172148,128,0,173058:1:0:0:0:
192,192,173512,1,0,0:0:0:0:
320,192,173967,1,0,0:0:0:0:
448,192,174421,1,0,0:0:0:0:
64,192,174876,1,0,0:0:0:0:
448,192,175330,1,0,0:0:0:0:
64,192,175785,1,0,0:0:0:0:
320,192,176239,1,0,0:0:0:0:
192,192,176694,1,0,0:0:0:0:
448,0,177148,128,0,177603:1:0:0:0:
320,0,177603,128,0,178058:1:0:0:0:
192,192,178058,1,0,0:0:0:0:
64,0,178512,128,0,179421:1:0:0:0:
192,192,179421,1,0,0:0:0:0:
320,192,179876,1,0,0:0:0:0:
64,192,180330,1,0,0:0:0:0:
192,192,180785,1,0,0:0:0:0:
448,192,181239,1,0,0:0:0:0:
64,192,181694,1,0,0:0:0:0:
320,0,182148,128,0,182603:1:0:0:0:
448,0,182603,128,0,183058:1:0:0:0:
64,0,183512,128,0,183967:1:0:0:0:
320,0,183967,128,0,184421:1:0:0:0:
192,0,184421,128,0,184876:1:0:0:0:
448,0,184876,128,0,185785:1:0:0:0:
64,192,186239,1,0,0:0:0:0:
320,192,186694,1,0,0:0:0:0:
192,0,187149,128,0,187603:1:0:0:0:
448,192,188058,1,0,0:0:0:0:
64,192,188512,1,0,0:0:0:0:
320,192,188967,1,0,0:0:0:0:
192,192,189421,1,0,0:0:0:0:
320,192,189876,1,0,0:0:0:0:
448,192,190330,1,0,0:0:0:0:
64,192,190785,1,0,0:0:0:0:
320,192,191239,1,0,0:0:0:0:
192,0,191694,128,0,194421:1:0:0:0:
448,0,194876,128,0,195330:1:0:0:0:
192,0,195330,128,0,196239:1:0:0:0:
320,0,196694,128,0,197603:1:0:0:0:
64,0,197603,128,0,198058:1:0:0:0:
448,0,198058,128,0,198512:1:0:0:0:
192,0,198512,128,0,198967:1:0:0:0:
320,0,198967,128,0,200330:1:0:0:0:
192,0,200785,128,0,201694:1:0:0:0:
64,192,201694,1,0,0:0:0:0:
448,0,202149,128,0,204421:1:0:0:0:
192,192,204876,1,0,0:0:0:0:
320,192,205330,1,0,0:0:0:0:
64,192,205785,1,0,0:0:0:0:
192,0,206239,128,0,208967:1:0:0:0:
448,0,206239,128,0,209876:1:0:0:0:
