osu file format v9

[General]
AudioFilename: koha sensou future retro remix.mp3
AudioLeadIn: 0
PreviewTime: 79254
Countdown: 0
SampleSet: Normal
StackLeniency: 0.3
Mode: 0
LetterboxInBreaks: 1

[Editor]
Bookmarks: 95303,109366,116866,124396,161894,168925,207831
DistanceSpacing: 1
BeatDivisor: 4
GridSize: 8

[Metadata]
Title:Koi wa Sensou future retro remix
Artist:kz feat. Hatsune Miku
Creator:Ex Boy
Version:Relaxing
Source:
Tags:VVW vocaloid visual works EAGER LOVE REVENGE

[Difficulty]
HPDrainRate:0
CircleSize:3
OverallDifficulty:1
ApproachRate:4
SliderMultiplier:1
SliderTickRate:1

[Events]
//Background and Video events
0,0,"BG.jpg"
//Break Periods
2,77713,78070
2,95416,108081
2,117139,123087
2,162122,167636
//Storyboard Layer 0 (Background)
//Storyboard Layer 1 (Fail)
//Storyboard Layer 2 (Pass)
//Storyboard Layer 3 (Foreground)
//Storyboard Sound Samples
//Background Colour Transformations
3,100,255,255,255

[TimingPoints]
17491,468.933177022274,4,1,1,60,1,0
47842,-100,4,2,1,60,0,0
77256,-100,4,2,1,2,0,0
77725,-100,4,2,1,60,0,0
94483,-100,4,2,1,1,0,0
95420,-100,4,2,1,60,0,0
154536,-100,4,2,0,2,0,0
161453,-100,4,1,0,60,0,0
168839,-100,4,2,0,1,0,0
169308,-100,4,1,0,60,0,0
176811,-100,4,2,1,60,0,0
204009,-100,4,2,1,2,0,0
206940,-100,4,1,0,60,0,0
207057,-100,4,2,0,1,0,0

[Colours]
Combo1 : 248,252,73
Combo2 : 7,220,177
Combo3 : 46,126,248
Combo4 : 244,66,191

[HitObjects]
256,192,17491,2,0,B|136:192,1,100
256,192,18428,2,0,B|256:88,1,100
256,192,19366,2,0,B|368:192,1,100
256,192,20304,2,0,B|256:304,1,100
352,328,21242,6,0,B|408:328,2,50
400,240,22180,2,0,B|464:240,2,50
352,152,23118,2,0,B|288:152,1,50
280,104,23587,2,0,B|224:104,1,50
208,152,24056,2,0,B|152:152,2,50
192,56,24993,6,0,B|136:32|96:72,1,100
40,152,25931,2,0,B|16:208|56:248,1,100
136,296,26869,2,0,B|160:304|192:288,3,50
224,264,27807,2,0,B|248:208|320:208,1,100
368,280,28745,6,0,B|368:344,4,50
440,216,30152,2,0,B|440:144,4,50
344,192,31558,2,0,B|232:192,1,100
144,192,32496,5,0
72,256,32965,2,0,B|40:208,4,50
160,304,34372,2,0,B|232:312,1,50
256,304,34841,2,0,B|320:288,1,50
344,264,35310,2,0,B|368:216,2,50
256,208,36248,6,0,B|256:96,1,100
344,56,37186,1,0
392,64,37420,1,0
432,96,37655,1,0
472,192,38124,2,0,B|416:192,1,50
384,232,38592,2,0,B|320:232,1,50
304,192,39061,2,0,B|232:192,1,50
224,232,39530,2,0,B|160:232,1,50
152,184,39999,6,0,B|112:232|152:280,1,100
224,336,40937,2,0,B|264:288|224:240,1,100
248,144,41875,2,0,B|280:96,1,50
320,80,42344,2,0,B|384:64,1,50
416,72,42813,2,0,B|480:88|480:152,1,100
432,224,43751,6,0,B|408:280|432:328,1,100
336,280,44689,2,0,B|360:224|336:176,1,100
288,96,45626,2,0,B|240:48,3,50
152,88,46799,2,0,B|192:128,1,50
256,192,47502,1,4
192,272,47971,6,8,B|152:312|88:304,1,100
24,240,48909,2,8,B|64:200|128:208,1,100
192,272,49847,2,8,B|243:278|283:238,1,100
336,152,50785,1,8
336,152,51019,1,0
336,152,51254,2,8,B|336:88|416:80,3,100
472,152,53129,2,8,B|412:156|412:220,1,100
392,320,54067,2,8,B|344:352|296:328,1,100
216,272,55005,5,8
120,240,55474,1,8
24,232,55943,1,8
64,208,56177,1,0
96,168,56412,1,8
120,120,56646,1,0
128,72,56881,2,8,B|176:32|240:56,1,100
320,64,57819,5,8
280,160,58288,1,8
376,152,58757,1,8
336,248,59226,1,8
432,232,59694,2,8,B|456:288|416:336,1,100
320,320,60632,2,8,B|240:232,1,100
272,144,61570,2,8,B|192:56,1,100
104,48,62508,6,8,B|48:64|64:136,2,100
160,128,63915,1,8
216,208,64384,2,8,B|272:192|256:120,2,100
320,208,65791,1,8
360,112,66260,6,8,B|336:64|272:56,1,100
360,112,67197,2,8,B|384:160|448:168,1,100
488,256,68135,2,0,B|512:272,8,25,8|0|0|0|8|0|0|0|8
392,264,69542,1,8
304,320,70011,5,8
256,232,70480,1,8
208,320,70949,1,8
160,232,71418,1,8
120,320,71887,2,0,B|64:296|24:240|24:152|80:96|152:96,1,300,12|8
240,104,73762,2,8,B|312:128|328:216|288:272,1,200,12|8
216,336,75169,2,8,B|239:264|327:248|381:286,1,200,12|8
256,128,77045,2,0,B|256:248,1,100,8|0
40,40,79390,6,8,B|160:40,1,100
80,120,80328,2,0,B|136:120,1,50,8|0
184,120,80796,2,0,B|248:120,1,50,8|0
288,120,81265,2,8,B|320:136|320:200|280:208,1,100
240,288,82203,6,0,B|272:232,1,50,8|0
312,216,82672,2,0,B|376:208,1,50,8|0
409,226,83141,2,8,B|465:250|457:322,1,100
360,328,84079,6,0,B|304:296,3,50,8|0|8|0
320,256,85017,2,0,B|376:224,3,50,8|0|8|0
360,184,85955,2,0,B|304:152,3,50,8|0|8|0
320,112,86893,2,0,B|376:80,2,50,8|0|8
288,208,87830,2,8,B|240:184|216:136,1,100
144,208,88768,2,8,B|121:163|73:139,1,100
168,104,89706,6,8,B|120:72|128:16,1,100
48,80,90644,2,8,B|96:112|88:168,1,100
88,264,91582,2,8,B|144:344|200:368|320:376|416:336|480:248|464:128|368:40|368:40,1,600
256,192,94396,12,0,95216
256,40,109401,5,4
256,40,109870,6,0,B|256:112,1,50,8|0
240,136,110339,2,0,B|208:176,2,50,8|0|8
256,344,111277,5,8
256,344,111746,6,0,B|256:272,1,50,8|0
272,248,112215,2,0,B|304:208,2,50,8|0|8
360,192,113153,5,8
256,192,113622,6,0,B|192:192,1,50,8|0
152,192,114091,2,0,B|96:192,2,50,8|0|8
256,192,115029,6,0,B|320:192,6,50,8|0|8|0|8|0|8
256,192,116904,5,4
456,48,124407,5,4
456,48,124876,2,8,B|408:80|408:144,3,100
400,232,126752,2,8,B|384:288|320:296,1,100
232,296,127690,5,8
232,296,127924,1,0
232,296,128159,2,8,B|176:288|128:344,2,100
272,208,129566,1,8
248,256,129800,5,0
232,296,130034,2,8,B|224:240|168:224,1,100
72,224,130972,2,0,B|8:240,2,50,8|0|8
160,176,131910,6,8,B|200:128|160:64,1,100
80,48,132848,2,0,B|64:96,1,50,8|0
72,144,133317,2,0,B|104:192,1,50,8|0
144,200,133786,2,8,B|216:192|264:216,2,100
176,104,135193,6,0,B|240:88,1,50,8|0
272,88,135662,2,0,B|336:104,1,50,8|0
360,128,136131,2,0,B|400:176,1,50,8|0
408,216,136600,2,0,B|408:280,1,50,8|0
392,312,137068,2,0,B|368:360,1,50,8|0
328,384,137537,2,8,B|264:384|224:344,3,100
144,320,139413,6,8,B|112:264|152:224,1,100
248,208,140351,2,0,B|272:160,1,50,8|0
272,112,140820,2,0,B|264:64,1,50,8|0
224,32,141289,2,8,B|176:56|128:40,1,100
72,128,142227,6,8,B|120:104|168:120,1,100
208,152,142930,1,0
224,200,143165,2,8,B|208:272|152:288,3,100
80,320,145040,2,0,B|144:320,1,50,8|0
176,320,145509,2,0,B|232:320,1,50,8|0
280,320,145978,2,0,B|256:272|280:216,1,100,8|8
336,136,146916,6,8,B|408:144|440:88,1,100
352,40,147854,2,8,B|280:32|248:88,1,100
256,168,148792,2,0,B|256:232,1,50,8|0
224,256,149261,2,0,B|176:288,1,50,8|0
136,296,149730,2,0,B|72:280,1,50,8|0
40,256,150199,2,0,B|24:208,1,50,8|0
32,160,150668,2,0,B|56:112,4,50,8|0|8|0|8
128,192,152074,2,0,B|200:192,4,50,8|0|8|0|8
144,96,153481,2,8,B|176:48|240:48,1,100
304,112,154419,5,8
256,192,154478,12,0,158170
256,192,158229,12,8,161453
256,192,161922,5,4
256,32,168956,6,0,B|248:72|264:96|256:136,1,100
256,232,169894,1,0
152,232,170363,1,0
204,141,170832,1,0
308,141,171301,1,0
360,232,171770,1,0
308,322,172238,1,0
204,322,172707,1,0
184,224,173176,6,0,B|152:176,3,50
256,128,174114,2,0,B|256:192,3,50
328,224,175052,2,0,B|360:176,3,50
48,48,176928,6,8,B|120:72|152:40,1,100
240,32,177866,2,0,B|304:56,1,50,8|0
320,88,178335,2,0,B|336:136,1,50,8|0
336,184,178804,2,0,B|272:200|280:264,1,100,8|8
376,280,179741,6,0,B|352:328,1,50,8|0
304,344,180210,2,0,B|256:352,1,50,8|0
208,336,180679,2,8,B|160:296|104:304,1,100
40,240,181617,6,8,B|144:240,1,100
192,152,182555,2,8,B|80:152,1,100
144,64,183493,2,8,B|264:64,2,100
48,48,184900,6,0,B|56:104,1,50,8|0
80,136,185369,2,0,B|120:168,1,50,8|0
168,184,185838,2,0,B|232:192,1,50,8|0
264,192,186306,2,0,B|320:208|328:264,1,100,8|8
312,312,187010,1,0
360,288,187244,2,0,B|416:264,1,50,8|0
440,232,187713,2,0,B|464:176,1,50,8|0
472,136,188182,2,8,B|416:144|376:112,1,100
312,32,189120,6,0,B|288:96,1,50,8|0
256,48,189589,2,0,B|256:120,1,50,8|0
208,80,190058,2,0,B|224:128,1,50,8|0
176,128,190527,2,0,B|208:176,1,50,8|0
152,184,190996,2,0,B|208:224,1,50,8|0
152,240,191465,2,0,B|208:264,1,50,8|0
224,304,191934,6,8,B|288:320|336:280,1,100
288,80,192872,2,8,B|224:64|176:104,1,100
256,192,193809,1,8
152,96,194278,6,0,B|96:120,1,50,8|0
72,152,194747,2,0,B|48:208,1,50,8|0
40,248,195216,2,8,B|96:240|136:272,1,100
200,352,196154,1,8
200,352,196623,6,0,B|224:288,1,50,8|0
256,336,197092,2,0,B|256:264,1,50,8|0
304,304,197561,2,0,B|288:256,1,50,8|0
336,256,198030,2,0,B|304:208,1,50,8|0
360,200,198499,2,0,B|304:160,1,50,8|0
360,144,198968,2,0,B|304:120,1,50,8|0
288,80,199437,2,8,B|224:64|176:104,1,100
160,184,200374,6,8,B|120:224|72:224,3,100
32,248,202016,1,0
56,288,202250,2,8,B|104:320|152:312,3,100
200,304,203891,1,0
256,192,203950,12,4,206940
256,192,206998,12,0,207877
