osu file format v9

[General]
AudioFilename: koha sensou future retro remix.mp3
AudioLeadIn: 0
PreviewTime: 79254
Countdown: 0
SampleSet: Normal
StackLeniency: 0.3
Mode: 0
LetterboxInBreaks: 1

[Editor]
DistanceSpacing: 1
BeatDivisor: 4
GridSize: 8

[Metadata]
Title:Koi wa Sensou future retro remix
Artist:kz feat. Hatsune Miku
Creator:Ex Boy
Version:Ex sensou!!
Source:
Tags:VVW vocaloid visual works EAGER LOVE REVENGE

[Difficulty]
HPDrainRate:7
CircleSize:4
OverallDifficulty:8
ApproachRate:8
SliderMultiplier:1.8
SliderTickRate:1

[Events]
//Background and Video events
0,0,"BG.jpg"
//Break Periods
2,95533,108651
2,117104,123657
2,162122,168206
//Storyboard Layer 0 (Background)
//Storyboard Layer 1 (Fail)
//Storyboard Layer 2 (Pass)
//Storyboard Layer 3 (Foreground)
//Storyboard Sound Samples
//Background Colour Transformations
3,100,255,255,255

[TimingPoints]
17491,468.933177022274,4,1,1,60,1,0
47842,-100,4,2,1,60,0,0
62374,-200,4,1,1,60,0,0
63077,-100,4,2,1,60,0,0
77139,-100,4,2,1,3,0,0
77514,-200,4,2,1,3,0,0
79131,-100,4,2,1,60,0,0
81124,-200,4,2,1,60,0,0
81827,-100,4,2,1,60,0,0
86749,-200,4,2,1,60,0,0
87452,-100,4,2,1,60,0,0
88624,-200,4,2,1,60,0,0
89327,-100,4,2,1,60,0,0
90499,-200,4,2,1,60,0,0
91202,-100,4,2,1,60,0,0
94424,-100,4,2,0,0,0,0
95362,-100,4,1,0,60,0,0
95362,-100,4,1,0,60,0,0
124266,-100,4,2,1,60,0,0
139296,-200,4,2,1,60,0,0
139999,-100,4,2,1,60,0,0
141124,-200,4,2,1,60,0,0
141827,-100,4,2,1,60,0,0
142061,-200,4,2,1,60,0,0
142764,-100,4,2,1,60,0,0
142999,-200,4,2,1,60,0,0
144405,-100,4,2,1,60,0,0
155186,-200,4,2,1,60,0,0
155889,-100,4,2,1,60,0,0
158174,-100,4,2,0,0,0,0
161429,-100,4,1,0,60,0,0
168663,-100,4,2,0,60,0,0
169131,-100,4,1,0,60,0,0
169131,-100,4,1,0,60,0,0
175604,-100,4,2,1,1,0,0
176542,-100,4,2,1,60,0,0
178624,-200,4,1,1,60,0,0
179327,-100,4,2,1,60,0,0
180526,-200,4,2,1,60,0,0
181229,-100,4,2,1,60,0,0
206924,-100,4,2,0,0,0,0

[Colours]
Combo1 : 248,252,73
Combo2 : 7,220,177
Combo3 : 46,126,248
Combo4 : 244,66,191

[HitObjects]
40,48,17490,1,0
144,192,17959,1,0
256,48,18428,1,0
368,192,18897,1,0
424,120,19132,1,0
472,48,19366,1,0
368,192,19835,1,0
472,336,20304,1,0
472,336,20539,1,0
472,336,20773,1,0
368,192,21242,5,0
288,144,21476,2,0,B|248:120,2,45
288,240,21945,2,0,B|248:264,2,45
208,192,22414,2,0,B|160:192,4,45
168,112,23118,2,0,B|216:208,1,90
168,272,23587,2,0,B|216:176,1,90
120,192,24056,5,0
256,328,24290,1,0
392,192,24524,1,0
256,56,24759,1,0
176,96,24993,5,0
192,136,25111,1,0
208,176,25228,1,0
352,112,25462,1,0
312,128,25580,1,0
272,144,25697,1,0
336,288,25931,1,0
320,248,26049,1,0
304,208,26166,1,0
160,272,26400,1,0
200,256,26517,1,0
240,240,26635,1,0
384,192,26869,6,0,B|440:192,2,45
346,101,27338,2,0,B|386:61,2,45
256,64,27807,1,0
256,64,28041,1,0
165,101,28276,2,0,B|125:61,2,45
128,192,28745,1,0
128,192,28979,1,0
165,282,29214,2,0,B|125:322,4,45
256,320,29917,2,0,B|256:230,2,90
344,320,30621,6,0,B|240:320,1,90
168,248,31090,2,0,B|272:248,1,90
400,176,31558,2,0,B|296:176,1,90
112,104,32027,2,0,B|216:104,1,90
376,48,32496,6,0,B|432:64|424:120,1,90
352,168,32965,2,0,B|296:152|304:102,1,90
207,102,33434,2,0,B|215:152|160:168,1,90
87,113,33903,2,0,B|80:64|136:48,1,90
256,48,34372,6,0,B|368:48,1,90
256,120,34841,2,0,B|144:120,1,90
256,192,35310,2,0,B|368:192,1,90
256,264,35779,2,0,B|144:264,1,90
256,264,36248,5,0
136,312,36482,1,0
24,360,36717,1,0
136,312,36951,1,0
256,264,37186,1,0
376,312,37420,1,0
488,360,37655,1,0
376,312,37889,1,0
256,264,38124,5,0
488,168,38592,1,0
256,72,39061,1,0
24,168,39530,1,0
104,72,39765,1,0
184,168,39999,1,0
104,264,40234,1,0
184,360,40468,1,0
256,256,40703,1,0
328,360,40937,1,0
128,80,41406,5,0
256,120,41641,1,0
384,80,41875,1,0
256,120,42109,1,0
128,80,42344,1,0
256,120,42578,1,0
384,80,42813,1,0
136,344,43282,6,0,B|184:312,1,45
208,288,43516,2,0,B|240:232,1,45
256,208,43751,1,0
256,296,43985,1,0
376,344,44220,2,0,B|328:312,1,45
304,288,44454,2,0,B|272:232,1,45
256,208,44689,1,0
256,208,44923,1,0
464,192,45158,5,0
400,104,45392,1,0
304,56,45626,1,0
256,152,45861,1,0
208,56,46095,1,0
112,104,46330,1,0
48,192,46564,1,0
152,192,46799,5,0
168,192,46916,1,0
360,192,47151,1,0
344,192,47268,1,0
256,304,47502,1,4
136,80,47971,6,8,B|248:80|304:192,2,180
256,32,49143,1,0
376,80,49378,2,8,B|264:80|208:192,1,180
256,288,50081,1,0
345,201,50316,2,8,B|256:232|168:200,1,180
256,112,51019,1,0
144,56,51254,6,8,B|200:96|144:144|88:176|184:240,1,180
256,144,51957,1,0
368,56,52192,2,8,B|312:96|368:144|424:176|328:240,1,180
472,352,52895,5,0
472,352,53129,5,8
40,32,53598,1,8
40,352,54067,1,8
472,32,54536,1,8
160,240,55005,6,8,B|185:200|303:187|332:155,2,180
208,96,56177,1,0
352,144,56412,1,8
304,288,56646,1,0
160,240,56881,2,8,B|200:144|152:48,1,180
256,192,57584,5,0
352,144,57819,6,8,B|312:240|360:336,1,180
256,240,58522,1,0
160,144,58757,2,8,B|200:240|152:336,1,180
159,319,59460,1,0
159,319,59694,5,8
352,64,60163,1,8
352,64,60398,5,0
352,64,60632,6,0,B|320:104|240:96,1,90,8|0
159,319,61101,2,0,B|192:280|272:288,1,90,8|0
128,95,61570,2,0,B|168:128|160:208,1,90,8|0
383,288,62039,2,0,B|344:256|352:176,1,90,8|0
96,192,62508,6,0,B|144:216|208:184,1,90
256,88,63211,1,0
336,184,63446,2,0,B|272:200|312:256,1,90,8|0
176,200,63915,2,0,B|240:184|200:128,1,90,8|0
328,112,64384,2,0,B|400:128|464:96|480:32,2,180,8|8|8
208,72,65556,1,0
168,192,65791,1,8
288,232,66025,5,0
288,232,66260,2,0,B|408:232,1,90,8|0
224,232,66728,2,0,B|104:232,1,90,8|0
288,232,67197,2,0,B|408:232,1,90,8|0
224,232,67666,2,0,B|104:232,1,90,8|0
128,216,68018,1,2
120,192,68135,5,8
224,120,68370,1,0
224,136,68487,1,2
224,152,68604,1,8
288,264,68839,1,0
288,248,68956,1,2
288,232,69073,1,8
408,192,69308,1,0
408,192,69542,1,8
408,192,69777,1,0
424,224,69894,5,2
440,256,70011,2,8,B|496:160|432:64,2,180
344,344,71183,1,0
256,256,71418,1,8
256,128,71652,5,0
256,152,71770,1,0
256,176,71887,2,0,B|208:160|152:176,1,90,8|0
136,120,72356,1,8
104,176,72590,1,0
136,232,72825,1,8
200,232,73059,1,0
232,176,73294,2,0,B|200:112|240:72,1,90,8|0
280,48,73762,5,8
368,40,73997,1,0
448,80,74231,1,8
480,168,74466,1,0
480,256,74700,1,8
424,328,74935,1,0
336,344,75169,5,8
224,320,75404,1,0
152,232,75638,1,8
168,120,75873,1,0
264,56,76107,1,8
384,64,76342,1,0
464,152,76576,1,8
464,152,77045,1,8
453,189,77162,5,0
433,217,77279,1,0
411,236,77397,1,0
384,248,77514,2,0,B|360:256|336:248,2,45
168,256,78217,5,0
344,256,78452,1,0
256,64,78921,1,0
256,64,79390,5,4
256,320,79859,1,4
256,64,80328,5,8
208,160,80562,1,0
336,208,80796,1,8
160,256,81031,1,0
384,304,81265,2,8,B|488:304,1,90
426,224,81969,5,0
384,304,82203,1,8
304,344,82438,1,0
208,344,82672,1,8
128,304,82907,1,0
86,224,83141,2,8,B|176:256|264:186,1,180
256,192,83845,5,0
264,25,84079,2,0,B|304:64|256:104,1,90,8|0
116,101,84548,2,0,B|169:86|179:148,1,90,8|0
107,267,85017,2,0,B|121:214|179:236,1,90,8|0
247,358,85486,2,0,B|208:320|256:280,1,90,8|0
394,282,85955,2,0,B|342:297|332:235,1,90,8|0
404,116,86424,2,0,B|390:169|332:148,1,90,8|0
456,40,86893,6,8,B|456:160,1,90
392,192,87596,5,0
304,192,87830,1,8
392,192,88065,1,0
344,272,88299,1,8
392,192,88534,1,0
432,272,88768,2,8,B|488:248|480:176,1,90
120,192,89472,5,0
208,192,89706,1,8
120,192,89941,1,0
168,112,90175,1,8
120,192,90410,1,0
80,112,90644,2,8,B|24:136|32:208,1,90
112,304,91347,5,0
256,272,91582,1,8
400,304,91816,1,0
256,272,92051,1,8
80,240,92285,1,0
256,272,92520,1,8
432,240,92754,1,8
256,208,92989,1,8
48,176,93223,1,8
256,144,93458,1,8
464,176,93692,1,8
256,192,93927,5,8
256,192,94161,1,8
256,192,94396,1,4
256,192,94454,12,0,95333
256,192,109401,5,4
256,192,109870,5,0
160,88,110105,1,0
56,192,110339,1,0
160,296,110574,1,0
256,192,110808,1,0
256,192,111277,5,0
256,192,111746,5,0
352,288,111981,1,0
456,192,112215,1,0
352,96,112449,1,0
256,192,112684,1,0
256,192,113153,5,0
88,264,113622,5,0
256,192,113856,1,0
256,360,114091,1,0
256,192,114325,1,0
424,264,114560,1,0
96,192,115029,5,0
128,192,115263,1,0
256,64,115498,1,0
256,32,115732,1,0
416,192,115966,1,0
384,192,116201,1,0
256,320,116435,1,0
256,352,116670,1,0
256,192,116904,5,4
256,192,124407,5,4
400,304,124876,6,8,B|344:280|272:280|208:312,2,180
472,360,126049,1,0
472,272,126283,2,8,B|464:168|376:112,1,180
387,210,126986,1,0
388,120,127221,2,8,B|311:168|303:272,1,180
303,271,127924,1,0
303,271,128159,6,8,B|256:184|144:176,3,180
68,183,129800,1,0
158,177,130034,2,8,B|254:161|342:97,1,180
440,248,130972,1,8
352,264,131207,1,0
280,320,131441,1,8
120,240,131910,5,8
282,50,132379,1,8
365,285,132848,5,8
248,304,133083,1,0
320,208,133317,1,8
400,104,133551,1,0
280,136,133786,2,8,B|216:160|136:136|112:72,1,180
64,160,134489,5,0
128,224,134724,1,8
192,160,134958,1,0
256,96,135193,1,8
320,160,135427,1,0
232,248,135662,5,8
320,336,135896,1,0
408,248,136131,1,8
320,160,136365,1,0
368,40,136600,6,0,B|272:40,1,90,8|0
320,160,137068,2,0,B|440:160,1,90,8|0
472,48,137537,5,8
40,336,138006,1,8
40,48,138475,1,8
472,336,138944,1,8
240,192,139413,6,8,B|224:176|168:208|128:184,1,90
208,128,140117,1,0
272,192,140351,1,8
208,256,140585,1,0
120,192,140820,1,8
208,88,141054,1,0
304,192,141289,2,8,B|400:192,1,90
456,280,141992,1,0
394,192,142227,2,8,B|304:192,1,90
224,120,142930,1,0
304,192,143165,2,8,B|394:192,1,90
400,304,143868,2,6,B|296:304,1,90
200,304,144571,1,8
96,304,144806,5,0
72,256,144923,1,2
96,208,145040,1,8
200,208,145275,1,0
224,160,145392,1,0
200,112,145509,1,8
96,112,145744,1,0
200,112,145978,2,0,B|304:144|368:104,1,135,8|2
376,96,146447,1,8
432,248,146799,5,2
384,232,146916,2,8,B|272:264|192:224,3,180
120,160,148557,1,0
56,248,148792,1,8
136,320,149026,1,0
200,232,149261,1,8
200,232,149495,1,0
264,144,149730,5,8
328,56,149964,1,0
424,104,150199,2,0,B|320:104,1,90,8|0
302,200,150668,2,0,B|392:200,1,90,8|0
360,288,151136,2,0,B|240:288,2,90,8|0|8
88,64,152074,5,8
50,182,152309,1,0
159,249,152543,1,8
263,173,152778,1,0
218,50,153012,2,8,B|167:84|159:173|112:219,1,180
472,344,154185,5,4
392,304,154419,1,0
312,344,154653,1,0
232,304,154888,1,0
152,344,155122,1,0
72,304,155357,2,0,B|88:240|64:176,1,90
32,136,156060,5,0
112,96,156295,2,0,B|144:128|216:144,1,90
272,96,156764,2,0,B|320:104|352:144,1,90
344,232,157233,1,0
264,280,157467,1,0
256,192,157702,1,0
256,192,158170,1,0
256,192,158288,12,8,161453
256,192,161922,5,4
256,32,168956,6,0,B|240:80|272:176|248:224,1,180
72,192,169894,1,0
160,344,170363,1,0
256,192,170832,1,0
352,344,171301,1,0
440,192,171770,1,0
352,32,172238,1,0
304,112,172473,1,0
256,192,172707,1,0
208,112,172942,1,0
168,32,173176,1,0
120,112,173411,1,0
72,192,173645,6,0,B|208:192,1,90
40,264,174114,2,0,B|152:264,1,90
8,336,174583,2,0,B|128:336,1,90
208,248,175052,2,0,B|136:320,2,90
304,136,175755,5,0
272,136,175990,1,0
240,136,176224,1,0
208,136,176459,1,0
40,192,176928,5,4
472,192,177397,1,4
256,104,177866,5,8
204,263,178100,1,0
339,164,178335,1,8
172,164,178569,1,0
307,263,178804,2,0,B|256:248|256:192,1,90
256,352,179507,5,0
256,32,179741,1,8
117,272,179976,1,0
394,111,180210,1,8
117,112,180445,1,0
394,272,180679,2,0,B|360:272|344:240,2,45,8|0|8
118,272,181383,5,0
40,176,181617,2,0,B|24:120|72:88,1,90,8|0
168,24,182086,2,0,B|129:49|145:105,1,90,8|0
200,216,182555,2,0,B|184:160|232:128,1,90,8|0
328,56,183024,2,0,B|289:81|305:137,1,90,8|0
352,256,183493,2,0,B|336:200|384:168,1,90,8|0
480,96,183962,2,0,B|441:121|457:177,2,90,8|0|8
480,96,184900,6,0,B|384:96,1,90,8|0
32,96,185369,2,0,B|128:96,1,90,8|0
432,160,185838,2,0,B|312:160,1,90,8|0
80,160,186306,2,0,B|200:160,1,90,8|0
376,232,186775,6,0,B|320:256|336:320,1,90,8|0
230,68,187244,2,0,B|279:104|326:58,1,90,8|0
161,275,187713,2,0,B|168:215|105:197,1,90,8|0
256,192,188182,2,0,L|264:224|248:256|256:280,2,90,8|0|8
256,192,188886,5,0
216,96,189120,1,8
168,120,189237,1,2
112,120,189355,1,2
296,288,189589,1,8
344,264,189706,1,2
400,264,189823,1,2
216,96,190058,6,0,L|296:48,1,90,8|0
296,288,190527,2,0,L|216:336,1,90,8|0
352,152,190996,2,0,L|400:232,1,90,8|0
160,232,191465,2,0,L|112:152,1,90,8|0
256,192,191934,5,4
256,192,191992,12,4,192870
256,192,192930,12,4,193809
256,96,194278,5,8
172,144,194513,1,0
339,144,194747,1,8
172,240,194982,1,0
339,240,195216,1,8
256,288,195451,1,0
256,192,195685,1,8
256,192,195802,1,0
256,192,195920,1,2
256,192,196037,1,0
256,192,196154,1,8
256,192,196389,5,0
256,48,196623,2,0,B|256:138,1,90,8|0
256,336,197092,2,0,B|256:232,1,90,8|0
380,119,197561,2,0,B|290:172,1,90,8|0
131,264,198030,2,0,B|221:212,1,90,8|0
380,264,198499,2,0,B|302:219,1,90,8|0
131,120,198968,2,0,B|209:165,1,90,8|0
256,320,199437,5,8
200,320,199554,1,0
152,296,199671,1,2
120,248,199788,1,0
112,192,199906,1,8
256,64,200374,1,8
312,64,200492,1,0
360,88,200609,1,2
392,136,200726,1,0
400,192,200843,2,8,B|344:160|248:184|256:288,2,180
472,248,202016,5,0
376,272,202250,2,8,B|312:288|272:368|192:344,3,180
136,304,203891,5,2
104,208,204126,1,8
140,208,204360,1,2
158,131,204595,1,8
128,112,204829,1,2
208,56,205064,1,8
221,89,205298,1,2
293,90,205533,1,8
304,56,205767,1,2
384,112,206002,1,8
354,131,206236,1,2
372,208,206471,1,8
408,208,206705,1,2
376,304,206940,1,4
256,192,206998,12,0,207877
