osu file format v12

[General]
AudioFilename: kz x Hachioji-P feat. Hatsune Miku Weekender Girl.mp3
AudioLeadIn: 0
PreviewTime: 71460
Countdown: 0
SampleSet: Soft
StackLeniency: 0.7
Mode: 0
LetterboxInBreaks: 0

[Editor]
DistanceSpacing: 0.8
BeatDivisor: 4
GridSize: 4

[Metadata]
Title:Weekender Girl
TitleUnicode:Weekender Girl
Artist:kz (livetune) x 8#Prince
ArtistUnicode:kz (livetune) × 八王子P
Creator:Sonico Makaron
Version:Insane
Source:
Tags:alacat wcx19911123 vocaloid hatsune miku project diva f vocaloid2 hachiojiP
BeatmapID:196686
BeatmapSetID:60488

[Difficulty]
HPDrainRate:7
CircleSize:4
OverallDifficulty:8
ApproachRate:9
SliderMultiplier:1.8
SliderTickRate:1

[Events]
//Background and Video events
Video,-200,"Weekender Girl PV.avi"
0,0,"BG.jpg",0,0
//Break Periods
2,104842,115860
//Storyboard Layer 0 (Background)
//Storyboard Layer 1 (Fail)
//Storyboard Layer 2 (Pass)
//Storyboard Layer 3 (Foreground)
//Storyboard Sound Samples
//Background Colour Transformations
3,100,163,162,255

[TimingPoints]
7370,454.545454545455,4,2,2,60,1,0
7597,-100,4,2,1,60,0,0
7938,-100,4,2,1,65,0,0
8165,-100,4,2,1,70,0,0
8506,-100,4,2,1,60,0,0
8847,-100,4,2,2,50,0,0
9188,-100,4,2,2,60,0,0
9529,-100,4,2,1,60,0,0
9870,-100,4,2,1,70,0,0
10324,-100,4,2,1,60,0,0
11006,-100,4,2,2,60,0,0
11233,-100,4,2,1,60,0,0
11574,-100,4,2,1,65,0,0
11801,-100,4,2,1,70,0,0
12142,-100,4,2,1,60,0,0
12483,-100,4,2,2,50,0,0
12824,-100,4,2,2,60,0,0
13051,-100,4,2,1,60,0,0
14188,-100,4,1,1,50,0,0
14642,-100,4,2,2,60,0,0
15097,-100,4,2,1,60,0,0
15438,-100,4,2,1,70,0,0
15892,-100,4,2,1,60,0,0
16460,-100,4,2,2,50,0,0
16801,-100,4,2,1,60,0,0
17142,-100,4,2,1,70,0,0
18279,-100,4,2,2,60,0,0
18733,-100,4,2,1,60,0,0
19074,-100,4,2,1,70,0,0
19301,-100,4,2,1,60,0,0
20097,-100,4,2,2,50,0,0
20324,-100,4,2,1,60,0,0
20779,-100,4,2,1,70,0,0
21233,-100,4,2,1,60,0,0
21915,-100,4,2,2,60,0,0
22370,-100,4,2,1,60,0,0
22710,-100,4,2,1,70,0,0
23165,-100,4,2,1,60,0,0
23733,-100,4,2,2,50,0,0
24074,-100,4,2,1,60,0,0
24415,-100,4,2,1,70,0,0
25551,-100,4,2,2,60,0,0
26006,-100,4,2,1,60,0,0
27370,-100,4,2,2,60,0,0
27710,-100,4,1,1,50,0,0
28506,-100,4,2,1,60,0,0
29188,-100,4,2,2,60,0,0
29529,-100,4,2,1,65,0,0
29756,-100,4,2,1,70,0,0
29983,-100,4,2,2,50,0,0
30438,-100,4,2,1,60,0,0
30665,-100,4,2,1,65,0,0
31006,-100,4,2,2,60,0,0
31347,-100,4,2,1,60,0,0
31801,-100,4,2,1,70,0,0
32029,-100,4,2,2,50,0,0
32256,-100,4,2,2,60,0,0
32824,-100,4,2,1,60,0,0
34074,-100,4,2,2,50,0,0
34188,-100,4,2,1,60,0,0
34301,-100,4,2,2,60,0,0
34642,-100,4,2,2,60,0,0
34870,-100,4,2,1,60,0,0
35324,-100,4,2,2,60,0,0
35551,-100,4,2,1,60,0,0
36006,-100,4,2,2,50,0,0
36233,-100,4,2,2,55,0,0
36460,-100,4,2,2,60,0,0
36801,-100,4,2,1,65,0,0
37029,-100,4,2,1,70,0,0
37256,-100,4,2,2,50,0,0
37710,-100,4,2,1,60,0,0
37938,-100,4,2,1,65,0,0
38279,-100,4,2,2,60,0,0
38620,-100,4,2,1,60,0,0
39074,-100,4,2,1,70,0,0
39301,-100,4,2,2,50,0,0
39529,-100,4,2,2,60,0,0
40097,-100,4,2,1,60,0,0
41347,-100,4,2,2,50,0,0
41460,-100,4,2,1,60,0,0
41574,-100,4,2,2,60,0,0
41688,-100,4,2,1,60,0,0
41915,-100,4,2,2,50,0,0
42256,-80,4,2,2,60,0,0
42597,-66.6666666666667,4,2,2,70,0,0
43051,-100,4,2,2,80,0,0
43733,-100,4,2,2,60,0,0
44188,-100,4,2,1,60,0,0
44529,-100,4,2,1,70,0,0
44756,-100,4,2,1,60,0,0
45551,-100,4,2,2,50,0,0
45892,-100,4,2,1,60,0,0
46233,-100,4,2,1,70,0,0
47370,-100,4,2,2,60,0,0
47824,-100,4,2,1,60,0,0
48165,-100,4,2,1,70,0,0
48733,-100,4,2,1,60,0,0
49188,-100,4,2,2,50,0,0
49415,-100,4,2,1,60,0,0
49870,-100,4,2,1,70,0,0
50324,-100,4,2,1,60,0,0
51006,-100,4,2,2,60,0,0
51460,-100,4,2,1,60,0,0
51801,-100,4,2,1,70,0,0
52029,-100,4,2,1,60,0,0
52824,-100,4,2,2,50,0,0
53165,-100,4,2,1,60,0,0
53506,-100,4,2,1,70,0,0
54642,-100,4,2,2,60,0,0
54870,-100,4,2,1,60,0,0
56460,-100,4,2,2,60,0,0
56688,-100,4,1,1,50,0,0
57597,-100,4,2,1,60,0,0
58279,-200,4,2,2,60,0,0
59188,-200,4,2,1,60,0,0
65551,-133.333333333333,4,2,2,60,0,0
69188,-100,4,2,2,60,0,0
72370,-133.333333333333,4,2,2,60,0,0
72824,-100,4,2,2,100,0,1
73051,-100,4,2,2,70,0,1
73506,-100,4,2,2,80,0,1
73733,-100,4,2,2,70,0,1
74415,-100,4,2,2,75,0,1
74642,-100,4,2,2,70,0,1
74870,-100,4,2,2,80,0,1
75097,-100,4,2,2,70,0,1
75324,-100,4,2,2,85,0,1
75551,-100,4,2,2,70,0,1
75779,-100,4,2,2,90,0,1
76006,-100,4,2,2,70,0,1
77597,-100,4,2,2,80,0,1
77824,-100,4,2,2,70,0,1
78051,-100,4,2,2,90,0,1
78279,-100,4,2,2,70,0,1
78506,-100,4,2,2,90,0,1
78733,-100,4,2,2,70,0,1
78960,-100,4,2,2,90,0,1
79188,-100,4,2,2,70,0,1
79415,-100,4,2,2,90,0,1
79642,-100,4,2,2,70,0,1
80779,-100,4,2,2,80,0,1
81233,-100,4,2,2,70,0,1
82597,-100,4,2,2,80,0,1
83279,-100,4,2,2,70,0,1
83506,-100,4,2,2,80,0,1
83733,-100,4,2,2,70,0,1
84870,-100,4,2,2,80,0,1
85097,-100,4,2,2,70,0,1
85324,-100,4,2,2,90,0,1
85551,-100,4,2,2,70,0,1
87256,-100,4,2,2,70,0,0
87370,-100,4,2,2,100,0,1
87597,-100,4,2,2,70,0,1
88051,-100,4,2,2,80,0,1
88279,-100,4,2,2,70,0,1
88960,-100,4,2,2,75,0,1
89188,-100,4,2,2,70,0,1
89415,-100,4,2,2,80,0,1
89642,-100,4,2,2,70,0,1
89870,-100,4,2,2,85,0,1
90097,-100,4,2,2,70,0,1
90324,-100,4,2,2,90,0,1
90551,-100,4,2,2,70,0,1
92142,-100,4,2,2,80,0,1
92370,-100,4,2,2,70,0,1
92597,-100,4,2,2,90,0,1
92824,-100,4,2,2,70,0,1
93051,-100,4,2,2,90,0,1
93279,-100,4,2,2,70,0,1
93506,-100,4,2,2,90,0,1
93733,-100,4,2,2,70,0,1
93960,-100,4,2,2,90,0,1
94188,-100,4,2,2,70,0,1
95324,-100,4,2,2,80,0,1
95779,-100,4,2,2,70,0,1
97142,-100,4,2,2,80,0,1
97824,-100,4,2,2,70,0,1
98051,-100,4,2,2,80,0,1
98279,-100,4,2,2,70,0,1
99415,-100,4,2,2,80,0,1
99642,-100,4,2,2,70,0,1
99870,-100,4,2,2,90,0,1
100324,-100,4,2,2,70,0,1
101915,-100,4,2,2,70,0,0
104642,-100,4,2,2,50,0,0
116460,-133.333333333333,4,2,2,60,0,0
116915,-133.333333333333,4,2,1,60,0,0
117256,-133.333333333333,4,2,1,70,0,0
117710,-133.333333333333,4,2,1,60,0,0
118279,-133.333333333333,4,2,2,50,0,0
118620,-133.333333333333,4,2,1,60,0,0
118960,-133.333333333333,4,2,1,70,0,0
120097,-133.333333333333,4,2,2,60,0,0
120551,-133.333333333333,4,2,1,60,0,0
120892,-133.333333333333,4,2,1,70,0,0
121347,-133.333333333333,4,2,1,60,0,0
121915,-133.333333333333,4,2,2,45,0,0
122142,-133.333333333333,4,2,1,60,0,0
122597,-133.333333333333,4,2,1,70,0,0
123051,-133.333333333333,4,2,1,60,0,0
123733,-100,4,2,2,60,0,0
124188,-100,4,2,1,60,0,0
124529,-100,4,2,1,70,0,0
124983,-100,4,2,1,60,0,0
125551,-100,4,2,2,50,0,0
125892,-100,4,2,1,60,0,0
126233,-100,4,2,1,70,0,0
127370,-100,4,2,2,60,0,0
127597,-100,4,2,1,60,0,0
129188,-100,4,2,2,60,0,0
129529,-100,4,1,1,60,0,0
130324,-100,4,2,1,60,0,0
131006,-100,4,2,2,60,0,0
134642,-100,4,2,1,60,0,0
136006,-100,4,2,2,60,0,0
136460,-100,4,2,1,60,0,0
137824,-100,4,2,2,60,0,0
144415,-100,4,2,2,50,0,0
147370,-100,4,2,2,30,0,0
148051,-100,4,2,2,50,0,0
149187,-100,4,2,2,40,0,0
149301,-100,4,2,2,50,0,0
151006,-100,4,2,2,30,0,0
151688,-100,4,2,2,50,0,0
152824,-100,4,2,2,60,0,0
161915,-100,4,2,2,100,0,1
162142,-100,4,2,2,80,0,1
162597,-100,4,2,2,90,0,1
162824,-100,4,2,2,80,0,1
163506,-100,4,2,2,90,0,1
163733,-100,4,2,2,80,0,1
164870,-100,4,2,2,90,0,1
165097,-100,4,2,2,80,0,1
166688,-100,4,2,2,90,0,1
166915,-100,4,2,2,80,0,1
167142,-100,4,2,2,100,0,1
167370,-100,4,2,2,80,0,1
167597,-100,4,2,2,100,0,1
167824,-100,4,2,2,80,0,1
168051,-100,4,2,2,100,0,1
168279,-100,4,2,2,80,0,1
168506,-100,4,2,2,100,0,1
168734,-100,4,2,2,80,0,1
169870,-100,4,2,2,90,0,1
170324,-100,4,2,2,80,0,1
171688,-100,4,2,2,90,0,1
172370,-100,4,2,2,80,0,1
172597,-100,4,2,2,90,0,1
172824,-100,4,2,2,80,0,1
173960,-100,4,2,2,90,0,1
174188,-100,4,2,2,80,0,1
174415,-100,4,2,2,100,0,1
174642,-100,4,2,2,80,0,1
176347,-100,4,2,2,80,0,0
176460,-100,4,2,2,100,0,1
176688,-100,4,2,2,80,0,1
177142,-100,4,2,2,90,0,1
177370,-100,4,2,2,80,0,1
178051,-100,4,2,2,90,0,1
178279,-100,4,2,2,80,0,1
179415,-100,4,2,2,90,0,1
179642,-100,4,2,2,80,0,1
181233,-100,4,2,2,90,0,1
181460,-100,4,2,2,80,0,1
181688,-100,4,2,2,100,0,1
181915,-100,4,2,2,80,0,1
182142,-100,4,2,2,100,0,1
182370,-100,4,2,2,80,0,1
182597,-100,4,2,2,100,0,1
182824,-100,4,2,2,80,0,1
183051,-100,4,2,2,100,0,1
183279,-100,4,2,2,80,0,1
184415,-100,4,2,2,90,0,1
184870,-100,4,2,2,80,0,1
186233,-100,4,2,2,90,0,1
186915,-100,4,2,2,80,0,1
187142,-100,4,2,2,90,0,1
187370,-100,4,2,2,80,0,1
188506,-100,4,2,2,90,0,1
188733,-100,4,2,2,80,0,1
188960,-100,4,2,2,100,0,1
189415,-100,4,2,2,80,0,1
189642,-133.333333333333,4,2,2,80,0,1
190892,-133.333333333333,4,2,2,80,0,0
191006,-100,4,2,2,100,0,1
191233,-100,4,2,2,80,0,1
191688,-100,4,2,2,90,0,1
191915,-100,4,2,2,80,0,1
192597,-100,4,2,2,90,0,1
192824,-100,4,2,2,80,0,1
193506,-100,4,2,2,85,0,1
193733,-100,4,2,2,80,0,1
193960,-100,4,2,2,90,0,1
194188,-100,4,2,2,80,0,1
195779,-100,4,2,2,90,0,1
196006,-100,4,2,2,80,0,1
196233,-100,4,2,2,100,0,1
196460,-100,4,2,2,80,0,1
198279,-100,4,2,2,60,0,1
198506,-100,4,2,2,80,0,1
200779,-100,4,2,2,90,0,1
201006,-100,4,2,2,80,0,1
201233,-100,4,2,2,90,0,1
201460,-100,4,2,2,80,0,1
201688,-100,4,2,2,90,0,1
201915,-100,4,2,2,80,0,1
202597,-100,4,2,2,90,0,1
202824,-100,4,2,2,80,0,1
203506,-100,4,2,2,100,0,1
203733,-100,4,2,2,80,0,1
205551,-100,4,2,2,60,0,0
206233,-100,4,2,2,50,0,0
206915,-100,4,2,2,40,0,0
207597,-100,4,2,2,30,0,0
208279,-100,4,2,2,20,0,0
208960,-100,4,2,2,10,0,0
209188,-100,4,2,2,5,0,0

[Colours]
Combo1 : 77,230,122
Combo2 : 87,216,230
Combo3 : 235,95,154
Combo4 : 248,150,61
Combo5 : 243,227,37

[HitObjects]
346,311,7370,6,0,B|366:304|381:284,1,45,4|0,0:0|0:0,0:0:0:0:
464,214,7597,2,0,B|483:165|439:132,1,90,2|8,0:0|0:0,0:0:0:0:
329,144,7938,2,0,B|306:132|295:114,1,45,2|0,0:0|0:0,0:0:0:0:
236,221,8165,2,0,B|217:204|211:184,1,45,2|0,0:0|0:0,0:0:0:0:
204,40,8506,5,4,0:0:0:0:
113,163,8733,1,8,0:0:0:0:
87,138,8847,1,4,0:0:0:0:
124,286,9074,1,0,0:0:0:0:
136,320,9188,6,0,B|188:331|215:290,1,90,4|0,0:0|0:0,0:0:0:0:
315,342,9529,2,0,B|329:300,1,45,2|8,0:0|0:0,0:0:0:0:
431,78,9870,2,0,B|416:28,2,45,2|8|0,0:0|0:0|0:0,0:0:0:0:
244,141,10324,6,0,B|294:125,1,45,6|0,0:0|0:0,0:0:0:0:
370,210,10551,2,0,B|317:185,1,45,10|0,0:0|0:0,0:0:0:0:
236,264,10779,2,0,B|289:245,1,45,2|0,0:0|0:0,0:0:0:0:
343,347,11006,6,0,B|363:341|380:322,1,45,4|0,0:0|0:0,0:0:0:0:
482,233,11233,2,0,B|434:207|437:159,1,90,2|8,0:0|0:0,0:0:0:0:
481,77,11574,2,0,B|459:63|449:44,1,45,2|0,0:0|0:0,0:0:0:0:
328,55,11801,2,0,B|347:37|368:33,1,45,2|0,0:0|0:0,0:0:0:0:
306,232,12142,5,4,0:0:0:0:
190,333,12370,1,10,0:0:0:0:
162,311,12483,1,4,0:0:0:0:
94,174,12710,1,0,0:0:0:0:
103,209,12824,6,0,B|155:215|179:172,1,90,4|2,0:0|0:0,0:0:0:0:
169,87,13165,2,0,B|223:59,1,45,0|0,0:0|0:0,0:0:0:0:
399,284,13506,2,0,B|297:267|280:165,1,180,2|0,0:0|0:0,0:0:0:0:
392,37,14188,1,0,0:0:0:0:
247,346,14642,6,0,B|194:347|177:298,1,90,4|0,0:0|0:0,0:0:0:0:
121,157,15097,1,10,0:0:0:0:
273,138,15324,1,2,0:0:0:0:
297,165,15438,2,0,B|347:152|351:102,1,90,2|0,0:0|0:0,0:0:0:0:
465,285,15892,1,0,0:0:0:0:
445,315,16006,2,0,B|394:318|372:270,1,90,8|2,0:0|0:0,0:0:0:0:
159,243,16460,6,0,B|196:212|244:220,1,90,4|0,0:0|0:0,0:0:0:0:
169,328,16801,2,0,B|120:328|89:291,1,90,2|0,0:0|0:0,0:0:0:0:
31,175,17142,2,0,B|31:126|67:95,1,90,2|4,0:0|0:0,0:0:0:0:
211,45,17597,1,0,0:0:0:0:
282,220,17824,2,0,B|334:226|358:183,1,90,10|0,0:0|0:0,0:0:0:0:
472,346,18279,6,0,B|424:359|392:318,1,90,4|0,0:0|0:0,0:0:0:0:
430,152,18733,1,10,0:0:0:0:
318,347,18960,1,2,0:0:0:0:
292,322,19074,1,2,0:0:0:0:
235,161,19301,1,0,0:0:0:0:
145,296,19529,1,0,0:0:0:0:
114,314,19642,2,0,B|71:286|75:236,1,90,8|2,0:0|0:0,0:0:0:0:
143,81,20097,6,0,B|238:69,1,90,4|2,0:0|0:0,0:0:0:0:
268,65,20438,1,0,0:0:0:0:
303,61,20551,1,8,0:0:0:0:
324,295,20779,2,0,B|274:293|251:246,1,90,2|4,0:0|0:0,0:0:0:0:
335,131,21233,1,2,0:0:0:0:
448,57,21460,1,10,0:0:0:0:
446,192,21688,1,0,0:0:0:0:
308,346,21915,6,0,B|257:347|230:303,1,90,4|0,0:0|0:0,0:0:0:0:
95,351,22370,2,0,B|46:340|31:290,1,90,10|0,0:0|0:0,0:0:0:0:
20,200,22710,2,0,B|33:151|84:139,1,90,2|0,0:0|0:0,0:0:0:0:
203,197,23165,1,0,0:0:0:0:
228,171,23279,1,8,0:0:0:0:
192,41,23506,1,2,0:0:0:0:
123,217,23733,6,0,B|132:263|180:280,1,90,4|0,0:0|0:0,0:0:0:0:
271,348,24074,2,0,B|318:331|328:284,1,90,2|0,0:0|0:0,0:0:0:0:
423,223,24415,2,0,B|418:173|375:151,1,90,2|4,0:0|0:0,0:0:0:0:
260,81,24870,1,0,0:0:0:0:
194,209,25097,2,0,B|145:197|131:151,1,90,10|0,0:0|0:0,0:0:0:0:
60,345,25551,6,0,B|108:347|136:305,1,90,4|0,0:0|0:0,0:0:0:0:
338,353,26006,2,0,B|289:340|275:293,1,90,10|0,0:0|0:0,0:0:0:0:
268,245,26347,1,6,0:0:0:0:
283,43,26688,1,4,0:0:0:0:
341,175,26915,5,2,0:0:0:0:
375,163,27029,1,0,0:0:0:0:
403,141,27142,1,2,0:0:0:0:
426,113,27256,1,2,0:0:0:0:
435,78,27370,1,4,0:0:0:0:
459,292,27710,6,0,B|466:332,2,22.5
317,350,28051,1,0,0:0:0:0:
287,330,28165,1,0,0:0:0:0:
264,302,28279,1,0,0:0:0:0:
217,147,28506,1,2,0:0:0:0:
74,201,28733,1,10,0:0:0:0:
118,338,28960,1,0,0:0:0:0:
361,357,29188,6,0,B|413:353|429:307,1,90,4|0,0:0|0:0,0:0:0:0:
378,238,29529,2,0,B|399:222|406:202,1,45,2|12,0:0|0:0,0:0:0:0:
478,149,29756,2,0,B|444:120,1,45,2|0,0:0|0:0,0:0:0:0:
287,77,29983,2,0,B|338:21|410:43,1,135,4|0,0:0|0:0,0:0:0:0:
338,175,30438,6,0,B|314:165|302:147,1,45,2|12,0:0|0:0,0:0:0:0:
247,225,30665,2,0,B|228:208|223:186,1,45,2|0,0:0|0:0,0:0:0:0:
210,98,30892,1,0,0:0:0:0:
201,63,31006,6,0,B|165:33|115:50,1,90,4|0,0:0|0:0,0:0:0:0:
96,156,31347,2,0,B|120:146|132:128,1,45,2|12,0:0|0:0,0:0:0:0:
107,253,31574,2,0,B|71:225,1,45,2|0,0:0|0:0,0:0:0:0:
167,321,31801,2,0,B|187:305|194:284,1,45,2|4,0:0|0:0,0:0:0:0:
334,297,32029,6,0,B|314:306|289:305,1,45,4|0,0:0|0:0,0:0:0:0:
293,165,32256,2,0,B|344:109|416:131,1,135,4|0,0:0|0:0,0:0:0:0:
447,148,32710,1,0,0:0:0:0:
470,176,32824,5,6,0:0:0:0:
442,326,33051,1,2,0:0:0:0:
349,130,33279,1,10,0:0:0:0:
308,277,33506,1,2,0:0:0:0:
162,347,33733,5,4,0:0:0:0:
136,322,33847,1,2,0:0:0:0:
154,134,34074,2,0,B|116:157,1,45,4|12,0:0|0:0,0:0:0:0:
185,228,34301,2,0,B|238:224|254:176,1,90,4|0,0:0|0:0,0:0:0:0:
295,59,34642,6,0,B|385:43,1,90,4|8,0:0|0:0,0:0:0:0:
434,144,34983,2,0,B|385:160|349:130,1,90,6|0,0:0|0:0,0:0:0:0:
330,255,35324,2,0,B|425:226,1,90,4|8,0:0|0:0,0:0:0:0:
441,339,35665,2,0,B|392:355|356:325,1,90,6|0,0:0|0:0,0:0:0:0:
314,351,36006,1,4,0:0:0:0:
256,171,36233,1,6,0:0:0:0:
154,307,36460,6,0,B|103:305|81:258,1,90,4|0,0:0|0:0,0:0:0:0:
60,178,36801,2,0,B|68:158|91:146,1,45,2|12,0:0|0:0,0:0:0:0:
196,209,37029,2,0,B|141:181,1,45,2|0,0:0|0:0,0:0:0:0:
172,77,37256,2,0,B|227:25|297:53,1,135,4|0,0:0|0:0,0:0:0:0:
356,154,37710,6,0,B|336:146|320:126,1,45,2|12,0:0|0:0,0:0:0:0:
384,248,37938,2,0,B|402:238|416:216,1,45,2|0,0:0|0:0,0:0:0:0:
488,163,38165,1,0,0:0:0:0:
492,127,38279,6,0,B|463:86|411:92,1,90,4|0,0:0|0:0,0:0:0:0:
306,59,38620,2,0,B|321:79|343:84,1,45,2|12,0:0|0:0,0:0:0:0:
264,177,38847,2,0,B|244:167|234:143,1,45,2|0,0:0|0:0,0:0:0:0:
208,58,39074,1,2,0:0:0:0:
208,58,39301,6,0,B|140:48,1,45,4|0,0:0|0:0,0:0:0:0:
26,149,39529,2,0,B|172:126,1,135,4|0,0:0|0:0,0:0:0:0:
192,143,39983,1,0,0:0:0:0:
192,143,40097,5,6,0:0:0:0:
201,314,40324,1,2,0:0:0:0:
115,235,40551,1,10,0:0:0:0:
277,227,40779,1,2,0:0:0:0:
368,350,41006,5,4,0:0:0:0:
396,327,41120,1,2,0:0:0:0:
474,196,41347,2,0,B|461:173|443:162,1,45,4|12,0:0|0:0,0:0:0:0:
346,256,41574,2,0,B|363:237|367:216,1,45,4|4,0:0|0:0,0:0:0:0:
335,57,41915,6,0,B|241:35,1,90,4|0,0:0|0:0,0:0:0:0:
273,129,42256,6,0,B|166:99,1,112.5,4|0,0:0|0:0,0:0:0:0:
193,196,42597,6,0,B|58:157,1,135.000005149842,4|0,0:0|0:0,0:0:0:0:
261,329,43051,6,0,B|213:346|164:337|126:305|115:261,1,180,4|0,0:0|0:0,0:0:0:0:
148,103,43733,6,0,B|199:99|222:58,1,90,4|0,0:0|0:0,0:0:0:0:
378,181,44188,2,0,B|330:191|293:160,1,90,10|2,0:0|0:0,0:0:0:0:
274,115,44529,1,2,0:0:0:0:
148,290,44756,2,0,B|231:250,1,90
270,270,45097,1,12,0:0:0:0:
208,140,45324,1,2,0:0:0:0:
342,320,45551,6,0,B|390:315|416:275,1,90,4|0,0:0|0:0,0:0:0:0:
395,173,45892,2,0,B|471:102,1,90,2|0,0:0|0:0,0:0:0:0:
372,58,46233,2,0,B|335:29|287:37,1,90,2|4,0:0|0:0,0:0:0:0:
208,140,46688,1,0,0:0:0:0:
237,299,46915,1,10,0:0:0:0:
109,215,47142,1,0,0:0:0:0:
123,62,47370,6,0,B|89:29|38:42,1,90,4|0,0:0|0:0,0:0:0:0:
27,185,47824,1,10,0:0:0:0:
61,325,48051,1,2,0:0:0:0:
85,352,48165,2,0,B|159:354|194:287,1,135,2|0,0:0|0:0,0:0:0:0:
264,150,48733,1,12,0:0:0:0:
350,276,48960,1,2,0:0:0:0:
209,88,49188,6,0,B|249:54|293:75,1,90,4|2,0:0|0:0,0:0:0:0:
324,92,49529,1,0,0:0:0:0:
346,120,49642,1,12,0:0:0:0:
251,331,49870,2,0,B|164:306,1,90,2|4,0:0|0:0,0:0:0:0:
27,349,50324,1,2,0:0:0:0:
80,187,50551,1,10,0:0:0:0:
27,350,50779,1,0,0:0:0:0:
170,189,51006,6,0,B|166:138|125:115,1,90,4|0,0:0|0:0,0:0:0:0:
32,247,51460,1,10,0:0:0:0:
154,340,51688,1,2,0:0:0:0:
183,319,51801,1,2,0:0:0:0:
238,147,52029,1,0,0:0:0:0:
338,263,52256,1,0,0:0:0:0:
361,235,52370,1,12,0:0:0:0:
260,350,52597,1,2,0:0:0:0:
422,357,52824,6,0,B|469:340|468:287,1,90,4|0,0:0|0:0,0:0:0:0:
447,181,53165,2,0,B|394:182|377:133,1,90,2|0,0:0|0:0,0:0:0:0:
297,207,53506,2,0,B|211:179,1,90,2|4,0:0|0:0,0:0:0:0:
155,57,53960,1,0,0:0:0:0:
93,236,54188,2,0,B|47:231|19:191,1,90,10|0,0:0|0:0,0:0:0:0:
188,339,54642,6,0,B|240:330|248:279,1,90,4|4,0:0|0:0,0:0:0:0:
204,124,55097,1,10,0:0:0:0:
359,261,55324,1,0,0:0:0:0:
384,235,55438,1,6,0:0:0:0:
384,235,55779,5,4,0:0:0:0:
260,353,56006,1,4,0:0:0:0:
359,161,56233,1,6,0:0:0:0:
260,353,56460,1,4,0:0:0:0:
203,201,56688,5,0,0:0:0:0:
185,170,56801,2,0,B|174:148,2,22.5
135,334,57142,2,0,L|112:377,2,45
299,283,57597,1,2,0:0:0:0:
117,137,57824,2,0,B|144:93|192:97,1,90,10|0,0:0|0:0,0:0:0:0:
465,313,58279,6,0,B|372:353|299:283,1,180,4|8,0:0|0:0,0:0:0:0:
186,69,59642,2,0,B|219:30|271:46,1,90,8|8,0:0|0:0,0:0:0:0:
402,177,60551,1,8,0:0:0:0:
300,336,61006,1,8,0:0:0:0:
199,177,61460,1,8,0:0:0:0:
256,192,61574,12,0,63733,0:0:0:0:
356,325,64188,6,0,B|412:304,1,45,2|0,0:0|0:0,0:0:0:0:
479,196,64642,2,0,B|437:177,1,45,2|0,0:0|0:0,0:0:0:0:
378,51,65097,2,0,B|434:30,1,45,2|0,0:0|0:0,0:0:0:0:
294,202,65551,5,8,0:0:0:0:
270,183,65665,1,0,0:0:0:0:
176,51,66006,2,0,B|140:40,1,33.7500012874604,8|0,0:0|0:0,0:0:0:0:
81,202,66460,1,8,0:0:0:0:
105,183,66574,1,0,0:0:0:0:
157,347,66915,2,0,B|116:336,1,33.7500012874604,8|0,0:0|0:0,0:0:0:0:
250,117,67370,6,0,B|288:100,1,33.7500012874604,8|0,0:0|0:0,0:0:0:0:
374,201,67710,1,8,0:0:0:0:
352,180,67824,1,0,0:0:0:0:
244,272,68051,2,0,B|275:260,1,33.7500012874604,8|0,0:0|0:0,0:0:0:0:
380,356,68392,2,0,B|347:345,1,33.7500012874604,8|0,0:0|0:0,0:0:0:0:
180,325,68733,2,0,L|159:287,1,33.7500012874604,8|0,0:0|0:0,0:0:0:0:
83,285,68960,2,0,L|77:232,1,33.7500012874604,8|0,0:0|0:0,0:0:0:0:
57,135,69188,6,0,L|26:101,5,45,8|8|8|8|8|8,0:0|0:0|0:0|0:0|0:0|0:0,0:0:0:0:
131,165,69870,6,0,B|144:189,7,22.5,8|8|8|8|8|8|8|8,0:0|0:0|0:0|0:0|0:0|0:0|0:0|0:0,0:0:0:0:
214,222,70324,6,0,B|232:212|247:190,1,45,8|8,0:0|0:0,0:0:0:0:
229,84,70551,2,0,B|252:94|267:107,1,45,8|8,0:0|0:0,0:0:0:0:
372,139,70779,2,0,B|358:160|339:168,1,45,8|8,0:0|0:0,0:0:0:0:
350,56,71006,1,4,0:0:0:0:
202,251,72370,6,0,B|134:234,1,67.5000025749208,8|0,0:0|0:0,0:0:0:0:
344,361,72824,6,0,B|393:354|407:304,1,90,4|4,0:0|0:0,0:0:0:0:
482,290,73165,2,0,B|459:241,1,45,0|10,0:0|0:0,0:0:0:0:
486,70,73506,2,0,B|455:36|405:43,1,90,4|2,0:0|0:0,0:0:0:0:
287,141,73960,1,4,0:0:0:0:
349,281,74188,1,10,0:0:0:0:
217,88,74415,2,0,B|247:49|295:55,1,90,4|2,0:0|0:0,0:0:0:0:
220,258,74870,2,0,B|122:232,1,90,4|10,0:0|0:0,0:0:0:0:
81,91,75324,5,4,0:0:0:0:
214,167,75551,1,2,0:0:0:0:
160,330,75779,1,4,0:0:0:0:
299,293,76006,1,10,0:0:0:0:
121,207,76233,1,4,0:0:0:0:
273,80,76460,6,0,B|237:46|189:67,1,90,2|4,0:0|0:0,0:0:0:0:
164,92,76801,1,0,0:0:0:0:
144,122,76915,1,10,0:0:0:0:
42,248,77142,2,0,B|27:148,1,90,4|2,0:0|0:0,0:0:0:0:
228,299,77597,2,0,B|214:349|165:356,1,90,4|10,0:0|0:0,0:0:0:0:
449,268,78051,2,0,B|351:241,1,90,4|2,0:0|0:0,0:0:0:0:
300,75,78506,5,4,0:0:0:0:
300,75,78620,1,0,0:0:0:0:
300,75,78733,1,10,0:0:0:0:
205,228,78960,5,4,0:0:0:0:
205,228,79074,1,0,0:0:0:0:
205,228,79188,1,2,0:0:0:0:
336,351,79415,5,4,0:0:0:0:
371,360,79529,1,0,0:0:0:0:
406,352,79642,2,0,B|455:331|458:285,1,90,10|4,0:0|0:0,0:0:0:0:
486,106,80097,6,0,B|452:69|403:87,1,90,2|4,0:0|0:0,0:0:0:0:
315,200,80551,1,10,0:0:0:0:
211,325,80779,2,0,B|160:315|122:283|105:236|118:192,1,180,4|4,0:0|0:0,0:0:0:0:
132,162,81347,1,0,0:0:0:0:
153,133,81460,1,10,0:0:0:0:
264,40,81688,1,4,0:0:0:0:
226,216,81915,5,2,0:0:0:0:
367,274,82142,1,4,0:0:0:0:
352,121,82370,1,10,0:0:0:0:
252,342,82597,2,0,B|201:349|154:332|122:294|119:249,1,180,4|4,0:0|0:0,0:0:0:0:
116,215,83165,1,0,0:0:0:0:
124,180,83279,1,10,0:0:0:0:
226,43,83506,1,4,0:0:0:0:
226,43,83620,1,0,0:0:0:0:
226,43,83733,6,0,B|270:63|310:32,1,90,2|4,0:0|0:0,0:0:0:0:
264,188,84188,1,10,0:0:0:0:
367,313,84415,2,0,B|416:292|418:246,1,90,4|2,0:0|0:0,0:0:0:0:
393,85,84870,2,0,B|445:77|460:33,1,90,4|10,0:0|0:0,0:0:0:0:
491,201,85324,1,4,0:0:0:0:
448,338,85551,6,0,B|400:350|366:312,1,90,2|8,0:0|0:0,0:0:0:0:
239,284,85892,2,0,B|266:243|316:244,1,90,2|0,0:0|0:0,0:0:0:0:
187,351,86233,2,0,B|140:337|128:287,1,90,2|8,0:0|0:0,0:0:0:0:
122,253,86574,1,2,0:0:0:0:
131,218,86688,1,0,0:0:0:0:
276,169,86915,1,4,0:0:0:0:
161,69,87142,1,2,0:0:0:0:
336,264,87370,6,0,B|382:247|387:197,1,90,4|4,0:0|0:0,0:0:0:0:
437,139,87710,2,0,B|396:107,1,45,0|10,0:0|0:0,0:0:0:0:
161,69,88051,2,0,B|255:42,1,90,4|2,0:0|0:0,0:0:0:0:
243,279,88506,1,4,0:0:0:0:
243,279,88733,1,10,0:0:0:0:
442,97,88960,2,0,B|356:66,1,90,4|2,0:0|0:0,0:0:0:0:
391,335,89415,2,0,B|441:334|462:289,1,90,4|10,0:0|0:0,0:0:0:0:
394,151,89870,5,4,0:0:0:0:
313,259,90097,1,2,0:0:0:0:
222,136,90324,1,4,0:0:0:0:
124,228,90551,1,10,0:0:0:0:
161,79,90779,1,4,0:0:0:0:
139,321,91006,6,0,B|191:313|205:268,1,90,2|4,0:0|0:0,0:0:0:0:
126,148,91460,1,10,0:0:0:0:
252,346,91688,2,0,B|304:338|318:293,1,90,4|2,0:0|0:0,0:0:0:0:
326,50,92142,2,0,B|429:32,1,90,4|10,0:0|0:0,0:0:0:0:
491,266,92597,2,0,B|392:232,1,90,4|2,0:0|0:0,0:0:0:0:
286,128,93051,5,4,0:0:0:0:
286,128,93165,1,0,0:0:0:0:
286,128,93279,1,10,0:0:0:0:
252,286,93506,5,4,0:0:0:0:
225,310,93620,1,0,0:0:0:0:
190,318,93733,2,0,B|141:296|139:249,1,90,2|4,0:0|0:0,0:0:0:0:
184,182,94074,5,0,0:0:0:0:
212,159,94188,2,0,B|207:111|159:93,1,90,10|4,0:0|0:0,0:0:0:0:
295,224,94642,6,0,B|347:220|363:174,1,90,2|4,0:0|0:0,0:0:0:0:
349,318,95097,1,10,0:0:0:0:
305,116,95324,2,0,B|334:74|379:53|429:58|463:87,1,180,4|4,0:0|0:0,0:0:0:0:
484,115,95892,1,0,0:0:0:0:
496,149,96006,1,10,0:0:0:0:
442,282,96233,1,4,0:0:0:0:
276,351,96460,6,0,B|227:342|214:293,1,90,2|4,0:0|0:0,0:0:0:0:
190,160,96915,1,10,0:0:0:0:
78,102,97142,2,0,B|99:55|139:27|190:23|228:46,1,180,4|4,0:0|0:0,0:0:0:0:
279,119,97710,2,0,B|301:107|312:87,1,45,0|10,0:0|0:0,0:0:0:0:
306,224,98051,1,4,0:0:0:0:
323,256,98165,1,0,0:0:0:0:
348,282,98279,6,0,B|400:274|414:229,1,90,2|4,0:0|0:0,0:0:0:0:
485,189,98620,2,0,B|465:139,1,45,0|10,0:0|0:0,0:0:0:0:
223,260,98960,2,0,B|312:222,1,90,4|0,0:0|0:0,0:0:0:0:
486,60,99415,2,0,B|392:32,1,90,4|8,0:0|0:0,0:0:0:0:
396,324,99870,2,0,B|438:319|475:287|492:241|485:190,1,180,4|4,0:0|0:0,0:0:0:0:
271,120,100551,6,0,B|302:81|351:93,1,90,8|4,0:0|0:0,0:0:0:0:
242,280,101006,2,0,B|192:284|166:241,1,90,0|4,0:0|0:0,0:0:0:0:
452,211,101460,2,0,B|454:261|433:306|393:336|350:336,1,180,10|4,0:0|0:0,0:0:0:0:
256,192,102029,12,2,104642,0:0:0:0:
423,325,116460,6,0,B|387:316|373:283,1,67.5000025749208,4|0,0:0|0:0,0:0:0:0:
346,144,116915,1,10,0:0:0:0:
230,257,117142,1,0,0:0:0:0:
202,276,117256,2,0,B|170:258|164:222,1,67.5000025749208,2|0,0:0|0:0,0:0:0:0:
181,75,117710,1,0,0:0:0:0:
211,59,117824,1,8,0:0:0:0:
280,191,118051,1,0,0:0:0:0:
68,147,118279,6,0,B|97:127|132:137,1,67.5000025749208,4|0,0:0|0:0,0:0:0:0:
130,242,118620,2,0,B|95:252|66:232,1,67.5000025749208,2|0,0:0|0:0,0:0:0:0:
76,335,118960,2,0,B|111:345|140:325,1,67.5000025749208,2|0,0:0|0:0,0:0:0:0:
274,345,119415,1,0,0:0:0:0:
355,237,119642,1,10,0:0:0:0:
274,345,119870,1,0,0:0:0:0:
423,198,120097,6,0,B|405:166|369:160,1,67.5000025749208,4|0,0:0|0:0,0:0:0:0:
251,249,120551,1,10,0:0:0:0:
120,333,120779,1,0,0:0:0:0:
93,313,120892,2,0,B|118:244,1,67.5000025749208,2|0,0:0|0:0,0:0:0:0:
226,149,121347,1,0,0:0:0:0:
200,128,121460,1,8,0:0:0:0:
187,297,121688,1,0,0:0:0:0:
340,350,121915,6,0,B|375:343|392:311,1,67.5000025749208,4|2,0:0|0:0,0:0:0:0:
496,280,122256,2,0,B|461:273|444:241,1,67.5000025749208,0|0,0:0|0:0,0:0:0:0:
349,189,122597,2,0,B|385:187|406:158,1,67.5000025749208,2|0,0:0|0:0,0:0:0:0:
313,34,123051,1,2,0:0:0:0:
193,110,123279,1,10,0:0:0:0:
268,214,123506,1,0,0:0:0:0:
124,350,123733,6,0,B|72:346|56:300,1,90,4|0,0:0|0:0,0:0:0:0:
39,157,124188,1,10,0:0:0:0:
189,257,124415,1,0,0:0:0:0:
216,280,124529,2,0,B|265:262|268:214,1,90,2|0,0:0|0:0,0:0:0:0:
186,54,124983,1,0,0:0:0:0:
218,37,125097,1,12,0:0:0:0:
310,148,125324,1,2,0:0:0:0:
327,309,125551,6,0,B|433:290,1,90,4|0,0:0|0:0,0:0:0:0:
484,209,125892,2,0,B|389:195,1,90,2|0,0:0|0:0,0:0:0:0:
362,83,126233,2,0,B|400:52|448:70,1,90,2|4,0:0|0:0,0:0:0:0:
395,196,126688,1,0,0:0:0:0:
317,347,126915,2,0,B|269:350|239:308,1,90,10|0,0:0|0:0,0:0:0:0:
177,150,127370,5,4,0:0:0:0:
148,318,127597,1,4,0:0:0:0:
310,263,127824,1,10,0:0:0:0:
392,103,128051,1,0,0:0:0:0:
362,83,128165,1,6,0:0:0:0:
362,83,128506,5,4,0:0:0:0:
382,315,128733,1,6,0:0:0:0:
410,300,128847,1,0,0:0:0:0:
435,281,128960,1,6,0:0:0:0:
461,263,129074,1,0,0:0:0:0:
487,245,129188,2,0,B|471:147,1,90,4|0,0:0|0:0,0:0:0:0:
485,76,129529,6,0,B|496:49,2,22.5
300,206,129870,2,0,B|253:249,2,45
315,349,130324,1,2,0:0:0:0:
195,138,130551,2,0,B|143:134|127:88,1,90,10|0,0:0|0:0,0:0:0:0:
138,341,131006,6,0,B|185:329|199:283,1,90,4|0,0:0|0:0,0:0:0:0:
344,110,131460,2,0,B|295:102|277:57,1,90,2|0,0:0|0:0,0:0:0:0:
368,263,131915,2,0,B|416:255|434:210,1,90,2|0,0:0|0:0,0:0:0:0:
265,344,132370,2,0,B|217:336|199:291,1,90,4|0,0:0|0:0,0:0:0:0:
104,96,132824,6,0,B|203:64,1,90,2|0,0:0|0:0,0:0:0:0:
118,281,133278,2,0,B|71:274|48:229,1,90,2|0,0:0|0:0,0:0:0:0:
268,178,133733,2,0,B|177:159,1,90,2|0,0:0|0:0,0:0:0:0:
265,344,134188,2,0,B|314:341|341:302,1,90,4|0,0:0|0:0,0:0:0:0:
319,60,134642,5,6,0:0:0:0:
286,45,134756,1,0,0:0:0:0:
199,148,134983,1,2,0:0:0:0:
231,131,135097,1,4,0:0:0:0:
318,234,135324,1,2,0:0:0:0:
286,217,135438,1,0,0:0:0:0:
212,330,135665,1,2,0:0:0:0:
245,315,135779,1,0,0:0:0:0:
431,345,136006,2,0,B|480:327|483:279,1,90,4|0,0:0|0:0,0:0:0:0:
461,100,136460,6,0,B|437:90|424:73,1,45,6|0,0:0|0:0,0:0:0:0:
244,80,136801,2,0,B|268:74|284:60,1,45,2|4,0:0|0:0,0:0:0:0:
392,248,137142,2,0,B|407:227|410:207,1,45,2|0,0:0|0:0,0:0:0:0:
253,166,137483,2,0,B|277:160|293:146,1,45,2|0,0:0|0:0,0:0:0:0:
249,284,137824,1,4,0:0:0:0:
128,224,138051,1,8,0:0:0:0:
134,62,138279,6,0,B|149:47|174:42,1,45,10|0,0:0|0:0,0:0:0:0:
392,149,138733,2,0,B|370:149|348:137,1,45,10|0,0:0|0:0,0:0:0:0:
227,348,139188,2,0,B|248:348|270:336,1,45,10|0,0:0|0:0,0:0:0:0:
436,158,139642,2,0,B|417:148|392:149,1,45,10|0,0:0|0:0,0:0:0:0:
160,77,140097,6,0,B|211:21|283:43,1,135,10|8,0:0|0:0,0:0:0:0:
323,71,140551,1,2,0:0:0:0:
288,276,140779,2,0,B|216:298|164:242,1,135,8|8,0:0|0:0,0:0:0:0:
329,361,141460,2,0,B|378:343|381:295,1,90,10|8,0:0|0:0,0:0:0:0:
353,153,141915,6,0,L|326:110,5,45,10|8|8|8|10|8,0:0|0:0|0:0|0:0|0:0|0:0,0:0:0:0:
413,203,142597,6,0,B|432:216,7,22.5,8|8|8|8|10|10|8|8,0:0|0:0|0:0|0:0|0:0|0:0|0:0|0:0,0:0:0:0:
415,293,143051,6,0,B|393:292|371:281,1,45,8|8,0:0|0:0,0:0:0:0:
318,349,143279,2,0,B|297:340|280:322,1,45,10|8,0:0|0:0,0:0:0:0:
199,348,143506,2,0,B|182:333|173:310,1,45,8|8,0:0|0:0,0:0:0:0:
150,192,143733,1,4,0:0:0:0:
150,192,144415,5,0,0:0:0:0:
269,288,144642,2,0,B|310:257|300:209,1,90,0|0,0:0|0:0,0:0:0:0:
455,159,145097,2,0,B|423:120|374:133,1,90,0|0,0:0|0:0,0:0:0:0:
427,295,145551,1,4,0:0:0:0:
256,192,145665,12,0,147370,0:0:0:0:
58,223,148051,6,0,B|92:187|141:205,1,90,0|0,0:0|0:0,0:0:0:0:
189,360,148506,2,0,B|136:354|121:308,2,90,0|0|0,0:0|0:0|0:0,0:0:0:0:
256,193,149187,1,4,0:0:0:0:
256,192,149301,12,0,151006,0:0:0:0:
301,266,151688,5,0,0:0:0:0:
415,354,151915,1,0,0:0:0:0:
465,219,152142,1,0,0:0:0:0:
351,131,152370,1,0,0:0:0:0:
301,266,152597,1,0,0:0:0:0:
208,134,152824,5,8,0:0:0:0:
181,110,152938,1,0,0:0:0:0:
158,325,153279,1,8,0:0:0:0:
190,309,153392,1,0,0:0:0:0:
378,155,153733,1,8,0:0:0:0:
351,131,153847,1,0,0:0:0:0:
430,332,154188,1,8,0:0:0:0:
462,316,154301,1,0,0:0:0:0:
465,86,154642,6,0,B|441:76|428:59,1,45,8|0,0:0|0:0,0:0:0:0:
385,258,155097,2,0,B|409:248|421:232,1,45,8|0,0:0|0:0,0:0:0:0:
242,353,155551,2,0,B|218:343|205:327,1,45,8|0,0:0|0:0,0:0:0:0:
125,126,156006,2,0,B|104:141|95:160,1,45,8|0,0:0|0:0,0:0:0:0:
32,352,156460,6,0,B|105:354|141:287,1,135,8|8,0:0|0:0,0:0:0:0:
348,222,157142,2,0,B|313:154|237:158,1,135,8|8,0:0|0:0,0:0:0:0:
334,353,157824,2,0,B|354:343|363:320,1,45,8|0,0:0|0:0,0:0:0:0:
448,330,158051,2,0,B|465:315|468:291,1,45,8|0,0:0|0:0,0:0:0:0:
487,183,158279,6,0,B|473:134,5,45,8|8|8|8|8|8,0:0|0:0|0:0|0:0|0:0|0:0,0:0:0:0:
392,105,158960,6,0,B|374:75,7,22.5,8|8|8|8|8|8|8|8,0:0|0:0|0:0|0:0|0:0|0:0|0:0|0:0,0:0:0:0:
370,177,159415,6,0,B|348:172|333:152,1,45,8|8,0:0|0:0,0:0:0:0:
252,249,159642,2,0,B|271:236|279:213,1,45,8|8,0:0|0:0,0:0:0:0:
357,320,159870,2,0,B|335:310|324:289,1,45,8|8,0:0|0:0,0:0:0:0:
248,353,160097,1,2,0:0:0:0:
256,192,160210,12,8,161460,0:0:0:0:
256,192,161688,5,0,0:0:0:0:
356,319,161915,6,0,B|405:301|408:253,1,90,4|4,0:0|0:0,0:0:0:0:
469,199,162256,2,0,L|434:158,1,45,0|10,0:0|0:0,0:0:0:0:
227,264,162597,2,0,B|179:241|180:193,1,90,4|2,0:0|0:0,0:0:0:0:
238,62,163051,1,4,0:0:0:0:
238,62,163279,1,10,0:0:0:0:
110,258,163506,2,0,B|58:243|51:196,1,90,4|2,0:0|0:0,0:0:0:0:
236,340,163960,2,0,B|288:329|300:283,1,90,4|10,0:0|0:0,0:0:0:0:
289,131,164415,5,4,0:0:0:0:
420,226,164642,1,2,0:0:0:0:
415,64,164870,1,4,0:0:0:0:
420,226,165097,1,10,0:0:0:0:
326,52,165324,1,4,0:0:0:0:
240,230,165551,6,0,B|191:212|188:164,1,90,2|4,0:0|0:0,0:0:0:0:
196,124,165892,1,0,0:0:0:0:
217,89,166006,1,10,0:0:0:0:
278,296,166233,2,0,B|236:320|194:290,1,90,4|2,0:0|0:0,0:0:0:0:
392,182,166688,2,0,B|362:137|317:143,1,90,4|10,0:0|0:0,0:0:0:0:
418,354,167142,2,0,B|471:346|485:302,1,90,4|2,0:0|0:0,0:0:0:0:
439,127,167597,5,4,0:0:0:0:
462,94,167710,1,0,0:0:0:0:
497,73,167824,1,10,0:0:0:0:
321,164,168051,5,4,0:0:0:0:
286,143,168165,1,0,0:0:0:0:
261,111,168279,1,2,0:0:0:0:
306,322,168506,5,4,0:0:0:0:
346,319,168620,1,0,0:0:0:0:
381,299,168733,2,0,B|419:262|406:218,1,90,10|4,0:0|0:0,0:0:0:0:
191,85,169188,6,0,B|213:39|260:37,1,90,2|4,0:0|0:0,0:0:0:0:
382,144,169642,1,10,0:0:0:0:
243,310,169870,2,0,P|178:283|142:181,1,180,4|4,0:0|0:0,0:0:0:0:
143,145,170438,1,0,0:0:0:0:
166,112,170551,1,10,0:0:0:0:
295,154,170779,1,4,0:0:0:0:
88,92,171006,6,0,B|100:44|150:32,1,90,10|4,0:0|0:0,0:0:0:0:
256,198,171460,1,10,0:0:0:0:
115,351,171688,2,0,P|55:313|37:206,1,180,4|4,0:0|0:0,0:0:0:0:
143,145,172256,2,0,B|139:169|124:185,1,45,0|10,0:0|0:0,0:0:0:0:
211,337,172597,2,0,B|222:358|242:368,1,45,4|0,0:0|0:0,0:0:0:0:
328,339,172824,6,0,B|366:305|355:255,1,90,2|4,0:0|0:0,0:0:0:0:
256,129,173279,1,10,0:0:0:0:
432,220,173506,2,8,B|470:189|465:139,1,90,4|2,0:0|0:0,0:0:0:0:
408,368,173960,2,0,B|359:378|327:338,1,90,4|10,0:0|0:0,0:0:0:0:
330,158,174415,1,4,0:0:0:0:
221,334,174642,6,0,B|172:340|143:298,1,90,2|8,0:0|0:0,0:0:0:0:
139,204,174983,2,0,B|88:201|64:244,1,90,2|0,0:0|0:0,0:0:0:0:
212,260,175324,2,0,B|245:223|226:176,1,90,2|8,0:0|0:0,0:0:0:0:
213,138,175665,1,2,0:0:0:0:
189,105,175779,1,0,0:0:0:0:
395,194,176006,2,0,B|407:173|405:150,1,45,4|0,0:0|0:0,0:0:0:0:
451,249,176233,2,0,B|431:266|412:270,1,45,2|0,0:0|0:0,0:0:0:0:
354,345,176460,6,0,B|306:332|294:284,1,90,4|4,0:0|0:0,0:0:0:0:
288,244,176801,1,0,0:0:0:0:
299,205,176915,1,10,0:0:0:0:
115,111,177142,2,0,B|146:72|196:82,1,90,4|2,0:0|0:0,0:0:0:0:
338,138,177597,1,4,0:0:0:0:
338,138,177824,1,10,0:0:0:0:
229,314,178051,2,0,B|179:303|163:258,1,90,4|2,0:0|0:0,0:0:0:0:
19,109,178506,2,0,B|53:71|99:80,1,90,4|10,0:0|0:0,0:0:0:0:
256,121,178960,5,4,0:0:0:0:
194,251,179188,1,2,0:0:0:0:
319,354,179415,1,4,0:0:0:0:
192,354,179642,1,10,0:0:0:0:
318,252,179870,1,4,0:0:0:0:
131,302,180097,6,0,B|92:271|102:221,1,90,2|4,0:0|0:0,0:0:0:0:
256,304,180551,1,10,0:0:0:0:
252,96,180779,2,0,B|339:64,1,90,4|2,0:0|0:0,0:0:0:0:
398,281,181233,2,0,B|349:290|318:251,1,90,4|10,0:0|0:0,0:0:0:0:
140,99,181688,2,0,B|171:60|221:70,1,90,4|2,0:0|0:0,0:0:0:0:
218,232,182142,6,0,L|186:263,2,45,4|0|10,0:0|0:0|0:0,0:0:0:0:
388,206,182597,5,4,0:0:0:0:
416,177,182710,1,0,0:0:0:0:
426,138,182823,2,0,B|408:90|357:87,1,90,2|4,0:0|0:0,0:0:0:0:
285,197,183165,5,0,0:0:0:0:
311,166,183279,2,0,B|306:118|258:100,1,90,10|4,0:0|0:0,0:0:0:0:
389,315,183733,6,0,B|438:316|462:272,1,90,2|4,0:0|0:0,0:0:0:0:
454,118,184188,1,10,0:0:0:0:
287,294,184415,2,0,B|237:279|203:242|193:194|209:153,1,180,4|4,0:0|0:0,0:0:0:0:
218,115,184983,1,0,0:0:0:0:
244,84,185096,1,10,0:0:0:0:
385,115,185324,1,4,0:0:0:0:
374,276,185551,5,2,0:0:0:0:
215,244,185779,1,4,0:0:0:0:
310,124,186006,1,10,0:0:0:0:
197,349,186233,2,0,B|148:331|116:293|109:245|128:203,1,180,4|4,0:0|0:0,0:0:0:0:
97,120,186801,2,0,L|137:98,1,45,0|10,0:0|0:0,0:0:0:0:
336,203,187142,2,0,B|292:179,1,45,4|0,0:0|0:0,0:0:0:0:
375,276,187370,6,0,B|416:257|420:204,1,90,2|4,0:0|0:0,0:0:0:0:
494,153,187710,2,0,L|464:120,1,45,0|10,0:0|0:0,0:0:0:0:
191,55,188051,2,0,B|280:32,1,90,4|0,0:0|0:0,0:0:0:0:
354,302,188506,2,0,B|290:236,1,90,4|8,0:0|0:0,0:0:0:0:
34,344,188960,2,0,B|76:351|120:329|149:289|155:238,1,180,4|4,0:0|0:0,0:0:0:0:
362,73,189642,6,0,B|326:77|301:51,1,67.5000025749208,8|4,0:0|0:0,0:0:0:0:
178,157,190097,2,0,B|213:161|238:135,1,67.5000025749208,0|4,0:0|0:0,0:0:0:0:
343,249,190551,2,0,B|307:253|282:227,1,67.5000025749208,10|0,0:0|0:0,0:0:0:0:
121,345,191006,6,0,B|72:341|51:295,1,90,4|4,0:0|0:0,0:0:0:0:
36,258,191347,1,0,0:0:0:0:
30,218,191460,1,10,0:0:0:0:
54,67,191688,2,0,B|89:30|136:43,1,90,4|2,0:0|0:0,0:0:0:0:
130,160,192029,1,0,0:0:0:0:
163,174,192142,2,0,B|207:152|210:101,1,90,4|10,0:0|0:0,0:0:0:0:
395,62,192597,6,0,B|303:35,1,90,4|2,0:0|0:0,0:0:0:0:
310,234,193051,2,0,B|360:234|384:190,1,90,4|10,0:0|0:0,0:0:0:0:
228,328,193506,2,0,B|143:288,1,90,4|2,0:0|0:0,0:0:0:0:
32,107,193960,2,0,B|56:63|106:63,1,90,4|10,0:0|0:0,0:0:0:0:
239,222,194415,6,0,B|190:229|159:192,1,90,4|2,0:0|0:0,0:0:0:0:
363,307,194870,2,0,B|411:298|428:252,1,90,4|10,0:0|0:0,0:0:0:0:
321,85,195324,2,0,B|413:61,1,90,4|2,0:0|0:0,0:0:0:0:
184,215,195779,2,0,B|145:180|154:132,1,90,4|10,0:0|0:0,0:0:0:0:
256,34,196233,1,4,0:0:0:0:
361,180,196460,6,0,B|406:161|416:112,1,90,2|8,0:0|0:0,0:0:0:0:
413,73,196801,1,2,0:0:0:0:
394,37,196915,1,0,0:0:0:0:
240,110,197142,1,4,0:0:0:0:
122,222,197370,1,8,0:0:0:0:
95,192,197483,1,2,0:0:0:0:
84,153,197597,1,4,0:0:0:0:
177,285,197824,2,0,B|201:284|220:271,1,45,2|0,0:0|0:0,0:0:0:0:
293,198,198051,2,0,B|268:190|254:176,1,45,2|0,0:0|0:0,0:0:0:0:
355,268,198279,6,0,B|396:237|386:190,1,90,4|4,0:0|0:0,0:0:0:0:
372,151,198620,1,0,0:0:0:0:
345,121,198733,1,10,0:0:0:0:
228,37,198960,1,4,0:0:0:0:
130,167,199188,1,2,0:0:0:0:
130,167,199301,1,0,0:0:0:0:
130,167,199415,2,0,B|82:144|83:96,1,90,4|10,0:0|0:0,0:0:0:0:
195,272,199870,6,0,B|286:236,1,90,4|2,0:0|0:0,0:0:0:0:
472,165,200324,2,0,B|419:160|403:114,1,90,4|10,0:0|0:0,0:0:0:0:
418,322,200779,2,0,B|470:317|486:271,1,90,4|2,0:0|0:0,0:0:0:0:
481,83,201233,1,4,0:0:0:0:
481,83,201347,1,0,0:0:0:0:
481,83,201460,1,10,0:0:0:0:
354,224,201688,1,4,0:0:0:0:
324,251,201801,1,0,0:0:0:0:
286,266,201915,6,0,B|238:243|239:195,1,90,4|4,0:0|0:0,0:0:0:0:
236,155,202256,1,0,0:0:0:0:
255,119,202370,1,10,0:0:0:0:
53,74,202597,2,0,B|142:55,1,90,4|2,0:0|0:0,0:0:0:0:
181,48,202938,1,0,0:0:0:0:
220,38,203051,1,4,0:0:0:0:
313,182,203279,1,10,0:0:0:0:
185,321,203506,2,0,B|137:313|123:262,1,90,4|2,0:0|0:0,0:0:0:0:
256,93,204188,5,10,0:0:0:0:
330,314,204642,1,2,0:0:0:0:
162,125,205097,1,4,0:0:0:0:
403,246,205551,1,4,0:0:0:0:
256,192,205665,12,0,209188,0:0:0:0:
