osu file format v12

[General]
AudioFilename: 02. FARM RECORDS - (P feat.).mp3
AudioLeadIn: 0
PreviewTime: -1
Countdown: 1
SampleSet: Normal
StackLeniency: 0.7
Mode: 0
LetterboxInBreaks: 1
WidescreenStoryboard: 0

[Editor]
DistanceSpacing: 2
BeatDivisor: 8
GridSize: 4
TimelineZoom: 5.15

[Metadata]
Title:Flashback Sound
TitleUnicode:フラッシュバックサウンド
Artist:kuwagata-P
ArtistUnicode:クワガタP
Creator:Neiru95
Version:N
Source:
Tags:Vocaloid Hatsune Miku Neiru
BeatmapID:395432
BeatmapSetID:162034

[Difficulty]
HPDrainRate:5
CircleSize:4
OverallDifficulty:4
ApproachRate:9
SliderMultiplier:2.2
SliderTickRate:1

[Events]
//Background and Video events
0,0,"Konachan.com - 104712 clouds guitar hatsune_miku instrument long_hair twintails vocaloid.jpg",0,0
//Break Periods
2,82124,87524
2,117324,126124
//Storyboard Layer 0 (Background)
//Storyboard Layer 1 (Fail)
//Storyboard Layer 2 (Pass)
//Storyboard Layer 3 (Foreground)
//Storyboard Sound Samples
//Background Colour Transformations
3,100,163,162,255

[TimingPoints]
5124,400,4,1,0,100,1,0
7924,-200,4,1,0,100,0,0
8324,-66.6666666666667,4,1,0,100,0,0
11524,-100,4,1,0,100,0,0
17924,-133.333333333333,4,1,0,100,0,0
23324,-100,4,1,0,100,0,0
30524,-66.6666666666667,4,1,0,100,0,0
32924,-100,4,1,0,100,0,0
34324,-66.6666666666667,4,1,0,100,0,0
37924,-100,4,1,0,100,0,0
53124,-133.333333333333,4,1,0,100,0,0
54524,-66.6666666666667,4,1,0,100,0,0
59524,-100,4,1,0,100,0,0
71324,-66.6666666666667,4,1,0,100,0,0
75524,-66.6666666666667,4,1,0,100,0,0
78724,-100,4,1,0,100,0,0
88324,-133.333333333333,4,1,0,100,0,0
90724,-100,4,1,0,100,0,0
94724,-66.6666666666667,4,1,0,100,0,0
98524,-200,4,1,0,100,0,0
101124,-66.6666666666667,4,1,0,100,0,0
110724,-133.333333333333,4,1,0,100,0,0
113924,-66.6666666666667,4,1,0,100,0,0
130124,-66.6666666666667,4,1,0,100,0,0
133124,-100,4,1,0,100,0,0
142724,-66.6666666666667,4,1,0,100,0,0

[HitObjects]
256,192,624,12,0,4324,0:0:0:0:
136,192,5124,5,0,0:0:0:0:
256,288,5324,1,0,0:0:0:0:
360,192,5524,1,0,0:0:0:0:
256,284,5724,1,0,0:0:0:0:
136,192,5924,1,0,0:0:0:0:
256,192,6124,1,0,0:0:0:0:
136,192,6324,1,0,0:0:0:0:
340,256,6524,1,0,0:0:0:0:
148,312,6724,1,0,0:0:0:0:
136,192,6924,1,0,0:0:0:0:
324,108,7124,1,0,0:0:0:0:
224,328,7324,1,0,0:0:0:0:
252,92,7524,1,0,0:0:0:0:
296,320,7724,1,0,0:0:0:0:
148,96,7924,2,0,L|196:152,1,67.5
364,268,8324,2,0,P|392:220|400:140,1,135.000005149842
152,284,8724,2,0,P|112:244|96:152,1,135.000005149842
248,312,9124,1,0,0:0:0:0:
360,52,9324,2,0,L|280:164,1,135.000005149842
116,64,9724,2,0,L|240:176,1,135.000005149842
376,232,10124,1,0,0:0:0:0:
260,60,10324,1,0,0:0:0:0:
104,152,10524,1,0,0:0:0:0:
216,320,10724,1,0,0:0:0:0:
136,268,11124,1,0,0:0:0:0:
296,304,11524,2,0,L|376:260,1,90
320,176,11924,1,0,0:0:0:0:
432,108,12124,1,0,0:0:0:0:
332,64,12324,1,0,0:0:0:0:
216,40,12524,2,0,P|156:64|136:88,1,90
192,152,12924,1,0,0:0:0:0:
72,232,13124,1,0,0:0:0:0:
176,300,13324,1,0,0:0:0:0:
152,224,13524,1,0,0:0:0:0:
340,148,13724,1,0,0:0:0:0:
152,224,13924,1,0,0:0:0:0:
312,272,14124,1,0,0:0:0:0:
188,116,14324,1,0,0:0:0:0:
312,272,14524,1,0,0:0:0:0:
100,128,14724,2,0,B|112:92|136:68|164:56,1,90
224,308,15124,2,0,P|164:288|136:252,1,90
376,152,15524,2,0,P|336:104|304:88,1,90
304,308,15924,2,0,P|360:268|372:236,1,90
344,160,16324,1,0,0:0:0:0:
152,240,16524,1,0,0:0:0:0:
344,160,16724,1,0,0:0:0:0:
256,188,16924,1,0,0:0:0:0:
256,188,17124,1,0,0:0:0:0:
256,188,17324,1,0,0:0:0:0:
256,188,17524,1,0,0:0:0:0:
256,188,17724,1,0,0:0:0:0:
380,88,17924,1,0,0:0:0:0:
288,88,18124,1,0,0:0:0:0:
200,112,18324,2,0,P|176:120|128:148,1,67.5000025749208
168,232,18724,1,0,0:0:0:0:
232,280,18924,1,0,0:0:0:0:
312,256,19124,1,0,0:0:0:0:
368,208,19324,2,0,P|376:180|368:140,1,67.5000025749208
324,88,19724,1,0,0:0:0:0:
312,256,19924,1,0,0:0:0:0:
324,88,20124,1,0,0:0:0:0:
324,88,20324,1,0,0:0:0:0:
324,88,20524,1,0,0:0:0:0:
324,88,20624,1,0,0:0:0:0:
324,88,20724,1,0,0:0:0:0:
324,88,20924,1,0,0:0:0:0:
264,200,21124,1,0,0:0:0:0:
112,156,21324,1,0,0:0:0:0:
176,288,21524,1,0,0:0:0:0:
304,304,21724,1,0,0:0:0:0:
176,288,21924,1,0,0:0:0:0:
368,200,22124,1,0,0:0:0:0:
304,304,22324,1,0,0:0:0:0:
272,56,22524,2,0,L|376:96,2,101.250003862381
252,188,23324,1,0,0:0:0:0:
172,184,23524,1,0,0:0:0:0:
156,92,23724,2,0,B|128:96|80:148|80:148|84:132,1,112.5
76,92,24124,1,0,0:0:0:0:
256,48,24324,1,0,0:0:0:0:
380,120,24524,1,0,0:0:0:0:
376,276,24724,1,0,0:0:0:0:
472,196,24924,1,0,0:0:0:0:
284,240,25124,1,0,0:0:0:0:
176,132,25324,1,0,0:0:0:0:
116,272,25524,1,0,0:0:0:0:
60,184,25724,1,0,0:0:0:0:
244,240,25924,1,0,0:0:0:0:
256,168,26124,2,0,L|256:72,1,90
256,48,26424,1,0,0:0:0:0:
256,48,26524,1,0,0:0:0:0:
256,48,26724,1,0,0:0:0:0:
352,100,26924,1,0,0:0:0:0:
176,132,27124,1,0,0:0:0:0:
384,212,27324,1,0,0:0:0:0:
136,320,27724,1,0,0:0:0:0:
244,332,27924,1,0,0:0:0:0:
340,324,28124,1,0,0:0:0:0:
80,248,28324,1,0,0:0:0:0:
404,240,28524,1,0,0:0:0:0:
368,168,28724,1,0,0:0:0:0:
368,168,28874,1,0,0:0:0:0:
368,168,29024,2,0,P|344:128|264:96,1,135
256,200,29524,1,0,0:0:0:0:
256,200,29724,1,0,0:0:0:0:
256,200,29924,1,0,0:0:0:0:
256,200,30024,1,0,0:0:0:0:
256,200,30124,1,0,0:0:0:0:
256,200,30324,1,0,0:0:0:0:
256,200,30524,1,0,0:0:0:0:
176,136,30724,2,0,L|60:64,1,135.000005149842
300,100,31124,1,0,0:0:0:0:
144,240,31324,1,0,0:0:0:0:
168,48,31524,1,0,0:0:0:0:
144,240,31724,1,0,0:0:0:0:
300,100,31924,1,0,0:0:0:0:
336,212,32124,2,0,P|372:240|464:292,1,135.000005149842
208,328,32524,1,0,0:0:0:0:
96,212,32724,1,0,0:0:0:0:
248,192,32924,2,0,P|288:180|332:152,1,90
136,152,33324,1,0,0:0:0:0:
276,64,33524,1,0,0:0:0:0:
320,256,33724,2,0,P|380:240|408:200,1,112.5
396,168,34324,2,0,P|376:124|280:80,1,135.000005149842
144,220,34724,2,0,B|156:260|240:300|240:300|248:304,1,135.000005149842
168,108,35124,1,0,0:0:0:0:
332,276,35324,1,0,0:0:0:0:
252,76,35524,1,0,0:0:0:0:
124,32,35724,1,0,0:0:0:0:
268,144,35924,1,0,0:0:0:0:
196,304,36124,1,0,0:0:0:0:
356,188,36324,1,0,0:0:0:0:
408,72,36524,1,0,0:0:0:0:
316,192,36724,1,0,0:0:0:0:
420,308,36924,1,0,0:0:0:0:
316,192,37124,1,0,0:0:0:0:
316,192,37324,1,0,0:0:0:0:
200,196,37524,1,0,0:0:0:0:
200,196,37724,1,0,0:0:0:0:
456,328,37924,2,0,P|404:264|392:256,1,90
256,284,38324,1,0,0:0:0:0:
256,68,38524,1,0,0:0:0:0:
88,192,38724,1,0,0:0:0:0:
404,192,38924,1,0,0:0:0:0:
88,192,39124,1,0,0:0:0:0:
184,248,39324,1,0,0:0:0:0:
312,140,39524,1,0,0:0:0:0:
360,292,39724,1,0,0:0:0:0:
312,140,39924,1,0,0:0:0:0:
268,284,40124,1,0,0:0:0:0:
208,144,40324,1,0,0:0:0:0:
256,208,40524,1,0,0:0:0:0:
140,240,40724,1,0,0:0:0:0:
296,300,40924,1,0,0:0:0:0:
400,184,41124,1,0,0:0:0:0:
252,56,41324,1,0,0:0:0:0:
132,176,41524,1,0,0:0:0:0:
256,136,41724,2,0,B|284:148|300:180|308:212|280:232|248:232|224:224|220:216|220:216|208:196,1,180
210,199,42324,1,0,0:0:0:0:
84,100,42524,1,0,0:0:0:0:
144,92,42724,1,0,0:0:0:0:
244,88,42924,1,0,0:0:0:0:
336,208,43124,2,0,P|368:184|368:136,1,90
368,137,43424,1,0,0:0:0:0:
368,137,43524,1,0,0:0:0:0:
256,292,43724,1,0,0:0:0:0:
136,136,43924,1,0,0:0:0:0:
256,292,44124,1,0,0:0:0:0:
368,137,44324,1,0,0:0:0:0:
156,240,44524,1,0,0:0:0:0:
256,64,44724,1,0,0:0:0:0:
356,248,44924,1,0,0:0:0:0:
256,184,45324,1,0,0:0:0:0:
256,184,45724,1,0,0:0:0:0:
256,184,46124,1,0,0:0:0:0:
192,248,46324,1,0,0:0:0:0:
320,128,46524,1,0,0:0:0:0:
140,212,46724,1,0,0:0:0:0:
384,152,46924,1,0,0:0:0:0:
76,188,47124,1,0,0:0:0:0:
436,192,47324,1,0,0:0:0:0:
256,184,47524,1,0,0:0:0:0:
204,132,47724,1,0,0:0:0:0:
316,228,47924,1,0,0:0:0:0:
192,52,48124,2,0,P|240:52|272:84,1,90
360,84,48524,1,0,0:0:0:0:
384,244,48724,1,0,0:0:0:0:
192,204,48924,1,0,0:0:0:0:
176,76,49124,1,0,0:0:0:0:
200,352,49324,1,0,0:0:0:0:
200,352,49524,2,0,P|136:336|116:312,1,90
264,88,49924,2,0,P|304:92|324:140,1,90
112,176,50324,1,0,0:0:0:0:
300,232,50524,1,0,0:0:0:0:
152,108,50724,1,0,0:0:0:0:
184,256,50924,1,0,0:0:0:0:
224,164,51124,1,0,0:0:0:0:
336,104,51274,2,0,P|364:120|416:184,1,112.5
196,96,51724,2,0,P|144:136|124:168,1,90
208,328,52124,1,0,0:0:0:0:
320,280,52324,1,0,0:0:0:0:
148,224,52524,1,0,0:0:0:0:
360,188,52724,1,0,0:0:0:0:
168,280,52924,1,0,0:0:0:0:
416,88,53124,2,0,B|380:72|320:68|272:72,1,135.000005149842
248,72,53724,1,0,0:0:0:0:
248,72,53924,1,0,0:0:0:0:
296,144,54124,1,0,0:0:0:0:
160,68,54324,1,0,0:0:0:0:
180,228,54524,2,0,B|148:272|92:336|92:336|88:336,1,135.000005149842
180,228,54924,1,0,0:0:0:0:
312,308,55124,1,0,0:0:0:0:
392,232,55324,1,0,0:0:0:0:
424,128,55524,1,0,0:0:0:0:
328,156,55724,1,0,0:0:0:0:
328,156,55924,1,0,0:0:0:0:
328,156,56074,1,0,0:0:0:0:
176,112,56324,2,0,L|40:80,1,135.000005149842
20,204,56724,2,0,L|152:240,1,135.000005149842
256,180,57124,1,0,0:0:0:0:
352,296,57324,1,0,0:0:0:0:
432,48,57524,2,0,L|328:144,1,135.000005149842
432,328,57924,2,0,L|304:244,1,135.000005149842
248,336,58324,1,0,0:0:0:0:
88,160,58524,2,0,P|140:112|216:152,2,135.000005149842
80,224,59124,1,0,0:0:0:0:
200,48,59324,1,0,0:0:0:0:
352,176,59524,2,0,B|316:148|248:132|236:136|236:136|196:148|172:168,1,180
248,256,60124,1,0,0:0:0:0:
304,76,60324,1,0,0:0:0:0:
304,76,60524,1,0,0:0:0:0:
304,76,60724,1,0,0:0:0:0:
408,220,60924,2,0,P|388:280|356:292,1,90
452,88,61324,1,0,0:0:0:0:
256,228,61524,1,0,0:0:0:0:
56,84,61724,1,0,0:0:0:0:
172,264,62124,1,0,0:0:0:0:
256,144,62324,1,0,0:0:0:0:
336,264,62474,1,0,0:0:0:0:
48,312,62724,1,0,0:0:0:0:
160,44,62924,1,0,0:0:0:0:
280,324,63124,1,0,0:0:0:0:
376,40,63324,1,0,0:0:0:0:
476,324,63524,1,0,0:0:0:0:
256,232,63724,1,0,0:0:0:0:
400,192,63924,1,0,0:0:0:0:
136,192,64124,1,0,0:0:0:0:
272,72,64324,1,0,0:0:0:0:
268,288,64524,2,0,P|304:264|328:204,1,90
336,128,64924,1,0,0:0:0:0:
192,56,65124,1,0,0:0:0:0:
232,204,65324,1,0,0:0:0:0:
192,56,65524,1,0,0:0:0:0:
96,208,65724,1,0,0:0:0:0:
96,208,65824,1,0,0:0:0:0:
96,208,65924,1,0,0:0:0:0:
228,320,66324,1,0,0:0:0:0:
416,216,66524,1,0,0:0:0:0:
292,72,66774,1,0,0:0:0:0:
96,208,66974,1,0,0:0:0:0:
228,320,67124,1,0,0:0:0:0:
416,216,67274,1,0,0:0:0:0:
416,216,67424,1,0,0:0:0:0:
376,200,67524,1,0,0:0:0:0:
340,180,67624,1,0,0:0:0:0:
300,164,67724,1,0,0:0:0:0:
264,144,67824,1,0,0:0:0:0:
232,128,67924,1,0,0:0:0:0:
192,112,68024,1,0,0:0:0:0:
144,112,68124,1,0,0:0:0:0:
112,132,68224,1,0,0:0:0:0:
92,164,68324,1,0,0:0:0:0:
96,208,68424,1,0,0:0:0:0:
96,208,68524,1,0,0:0:0:0:
132,232,68624,1,0,0:0:0:0:
164,252,68724,1,0,0:0:0:0:
200,272,68824,1,0,0:0:0:0:
260,292,68924,1,0,0:0:0:0:
256,64,69124,1,0,0:0:0:0:
260,292,69324,1,0,0:0:0:0:
324,264,69524,1,0,0:0:0:0:
204,116,69674,1,0,0:0:0:0:
324,188,69824,1,0,0:0:0:0:
208,188,69974,1,0,0:0:0:0:
200,272,70324,1,0,0:0:0:0:
296,120,70524,1,0,0:0:0:0:
84,180,70724,1,0,0:0:0:0:
276,328,70924,1,0,0:0:0:0:
140,68,71124,1,0,0:0:0:0:
308,232,71324,2,0,L|388:340,1,135.000005149842
196,236,71724,2,0,L|96:332,1,135.000005149842
112,200,72124,1,0,0:0:0:0:
376,188,72324,1,0,0:0:0:0:
188,192,72524,1,0,0:0:0:0:
296,192,72724,1,0,0:0:0:0:
188,192,72924,1,0,0:0:0:0:
376,188,73124,1,0,0:0:0:0:
116,196,73324,1,0,0:0:0:0:
352,44,73524,1,0,0:0:0:0:
152,304,73724,1,0,0:0:0:0:
364,300,73924,1,0,0:0:0:0:
148,48,74124,1,0,0:0:0:0:
444,204,74324,1,0,0:0:0:0:
188,192,74524,1,0,0:0:0:0:
428,88,74724,1,0,0:0:0:0:
336,340,74924,1,0,0:0:0:0:
248,48,75124,1,0,0:0:0:0:
224,312,75324,1,0,0:0:0:0:
140,168,75524,2,0,P|180:112|244:104,1,135.000005149842
400,264,75924,2,0,P|420:232|380:148,1,135.000005149842
248,352,76324,2,0,P|160:336|148:296,1,135.000005149842
260,192,76724,2,0,L|400:188,1,135.000005149842
80,192,77124,2,0,L|236:196,1,135.000005149842
236,72,77524,1,0,0:0:0:0:
208,188,77724,2,0,P|304:196|356:188,2,135.000005149842
168,280,78324,1,0,0:0:0:0:
168,280,78524,1,0,0:0:0:0:
332,288,78724,2,0,P|352:260|416:240,1,90
404,152,79124,1,0,0:0:0:0:
336,192,79324,1,0,0:0:0:0:
272,148,79524,1,0,0:0:0:0:
352,48,79724,1,0,0:0:0:0:
424,292,79924,1,0,0:0:0:0:
264,208,80124,2,0,P|224:232|172:208,1,90
156,104,80524,1,0,0:0:0:0:
160,104,80724,1,0,0:0:0:0:
244,312,80924,1,0,0:0:0:0:
244,308,81124,1,0,0:0:0:0:
360,100,81324,1,0,0:0:0:0:
368,100,81524,1,0,0:0:0:0:
120,280,81724,1,0,0:0:0:0:
120,280,81924,1,0,0:0:0:0:
156,256,88124,5,0,0:0:0:0:
72,288,88324,1,0,0:0:0:0:
36,212,88524,2,0,P|32:168|48:136,1,67.5000025749208
112,180,88924,1,0,0:0:0:0:
224,216,89124,1,0,0:0:0:0:
276,112,89324,1,0,0:0:0:0:
340,196,89524,2,0,P|372:224|368:260,1,67.5000025749208
132,264,89924,1,0,0:0:0:0:
268,180,90124,1,0,0:0:0:0:
232,296,90324,1,0,0:0:0:0:
372,280,90524,1,0,0:0:0:0:
144,160,90724,2,0,P|152:128|216:92,1,90
384,92,91324,1,0,0:0:0:0:
344,176,91524,1,0,0:0:0:0:
276,272,91724,1,0,0:0:0:0:
156,320,91924,1,0,0:0:0:0:
212,84,92124,2,0,P|224:136|208:172,1,90
96,296,92524,1,0,0:0:0:0:
204,64,92724,1,0,0:0:0:0:
264,236,92924,1,0,0:0:0:0:
56,128,93124,1,0,0:0:0:0:
216,96,93324,1,0,0:0:0:0:
96,296,93524,1,0,0:0:0:0:
344,152,93724,1,0,0:0:0:0:
392,128,93924,1,0,0:0:0:0:
436,172,94124,1,0,0:0:0:0:
344,276,94324,1,0,0:0:0:0:
472,56,94524,1,0,0:0:0:0:
512,284,94724,2,0,P|436:288|364:304,1,135.000005149842
44,104,95124,2,0,B|156:112|172:100|172:100|184:96,1,135.000005149842
496,80,95524,2,0,P|384:100|352:92,1,135.000005149842
140,272,95924,1,0,0:0:0:0:
256,128,96124,1,0,0:0:0:0:
344,276,96324,1,0,0:0:0:0:
260,236,96524,1,0,0:0:0:0:
260,236,96624,1,0,0:0:0:0:
260,236,96724,1,0,0:0:0:0:
360,192,96924,2,0,B|328:176|304:180|304:180|240:176|240:176|212:152,1,135.000005149842
88,124,97324,1,0,0:0:0:0:
32,296,97524,1,0,0:0:0:0:
88,124,97724,1,0,0:0:0:0:
152,232,97924,1,0,0:0:0:0:
256,64,98124,1,0,0:0:0:0:
376,140,98324,1,0,0:0:0:0:
164,88,98524,2,0,L|200:128,1,45
280,212,98924,1,0,0:0:0:0:
56,104,99324,1,0,0:0:0:0:
120,240,100124,1,0,0:0:0:0:
208,252,100524,1,0,0:0:0:0:
288,240,100724,1,0,0:0:0:0:
356,72,100924,1,0,0:0:0:0:
200,128,101124,2,0,P|128:120|72:88,1,135.000005149842
368,240,101524,2,0,P|392:280|472:320,1,135.000005149842
124,280,101924,1,0,0:0:0:0:
256,88,102124,1,0,0:0:0:0:
392,284,102324,1,0,0:0:0:0:
136,152,102524,1,0,0:0:0:0:
360,132,102724,1,0,0:0:0:0:
264,332,102924,1,0,0:0:0:0:
256,224,103124,1,0,0:0:0:0:
256,224,103324,1,0,0:0:0:0:
56,252,103924,2,0,P|136:248|184:212,1,135.000005149842
260,192,104324,1,0,0:0:0:0:
260,192,104724,1,0,0:0:0:0:
304,224,104924,1,0,0:0:0:0:
216,160,105124,1,0,0:0:0:0:
360,184,105324,1,0,0:0:0:0:
164,200,105524,1,0,0:0:0:0:
400,124,105724,1,0,0:0:0:0:
112,240,105924,1,0,0:0:0:0:
328,144,106124,1,0,0:0:0:0:
184,256,106324,1,0,0:0:0:0:
272,192,106524,1,0,0:0:0:0:
224,228,106724,1,0,0:0:0:0:
268,232,106924,1,0,0:0:0:0:
268,232,107124,1,0,0:0:0:0:
268,232,107224,1,0,0:0:0:0:
268,232,107324,1,0,0:0:0:0:
432,304,107524,2,0,P|456:272|472:180,1,135.000005149842
332,80,107924,2,0,P|276:68|200:84,1,135.000005149842
352,252,108324,1,0,0:0:0:0:
244,340,108524,1,0,0:0:0:0:
244,108,108724,1,0,0:0:0:0:
100,208,108924,1,0,0:0:0:0:
348,180,109124,1,0,0:0:0:0:
128,88,109324,1,0,0:0:0:0:
228,264,109724,1,0,0:0:0:0:
308,304,110124,1,0,0:0:0:0:
308,304,110324,1,0,0:0:0:0:
88,304,110524,1,0,0:0:0:0:
32,208,110724,2,0,P|16:188|32:76,1,135.000005149842
132,120,111324,1,0,0:0:0:0:
244,56,111524,1,0,0:0:0:0:
292,176,111724,1,0,0:0:0:0:
172,228,111924,1,0,0:0:0:0:
244,56,112124,1,0,0:0:0:0:
336,256,112324,1,0,0:0:0:0:
140,264,112524,1,0,0:0:0:0:
244,56,112724,1,0,0:0:0:0:
244,56,112924,1,0,0:0:0:0:
244,56,113124,1,0,0:0:0:0:
244,56,113224,1,0,0:0:0:0:
244,56,113324,1,0,0:0:0:0:
244,56,113424,1,0,0:0:0:0:
244,56,113524,1,0,0:0:0:0:
244,56,113624,1,0,0:0:0:0:
244,56,113724,1,0,0:0:0:0:
244,56,113824,1,0,0:0:0:0:
256,192,113924,12,0,117124,0:0:0:0:
256,192,126724,5,0,0:0:0:0:
176,204,126924,1,0,0:0:0:0:
332,216,127124,1,0,0:0:0:0:
176,204,127324,1,0,0:0:0:0:
208,84,127524,1,0,0:0:0:0:
240,316,127924,1,0,0:0:0:0:
400,188,128324,1,0,0:0:0:0:
304,140,128524,1,0,0:0:0:0:
352,40,128724,1,0,0:0:0:0:
192,32,128924,1,0,0:0:0:0:
40,124,129124,1,0,0:0:0:0:
40,264,129324,1,0,0:0:0:0:
188,336,129524,1,0,0:0:0:0:
376,324,129724,1,0,0:0:0:0:
424,168,129924,1,0,0:0:0:0:
284,64,130124,2,0,P|344:88|404:136,1,135.000005149842
312,312,130524,2,0,P|260:328|176:292,1,135.000005149842
88,148,130924,2,0,B|116:88|188:56|192:56,2,135.000005149842
244,300,131524,1,0,0:0:0:0:
392,308,131724,2,0,P|428:304|512:348,1,135.000005149842
144,296,132124,2,0,P|108:296|16:360,1,135.000005149842
248,116,132524,1,0,0:0:0:0:
128,224,132724,1,0,0:0:0:0:
388,128,132924,1,0,0:0:0:0:
40,152,133124,2,0,P|256:304|368:204,1,450
288,104,134324,1,0,0:0:0:0:
388,236,134524,1,0,0:0:0:0:
256,280,134724,1,0,0:0:0:0:
120,208,134924,1,0,0:0:0:0:
192,88,135124,1,0,0:0:0:0:
176,284,135324,1,0,0:0:0:0:
352,152,135524,1,0,0:0:0:0:
392,320,135724,2,0,P|336:340|292:336,1,90
212,340,136124,2,0,P|156:348|112:336,1,90
88,252,136524,1,0,0:0:0:0:
160,136,136724,1,0,0:0:0:0:
72,168,136924,2,0,B|96:176|136:160|176:188|136:176,1,90
256,216,137324,1,0,0:0:0:0:
448,132,137524,2,0,P|420:132|340:152,1,90
248,76,137924,1,0,0:0:0:0:
192,224,138124,1,0,0:0:0:0:
400,268,138324,1,0,0:0:0:0:
260,312,138524,1,0,0:0:0:0:
348,68,138724,1,0,0:0:0:0:
148,144,138924,1,0,0:0:0:0:
148,144,139024,1,0,0:0:0:0:
148,144,139124,2,0,P|204:156|256:148,1,90
148,144,139524,2,0,P|192:160|244:152,1,90
356,212,139924,1,0,0:0:0:0:
208,260,140124,2,0,P|168:268|120:304,1,90
376,288,140524,2,0,P|300:264|288:248,1,90
296,188,140824,1,0,0:0:0:0:
296,188,140924,1,0,0:0:0:0:
296,188,141124,1,0,0:0:0:0:
104,188,141524,1,0,0:0:0:0:
448,300,141924,1,0,0:0:0:0:
456,56,142324,1,0,0:0:0:0:
368,152,142524,1,0,0:0:0:0:
240,72,142724,2,0,P|188:72|88:108,1,135.000005149842
184,168,143124,2,0,P|136:168|56:212,1,135.000005149842
216,308,143524,1,0,0:0:0:0:
372,224,143724,1,0,0:0:0:0:
240,104,143924,1,0,0:0:0:0:
84,200,144124,1,0,0:0:0:0:
152,48,144324,2,0,B|228:28|348:52|416:68|416:96,1,270.000010299683
