osu file format v12

[General]
AudioFilename: Our Fighting.mp3
AudioLeadIn: 0
PreviewTime: -1
Countdown: 1
SampleSet: Normal
StackLeniency: 1
Mode: 0
LetterboxInBreaks: 1
WidescreenStoryboard: 1

[Editor]
DistanceSpacing: 1.5
BeatDivisor: 4
GridSize: 32
TimelineZoom: 1

[Metadata]
Title:Our Fighting
TitleUnicode:Our Fighting
Artist:kuna
ArtistUnicode:クーナ
Creator:c0rey
Version:Pro Arks
Source:
Tags:
BeatmapID:436758
BeatmapSetID:182057

[Difficulty]
HPDrainRate:7
CircleSize:5
OverallDifficulty:6
ApproachRate:8
SliderMultiplier:2.5
SliderTickRate:3

[Events]
//Background and Video events
0,0,"プロクーナ.jpg",0,0
//Break Periods
2,8489,10550
//Storyboard Layer 0 (Background)
//Storyboard Layer 1 (Fail)
//Storyboard Layer 2 (Pass)
//Storyboard Layer 3 (Foreground)
//Storyboard Sound Samples
//Background Colour Transformations
3,100,163,162,255

[TimingPoints]
0,370.499999999999,4,1,0,80,1,0
196784,-100,4,2,0,5,0,0
201261,-100,4,2,0,40,0,0
205930,-100,4,2,0,70,0,0
207387,-100,4,1,0,100,0,0

[Colours]
Combo1 : 168,247,221
Combo2 : 16,228,138
Combo3 : 12,89,233
Combo4 : 251,68,68
Combo5 : 251,72,72
Combo6 : 248,172,46

[HitObjects]
128,128,1204,6,4,L|256:96,1,125
384,128,1574,6,4,L|256:96,1,125
256,96,1945,6,4,L|256:192,1,62.5
256,224,2222,21,0,0:0:0:0:
256,224,2315,1,0,0:0:0:0:
256,224,2408,1,0,0:0:0:0:
256,224,2500,1,0,0:0:0:0:
256,224,2593,2,2,P|224:256|128:224,1,125
128,192,2963,1,2,0:0:0:0:
128,128,3149,1,2,0:0:0:0:
224,96,3519,2,0,P|256:96|288:128,1,62.5
288,160,3890,1,0,0:0:0:0:
288,192,4168,1,2,0:0:0:0:
288,192,4260,1,0,0:0:0:0:
288,192,4353,1,0,0:0:0:0:
224,224,4538,2,2,P|160:224|96:160,1,125
96,128,4955,1,2,0:0:0:0:
352,160,5279,5,0,0:0:0:0:
352,160,5464,1,0,0:0:0:0:
384,96,5649,1,0,0:0:0:0:
288,96,5835,1,0,0:0:0:0:
288,96,6020,2,2,P|256:96|224:128,1,62.5
224,160,6391,1,0,0:0:0:0:
224,192,6576,1,0,0:0:0:0:
224,224,6761,1,0,0:0:0:0:
288,224,7131,2,2,P|352:224|416:160,1,125
416,128,7502,1,0,0:0:0:0:
320,128,7873,1,2,0:0:0:0:
224,128,8058,1,2,0:0:0:0:
320,128,8197,2,6,L|224:128,1,62.5
256,96,11300,5,8,0:0:0:0:
256,73,11392,1,0,0:0:0:0:
320,128,11670,1,8,0:0:0:0:
340,109,11763,1,0,0:0:0:0:
320,192,12041,1,8,0:0:0:0:
335,210,12133,1,0,0:0:0:0:
256,224,12411,1,8,0:0:0:0:
255,247,12504,1,0,0:0:0:0:
192,192,12782,1,8,0:0:0:0:
175,209,12874,1,0,0:0:0:0:
192,128,13152,1,8,0:0:0:0:
175,107,13245,1,0,0:0:0:0:
256,160,13523,1,0,0:0:0:0:
256,160,13615,1,0,0:0:0:0:
256,160,13708,1,0,0:0:0:0:
256,160,13801,1,0,0:0:0:0:
256,160,13893,2,2,P|224:256|128:256,1,187.5
128,224,14588,1,8,0:0:0:0:
160,96,14912,1,0,0:0:0:0:
160,96,15005,1,0,0:0:0:0:
160,96,15097,1,0,0:0:0:0:
224,96,15283,2,0,L|352:96,1,125
352,96,15653,1,0,0:0:0:0:
352,96,15746,1,0,0:0:0:0:
352,96,15838,2,2,P|384:160|352:192,1,125
320,224,16765,6,0,L|256:160,1,62.5
192,224,17042,1,0,0:0:0:0:
192,224,17135,1,0,0:0:0:0:
192,224,17228,1,0,0:0:0:0:
96,160,17506,1,2,0:0:0:0:
160,96,17783,2,8,L|224:128,3,62.5,8|0|8|0,0:0|0:0|0:0|0:0,0:0:0:0:
224,160,18432,2,0,L|288:128,1,62.5
384,96,19080,1,2,0:0:0:0:
384,128,19173,1,2,0:0:0:0:
384,224,19636,1,0,0:0:0:0:
256,224,19821,1,2,0:0:0:0:
224,224,19914,1,0,0:0:0:0:
192,224,20006,1,0,0:0:0:0:
96,192,20192,1,2,0:0:0:0:
128,160,20284,1,0,0:0:0:0:
160,128,20377,1,0,0:0:0:0:
222,143,21211,21,0,0:0:0:0:
222,143,21303,1,0,0:0:0:0:
222,143,21396,2,0,L|288:96,1,62.5
288,96,21859,1,10,0:0:0:0:
384,96,22229,2,0,L|384:224,1,125
384,224,22600,1,10,0:0:0:0:
224,288,22878,2,0,L|160:288,1,62.5
160,288,23063,2,0,L|160:224,1,62.5
160,224,23248,2,8,L|224:160,1,62.5,8|0,0:0|0:0,0:0:0:0:
204,179,23665,1,0,0:0:0:0:
204,179,23850,1,0,0:0:0:0:
204,179,24036,1,8,0:0:0:0:
192,96,24314,5,2,0:0:0:0:
192,96,24452,1,0,0:0:0:0:
320,96,24591,1,2,0:0:0:0:
320,96,24730,1,0,0:0:0:0:
256,160,24916,1,2,0:0:0:0:
256,160,25008,1,0,0:0:0:0:
192,160,25286,1,0,0:0:0:0:
192,160,25379,1,0,0:0:0:0:
192,160,25471,2,2,B|192:256|256:256|320:256,1,187.5
320,256,25934,1,8,0:0:0:0:
320,256,26027,1,0,0:0:0:0:
320,256,26120,2,2,L|320:128,1,125
288,96,26490,2,2,L|128:96,1,125
163,96,26861,1,8,0:0:0:0:
163,96,26953,1,0,0:0:0:0:
163,96,27046,1,0,0:0:0:0:
96,224,27324,1,12,0:0:0:0:
96,224,27694,1,12,0:0:0:0:
192,256,27880,1,0,0:0:0:0:
224,256,27972,1,0,0:0:0:0:
256,256,28065,1,0,0:0:0:0:
256,192,28343,6,2,L|224:64,1,125
192,64,28713,1,8,0:0:0:0:
160,64,28898,1,8,0:0:0:0:
128,64,29084,1,8,0:0:0:0:
96,192,29501,2,0,L|128:128,2,62.5,8|8|8,0:0|0:0|0:0,0:0:0:0:
128,256,30103,1,0,0:0:0:0:
128,256,30195,1,0,0:0:0:0:
128,256,30288,1,0,0:0:0:0:
192,256,30566,2,2,B|256:192|288:256|352:160|352:128,1,187.5
96,160,31307,1,8,0:0:0:0:
416,160,31677,1,12,0:0:0:0:
352,224,32233,5,0,0:0:0:0:
288,256,32418,1,8,0:0:0:0:
224,288,32603,1,0,0:0:0:0:
160,256,32789,1,8,0:0:0:0:
96,224,32928,1,0,0:0:0:0:
160,160,33113,1,8,0:0:0:0:
224,128,33298,1,0,0:0:0:0:
288,160,33715,1,8,0:0:0:0:
288,256,34039,1,0,0:0:0:0:
224,288,34363,1,8,0:0:0:0:
352,224,34549,1,0,0:0:0:0:
288,256,35104,1,8,0:0:0:0:
288,256,35290,1,8,0:0:0:0:
224,288,36031,1,14,0:0:0:0:
128,256,36216,1,14,0:0:0:0:
64,192,36401,1,14,0:0:0:0:
96,96,36586,2,0,L|192:96,1,62.5,0|10,0:0|0:0,0:0:0:0:
192,96,36818,22,0,L|192:160,3,62.5
256,64,37327,1,2,0:0:0:0:
320,64,37513,1,2,0:0:0:0:
384,96,38022,1,0,0:0:0:0:
384,160,38161,1,0,0:0:0:0:
384,224,38346,1,0,0:0:0:0:
256,224,38531,1,8,0:0:0:0:
128,160,38809,5,8,0:0:0:0:
128,160,38902,1,0,0:0:0:0:
128,160,38995,1,0,0:0:0:0:
192,128,39180,5,8,0:0:0:0:
192,128,39272,1,0,0:0:0:0:
192,128,39365,1,0,0:0:0:0:
224,64,39550,5,8,0:0:0:0:
224,64,39643,1,0,0:0:0:0:
224,64,39736,1,0,0:0:0:0:
160,64,39828,21,0,0:0:0:0:
128,96,40013,1,0,0:0:0:0:
96,128,40199,1,0,0:0:0:0:
96,160,40430,2,2,L|96:224,1,62.5
96,256,40754,1,0,0:0:0:0:
160,288,40940,1,0,0:0:0:0:
320,256,41310,1,12,0:0:0:0:
256,160,41681,1,12,0:0:0:0:
224,192,41959,2,2,L|96:192,1,125
96,192,42236,2,2,L|224:128,1,125
384,64,42792,5,0,0:0:0:0:
384,160,42977,1,8,0:0:0:0:
416,256,43348,1,0,0:0:0:0:
320,256,43533,1,8,0:0:0:0:
320,256,43626,1,0,0:0:0:0:
320,256,43718,1,0,0:0:0:0:
224,224,43904,1,0,0:0:0:0:
160,128,44367,1,0,0:0:0:0:
96,128,44552,1,0,0:0:0:0:
64,192,44737,1,0,0:0:0:0:
96,256,45108,2,2,P|224:256|288:192,1,187.5
288,160,45664,1,0,0:0:0:0:
288,64,46034,1,0,0:0:0:0:
288,64,46127,1,0,0:0:0:0:
288,64,46219,1,0,0:0:0:0:
160,96,46914,21,0,0:0:0:0:
160,160,47099,1,0,0:0:0:0:
160,256,47285,1,0,0:0:0:0:
256,256,47470,1,0,0:0:0:0:
192,128,47979,1,0,0:0:0:0:
288,192,48211,1,0,0:0:0:0:
384,96,48535,1,0,0:0:0:0:
96,160,49091,1,0,0:0:0:0:
160,224,49461,1,0,0:0:0:0:
288,224,49832,5,14,0:0:0:0:
288,224,49924,1,0,0:0:0:0:
288,224,50017,1,0,0:0:0:0:
192,224,50202,5,14,0:0:0:0:
192,224,50295,1,0,0:0:0:0:
192,224,50387,1,0,0:0:0:0:
96,160,50573,6,0,B|160:128|288:128|352:192,2,250
96,224,51684,1,0,0:0:0:0:
160,224,51869,1,0,0:0:0:0:
256,96,52055,1,0,0:0:0:0:
256,96,52240,1,0,0:0:0:0:
256,96,52425,1,0,0:0:0:0:
192,160,52610,1,8,0:0:0:0:
224,160,52703,1,0,0:0:0:0:
256,160,52796,1,0,0:0:0:0:
320,160,52981,1,8,0:0:0:0:
352,160,53074,1,0,0:0:0:0:
384,160,53166,1,0,0:0:0:0:
352,224,53537,5,0,0:0:0:0:
256,192,53815,1,0,0:0:0:0:
96,192,54185,2,2,P|160:64|256:64,1,250
128,64,55297,1,0,0:0:0:0:
160,64,55482,1,0,0:0:0:0:
192,64,55667,1,0,0:0:0:0:
256,64,55852,1,14,0:0:0:0:
352,160,56084,2,2,L|32:192,1,312.5
40,192,56825,1,12,0:0:0:0:
64,160,57473,2,2,P|288:96|352:96,1,250
303,95,57983,21,0,0:0:0:0:
320,192,58168,6,2,P|192:256|160:256,1,125
320,224,58677,6,2,P|256:256|224:256,1,62.5
96,160,59094,2,2,L|128:96,1,62.5
160,192,59279,2,2,L|192:288,1,62.5
224,160,59465,2,2,L|256:96,1,62.5
288,192,59650,2,2,L|352:288,2,62.5
384,224,60437,2,10,L|224:64,1,218.75
224,64,60947,2,10,L|96:128,1,125
112,119,61271,2,10,L|160:224,1,93.75
192,192,61688,2,12,L|256:160,1,62.5
256,96,62243,2,0,L|320:96,5,62.5
318,96,62892,2,2,L|320:224,1,125
288,224,63309,1,8,0:0:0:0:
96,128,63587,2,0,L|96:192,3,62.5
96,192,64050,2,0,L|160:192,3,62.5
160,192,64605,1,12,0:0:0:0:
192,96,65069,6,2,L|320:96,1,125
317,96,65439,2,2,L|320:224,1,125
320,224,65810,2,2,L|64:224,1,250
64,160,66967,2,0,P|64:96|160:64,1,125,8|0,0:0|0:0,0:0:0:0:
160,64,67292,1,10,0:0:0:0:
192,64,67477,1,10,0:0:0:0:
256,64,67801,2,0,L|256:128,1,62.5
256,128,67986,2,0,L|160:256,1,125
128,224,68449,1,0,0:0:0:0:
128,224,68542,1,0,0:0:0:0:
128,224,68635,1,0,0:0:0:0:
96,160,68912,2,2,L|224:96,3,125
207,104,69561,2,2,L|224:256,4,125
208,103,70441,1,14,0:0:0:0:
224,192,71135,2,2,L|224:64,1,125
256,64,71506,2,0,L|352:32,3,62.5
320,128,72154,2,2,L|160:256,1,187.5
128,224,72617,2,2,L|160:96,1,125
192,96,73173,2,0,L|288:160|288:160,2,62.5
192,96,73544,2,2,L|192:256,1,125
96,192,74007,1,8,0:0:0:0:
128,192,74099,1,0,0:0:0:0:
160,192,74192,1,0,0:0:0:0:
96,128,74516,2,0,L|320:128,1,187.5,0|10,0:0|0:0,0:0:0:0:
288,128,75072,1,0,0:0:0:0:
192,128,75581,1,8,0:0:0:0:
320,128,75767,1,8,0:0:0:0:
256,224,76508,2,0,L|256:160,14,62.5
160,160,78082,6,2,L|96:128,1,62.5
224,128,78360,2,2,L|224:64,1,62.5
280,161,78638,2,2,L|320:96,1,62.5
384,128,78916,2,14,B|352:288|224:288|160:256,1,250
64,192,79657,22,2,L|288:160,1,218.75
280,161,80213,1,12,0:0:0:0:
320,96,80583,1,0,0:0:0:0:
256,96,80768,1,0,0:0:0:0:
192,96,80954,2,2,L|128:320,1,187.5,10|2,0:0|0:0,0:0:0:0:
140,276,81417,1,0,0:0:0:0:
192,224,81602,2,2,L|96:128,1,125
256,224,81973,2,2,L|352:128,1,125
224,224,82343,2,0,L|256:64,3,125
128,256,83084,2,2,L|160:96,1,125
224,224,83455,1,0,0:0:0:0:
224,224,83640,1,0,0:0:0:0:
288,224,83825,2,0,L|320:96,2,125
288,224,84381,2,2,L|160:160,1,125
256,96,84937,1,0,0:0:0:0:
256,96,85122,1,0,0:0:0:0:
256,96,85307,1,0,0:0:0:0:
32,160,88178,5,2,0:0:0:0:
52,137,88271,1,0,0:0:0:0:
128,160,88549,5,2,0:0:0:0:
149,139,88642,1,0,0:0:0:0:
224,160,88919,5,2,0:0:0:0:
244,138,89012,1,0,0:0:0:0:
320,160,89290,5,2,0:0:0:0:
340,141,89383,1,0,0:0:0:0:
436,143,89660,21,2,0:0:0:0:
416,160,89753,1,0,0:0:0:0:
343,140,90031,5,2,0:0:0:0:
320,160,90124,1,0,0:0:0:0:
245,137,90401,5,2,0:0:0:0:
224,160,90494,1,0,0:0:0:0:
64,192,90957,6,2,P|160:64|256:64,2,250
192,224,92069,1,14,0:0:0:0:
224,224,92161,1,0,0:0:0:0:
256,224,92254,1,0,0:0:0:0:
288,128,92439,2,0,L|160:64,1,125
176,72,92717,1,0,0:0:0:0:
176,72,92902,1,0,0:0:0:0:
176,72,93088,1,0,0:0:0:0:
96,160,93736,2,2,L|256:160,2,125
96,160,94292,1,0,0:0:0:0:
96,160,94477,1,0,0:0:0:0:
128,224,94755,2,2,L|256:128,1,125
256,128,95496,1,14,0:0:0:0:
288,128,95588,1,0,0:0:0:0:
320,128,95681,1,0,0:0:0:0:
384,160,96144,6,0,B|352:224|288:224|224:224,3,125
224,224,96885,1,2,0:0:0:0:
160,224,97070,1,8,0:0:0:0:
96,224,97256,1,2,0:0:0:0:
96,160,97441,1,8,0:0:0:0:
288,128,97811,1,8,0:0:0:0:
288,128,97997,1,8,0:0:0:0:
288,128,98182,1,8,0:0:0:0:
128,128,98367,1,0,0:0:0:0:
160,128,98460,1,0,0:0:0:0:
192,128,98552,1,0,0:0:0:0:
352,96,100034,21,0,0:0:0:0:
352,224,100405,1,0,0:0:0:0:
192,192,100775,1,0,0:0:0:0:
192,128,101146,1,0,0:0:0:0:
128,192,101516,2,2,L|192:256,1,62.5
256,192,101794,1,2,0:0:0:0:
256,288,101980,1,14,0:0:0:0:
160,160,102535,2,0,L|224:96,7,62.5
160,160,103462,2,0,L|288:160,1,125
256,160,104110,1,8,0:0:0:0:
224,192,104203,1,0,0:0:0:0:
192,224,104295,1,0,0:0:0:0:
160,128,104480,1,8,0:0:0:0:
192,128,104573,1,0,0:0:0:0:
224,128,104666,1,0,0:0:0:0:
160,224,105407,2,0,L|224:288,8,62.5
160,224,106518,2,2,L|288:160,1,125
160,160,107074,1,0,0:0:0:0:
224,160,107167,1,0,0:0:0:0:
288,160,107259,1,0,0:0:0:0:
352,160,107722,6,0,P|384:96|320:64,1,125
353,64,108000,1,0,0:0:0:0:
353,64,108093,1,0,0:0:0:0:
288,64,108278,2,0,L|158:63,1,125
160,64,108649,2,0,L|93:63,1,62.5
64,96,109019,2,2,B|32:160|32:256|128:288,1,187.5
128,288,109482,1,0,0:0:0:0:
192,288,109667,1,0,0:0:0:0:
192,224,109853,1,0,0:0:0:0:
128,224,110038,1,0,0:0:0:0:
128,160,110223,1,0,0:0:0:0:
192,160,110408,1,0,0:0:0:0:
256,160,110779,1,10,0:0:0:0:
352,160,111149,1,10,0:0:0:0:
352,224,111427,2,2,P|320:288|192:288,1,187.5
160,256,112076,1,0,0:0:0:0:
160,256,112261,1,0,0:0:0:0:
192,192,112446,1,0,0:0:0:0:
128,192,112631,1,0,0:0:0:0:
128,128,112817,1,0,0:0:0:0:
256,64,113095,1,2,0:0:0:0:
352,128,113280,1,8,0:0:0:0:
256,224,113465,1,2,0:0:0:0:
352,256,113650,1,8,0:0:0:0:
64,96,114391,1,0,0:0:0:0:
64,256,114577,1,0,0:0:0:0:
288,96,115132,1,0,0:0:0:0:
320,224,115318,1,0,0:0:0:0:
384,96,115503,1,0,0:0:0:0:
448,192,115688,1,0,0:0:0:0:
224,128,116059,5,8,0:0:0:0:
206,143,116151,1,0,0:0:0:0:
184,160,116244,1,0,0:0:0:0:
132,218,116429,1,8,0:0:0:0:
133,193,116522,1,0,0:0:0:0:
132,158,116614,1,0,0:0:0:0:
128,64,116707,2,0,L|256:64,1,125,8|0,0:0|0:0,0:0:0:0:
253,64,117077,1,0,0:0:0:0:
256,128,117263,1,0,0:0:0:0:
256,192,117448,1,0,0:0:0:0:
192,192,117633,1,0,0:0:0:0:
192,256,117818,1,0,0:0:0:0:
96,128,118004,6,2,L|224:64,1,125
320,96,118282,6,2,L|192:192,1,125
160,288,118652,22,14,L|288:224,1,125
384,128,119300,6,0,P|416:160|384:224,1,125
192,160,119856,1,0,0:0:0:0:
256,96,120041,1,0,0:0:0:0:
320,160,120227,1,0,0:0:0:0:
320,256,120412,1,0,0:0:0:0:
192,256,120597,1,0,0:0:0:0:
256,224,120875,1,0,0:0:0:0:
256,160,121431,1,0,0:0:0:0:
256,160,121523,1,0,0:0:0:0:
256,160,121616,1,0,0:0:0:0:
256,160,121709,1,0,0:0:0:0:
256,160,121801,1,0,0:0:0:0:
256,160,121894,1,0,0:0:0:0:
256,160,121987,2,2,B|256:224|192:256|96:192,1,187.5
160,160,122728,2,0,L|160:64,1,62.5
352,96,123052,2,0,L|352:160,1,62.5
320,160,123932,1,0,0:0:0:0:
320,256,124117,1,0,0:0:0:0:
160,256,124302,1,0,0:0:0:0:
160,160,124487,1,0,0:0:0:0:
320,160,124673,1,0,0:0:0:0:
160,256,125043,1,0,0:0:0:0:
320,256,125228,1,0,0:0:0:0:
288,256,125321,1,0,0:0:0:0:
256,256,125414,1,0,0:0:0:0:
192,256,125692,2,2,P|256:32|320:256,1,625
256,160,126988,5,14,0:0:0:0:
256,160,127359,1,14,0:0:0:0:
320,64,127637,2,0,B|352:128|352:256|288:320,2,250
224,64,128748,1,0,0:0:0:0:
224,128,128933,1,0,0:0:0:0:
352,192,129119,1,0,0:0:0:0:
352,192,129304,1,0,0:0:0:0:
352,192,129489,1,0,0:0:0:0:
288,128,129674,1,8,0:0:0:0:
288,160,129767,1,0,0:0:0:0:
288,192,129860,1,0,0:0:0:0:
288,256,130045,1,8,0:0:0:0:
288,288,130138,1,0,0:0:0:0:
288,320,130230,1,0,0:0:0:0:
192,320,130601,5,0,0:0:0:0:
192,192,130879,1,0,0:0:0:0:
192,96,131249,2,0,P|320:160|320:256,1,250
288,288,132361,1,2,0:0:0:0:
224,288,132546,1,8,0:0:0:0:
160,288,132731,1,2,0:0:0:0:
96,288,132916,1,8,0:0:0:0:
288,288,133148,2,0,L|256:128,2,125
288,288,133935,2,2,L|160:224,1,125
256,96,134537,2,2,P|352:128|320:256,1,250
327,252,135047,1,8,0:0:0:0:
256,256,135232,2,2,P|192:128|192:96,1,125
224,128,135741,2,8,P|288:96|320:96,1,62.5,0|8,0:0|0:0,0:0:0:0:
320,96,136158,2,2,B|384:160|384:256|224:256,2,250
224,96,137269,1,0,0:0:0:0:
224,192,137454,1,0,0:0:0:0:
352,192,137640,1,0,0:0:0:0:
352,192,137825,1,0,0:0:0:0:
352,192,138010,1,0,0:0:0:0:
288,128,138195,1,8,0:0:0:0:
288,160,138288,1,0,0:0:0:0:
288,192,138381,1,0,0:0:0:0:
288,256,138566,1,8,0:0:0:0:
288,288,138659,1,0,0:0:0:0:
288,320,138751,1,0,0:0:0:0:
96,192,139307,6,2,B|160:224|288:224|352:160,2,250
96,128,140418,1,0,0:0:0:0:
160,128,140603,1,0,0:0:0:0:
256,256,140789,1,0,0:0:0:0:
256,256,140974,1,0,0:0:0:0:
256,256,141159,1,0,0:0:0:0:
192,192,141344,1,8,0:0:0:0:
224,192,141437,1,0,0:0:0:0:
256,192,141530,1,0,0:0:0:0:
320,192,141715,1,8,0:0:0:0:
352,192,141808,1,0,0:0:0:0:
384,192,141900,1,0,0:0:0:0:
352,128,142271,1,0,0:0:0:0:
256,160,142549,1,0,0:0:0:0:
96,160,142919,2,2,P|160:288|256:288,1,250
160,256,144031,1,0,0:0:0:0:
160,96,144216,1,0,0:0:0:0:
288,96,144401,1,0,0:0:0:0:
416,96,144587,1,0,0:0:0:0:
352,192,144818,2,2,L|160:160,1,187.5
160,160,145421,1,0,0:0:0:0:
160,160,145652,1,0,0:0:0:0:
64,192,145976,1,0,0:0:0:0:
64,192,146207,2,2,P|288:256|352:256,1,250
320,160,146810,2,2,P|192:96|96:128,2,250
96,160,148292,22,0,L|224:96,3,125
224,96,149033,1,0,0:0:0:0:
256,128,149218,2,0,L|273:280,4,125
320,192,150237,2,0,L|320:64,1,125
256,64,150608,2,0,L|192:96,3,62.5
286,121,151163,2,2,L|94:249,1,187.5
128,224,151627,2,2,L|160:96,1,125
158,102,151997,2,2,L|320:96,1,125
283,97,152414,1,0,0:0:0:0:
224,192,152738,1,0,0:0:0:0:
224,192,152923,1,0,0:0:0:0:
224,192,153109,1,0,0:0:0:0:
224,192,153294,1,0,0:0:0:0:
224,192,153664,1,0,0:0:0:0:
128,192,153850,2,0,P|128:128|192:128,1,125,8|0,0:0|0:0,0:0:0:0:
224,128,154220,1,2,0:0:0:0:
384,192,154591,2,0,P|384:128|320:128,1,125,8|0,0:0|0:0,0:0:0:0:
288,128,154962,1,8,0:0:0:0:
256,256,155332,1,2,0:0:0:0:
256,256,155702,1,2,0:0:0:0:
256,256,156073,1,6,0:0:0:0:
256,192,156814,5,4,0:0:0:0:
96,192,157832,1,4,0:0:0:0:
96,192,157971,1,0,0:0:0:0:
192,192,158388,1,0,0:0:0:0:
288,192,158759,1,0,0:0:0:0:
256,192,159639,5,0,0:0:0:0:
256,96,160889,1,4,0:0:0:0:
256,96,161028,1,0,0:0:0:0:
256,192,161260,1,0,0:0:0:0:
256,288,161630,1,0,0:0:0:0:
256,192,162556,5,4,0:0:0:0:
256,192,163483,1,0,0:0:0:0:
256,192,163668,1,0,0:0:0:0:
448,192,163853,1,8,0:0:0:0:
256,192,164224,1,0,0:0:0:0:
256,192,164409,1,0,0:0:0:0:
64,192,164594,1,8,0:0:0:0:
256,192,164872,1,0,0:0:0:0:
256,192,165057,1,0,0:0:0:0:
256,32,165242,1,8,0:0:0:0:
256,192,165613,1,0,0:0:0:0:
256,192,165798,1,0,0:0:0:0:
256,320,165983,1,8,0:0:0:0:
64,192,166354,1,0,0:0:0:0:
256,192,166539,1,0,0:0:0:0:
64,192,166724,1,8,0:0:0:0:
448,192,167095,1,0,0:0:0:0:
256,192,167280,1,0,0:0:0:0:
448,192,167465,1,12,0:0:0:0:
160,160,168392,5,0,0:0:0:0:
160,160,168484,1,0,0:0:0:0:
160,160,168577,1,0,0:0:0:0:
160,160,168670,1,0,0:0:0:0:
160,160,168762,1,0,0:0:0:0:
160,160,168855,1,0,0:0:0:0:
160,160,168947,1,0,0:0:0:0:
160,160,169040,1,0,0:0:0:0:
160,160,169133,1,0,0:0:0:0:
160,160,169225,1,0,0:0:0:0:
160,160,169318,2,2,L|288:96,1,125,0|8,0:0|0:0,0:0:0:0:
320,128,169781,22,2,L|384:160,1,62.5
375,155,169966,1,0,0:0:0:0:
375,155,170059,1,0,0:0:0:0:
416,192,170244,2,0,L|320:224,2,62.5,0|0|0,0:0|0:0|0:0,0:0:0:0:
416,192,170522,2,2,B|384:288|256:224|224:224,1,187.5,8|0,0:0|0:0,0:0:0:0:
192,256,170985,1,0,0:0:0:0:
96,160,171170,1,0,0:0:0:0:
128,64,171448,5,8,0:0:0:0:
128,64,171541,1,0,0:0:0:0:
128,64,171634,1,0,0:0:0:0:
128,64,171726,2,2,P|224:64|256:128,2,125
128,64,172282,22,8,L|192:64,2,62.5
224,96,172652,2,2,L|160:224,1,125
192,288,173023,22,2,L|384:160,1,187.5,2|10,0:0|0:0,0:0:0:0:
128,256,173764,1,0,0:0:0:0:
128,256,173857,1,0,0:0:0:0:
128,256,173949,1,0,0:0:0:0:
128,224,174042,22,2,B|128:160|160:224|160:160|192:224|192:160|224:224|224:160|256:224|256:128,1,187.5,8|2,0:0|0:0,0:0:0:0:
255,137,174412,53,0,0:0:0:0:
255,137,174505,1,8,0:0:0:0:
256,64,174690,2,0,L|320:96,2,62.5
256,64,175061,2,0,L|192:96,2,62.5
128,128,175431,2,2,P|128:224|192:256,1,125
206,167,175987,2,2,P|206:199|270:231,1,62.5,8|0,0:0|0:0,0:0:0:0:
224,224,176172,2,2,L|288:128,1,62.5
320,128,176357,1,0,0:0:0:0:
320,128,176450,2,2,L|320:224,1,62.5
320,224,176728,2,4,L|416:224,1,62.5,8|4,0:0|0:0,0:0:0:0:
256,224,177098,5,0,0:0:0:0:
160,192,177284,1,0,0:0:0:0:
160,96,177469,1,0,0:0:0:0:
224,96,177562,2,0,L|320:96,1,62.5
288,96,177839,1,0,0:0:0:0:
288,160,177932,2,0,B|288:224|224:288|160:224|160:160,1,187.5
160,192,178395,1,8,0:0:0:0:
160,192,178488,1,0,0:0:0:0:
160,128,178580,2,2,B|224:32|224:64|224:288,1,250
224,256,179136,1,10,0:0:0:0:
224,256,179970,5,10,0:0:0:0:
224,256,180062,1,0,0:0:0:0:
224,256,180155,1,0,0:0:0:0:
320,256,180340,5,10,0:0:0:0:
320,256,180433,1,8,0:0:0:0:
320,256,180526,1,0,0:0:0:0:
352,192,180711,5,10,0:0:0:0:
352,192,180803,1,0,0:0:0:0:
352,192,180896,1,0,0:0:0:0:
352,128,181081,53,2,0:0:0:0:
352,128,181174,1,8,0:0:0:0:
352,128,181267,1,0,0:0:0:0:
320,64,181452,5,10,0:0:0:0:
320,64,181544,1,0,0:0:0:0:
320,64,181637,1,8,0:0:0:0:
224,256,181822,5,10,0:0:0:0:
224,256,181915,1,0,0:0:0:0:
224,256,182008,1,8,0:0:0:0:
192,192,182193,53,10,0:0:0:0:
192,192,182285,1,0,0:0:0:0:
192,192,182378,1,8,0:0:0:0:
192,128,182563,5,10,0:0:0:0:
192,128,182656,1,0,0:0:0:0:
192,128,182749,1,8,0:0:0:0:
320,128,182934,1,2,0:0:0:0:
384,128,183119,1,8,0:0:0:0:
320,128,183304,1,2,0:0:0:0:
320,192,183490,1,8,0:0:0:0:
320,128,183675,1,2,0:0:0:0:
256,128,183860,1,8,0:0:0:0:
320,128,184045,1,2,0:0:0:0:
320,64,184231,1,6,0:0:0:0:
224,160,184416,5,4,0:0:0:0:
224,160,184601,1,4,0:0:0:0:
224,160,184786,1,4,0:0:0:0:
224,160,184972,2,0,B|224:224|160:224|160:192,1,62.5,6|8,0:0|0:0,0:0:0:0:
256,224,185805,5,2,0:0:0:0:
256,224,185898,1,0,0:0:0:0:
320,192,186176,1,2,0:0:0:0:
320,192,186268,1,0,0:0:0:0:
192,192,186546,1,2,0:0:0:0:
192,192,186639,1,0,0:0:0:0:
128,192,186917,1,2,0:0:0:0:
128,192,187009,1,0,0:0:0:0:
384,192,187287,1,2,0:0:0:0:
384,192,187380,1,0,0:0:0:0:
224,256,187658,1,2,0:0:0:0:
224,256,187750,1,0,0:0:0:0:
288,256,188028,1,2,0:0:0:0:
288,256,188121,1,0,0:0:0:0:
256,192,188399,1,2,0:0:0:0:
256,192,188491,1,0,0:0:0:0:
192,160,188677,22,2,L|192:96,1,62.5
192,97,188862,2,0,L|256:64,1,62.5
247,68,189047,2,0,L|320:96,1,62.5
352,64,189510,2,0,L|352:224,1,125
352,189,189788,1,0,0:0:0:0:
352,189,189881,1,0,0:0:0:0:
320,160,190066,6,2,L|320:96,1,62.5
320,97,190251,2,0,L|256:64,1,62.5
265,68,190436,2,0,L|192:96,1,62.5
96,192,190807,2,0,L|224:128,1,125
256,160,191085,2,0,P|256:224|160:224,1,125
256,288,191455,6,2,L|384:224,1,125
384,192,191826,2,0,P|352:128|288:128,1,125
304,121,192196,2,0,B|319:223|223:159|319:287|48:217|240:153,1,250
96,96,192752,1,0,0:0:0:0:
128,160,193123,6,2,L|192:96,1,62.5,10|2,0:0|0:0,0:0:0:0:
160,192,193308,2,0,L|224:160,2,62.5,0|8|0,0:0|0:0|0:0,0:0:0:0:
192,224,193632,2,2,L|256:224,1,62.5,10|2,0:0|0:0,0:0:0:0:
256,96,193956,1,0,0:0:0:0:
256,96,194141,1,0,0:0:0:0:
352,96,194419,2,0,L|416:64,2,62.5
352,96,194790,2,2,L|352:224,1,125,10|2,0:0|0:0,0:0:0:0:
352,221,195068,1,0,0:0:0:0:
352,256,195253,1,0,0:0:0:0:
320,256,195531,2,2,P|288:192|384:128,1,187.5,10|2,0:0|0:0,0:0:0:0:
448,128,195994,1,14,0:0:0:0:
256,192,197476,5,0,0:0:0:0:
128,160,198958,1,0,0:0:0:0:
256,96,200347,1,0,0:0:0:0:
256,224,201829,1,0,0:0:0:0:
384,192,202292,1,0,0:0:0:0:
384,256,202756,1,0,0:0:0:0:
224,320,203311,1,0,0:0:0:0:
128,192,204423,1,0,0:0:0:0:
192,128,205164,1,0,0:0:0:0:
256,192,206183,37,0,0:0:0:0:
256,192,206738,1,0,0:0:0:0:
256,192,207248,1,0,0:0:0:0:
256,192,207479,1,0,0:0:0:0:
256,192,207665,1,0,0:0:0:0:
256,192,207850,1,0,0:0:0:0:
256,192,208035,1,0,0:0:0:0:
256,192,208220,1,0,0:0:0:0:
256,192,208591,1,12,0:0:0:0:
128,256,209147,2,2,B|192:288|320:288|384:224,2,250
128,160,210166,1,0,0:0:0:0:
192,160,210351,1,0,0:0:0:0:
256,288,210536,1,0,0:0:0:0:
256,288,210721,1,0,0:0:0:0:
256,288,210907,1,0,0:0:0:0:
192,224,211184,1,8,0:0:0:0:
224,224,211277,1,0,0:0:0:0:
256,224,211370,1,0,0:0:0:0:
320,224,211555,1,8,0:0:0:0:
352,224,211648,1,0,0:0:0:0:
384,224,211740,1,0,0:0:0:0:
64,128,211925,6,2,P|160:64|288:128,2,250
160,192,213778,1,0,0:0:0:0:
256,96,213963,1,0,0:0:0:0:
352,192,214148,1,0,0:0:0:0:
256,288,214334,1,0,0:0:0:0:
256,288,214704,2,2,L|256:96,1,187.5
256,96,215167,2,0,L|192:128,1,62.5
200,123,215353,2,0,L|320:192,1,125
256,192,215816,1,0,0:0:0:0:
256,192,216001,1,0,0:0:0:0:
256,192,216186,1,0,0:0:0:0:
256,192,216371,1,0,0:0:0:0:
160,160,216557,1,0,0:0:0:0:
256,96,216927,1,0,0:0:0:0:
352,160,217298,1,0,0:0:0:0:
96,160,218131,5,0,0:0:0:0:
288,128,218594,1,0,0:0:0:0:
288,160,218687,1,0,0:0:0:0:
288,192,218780,1,0,0:0:0:0:
320,192,219058,1,0,0:0:0:0:
192,320,219521,1,0,0:0:0:0:
256,256,219706,1,0,0:0:0:0:
192,192,219891,1,0,0:0:0:0:
192,96,220169,2,2,P|320:160|320:256,1,250
352,288,221095,1,0,0:0:0:0:
288,288,221281,1,0,0:0:0:0:
224,288,221466,1,0,0:0:0:0:
160,288,221651,1,0,0:0:0:0:
96,288,221836,1,0,0:0:0:0:
96,288,222022,1,0,0:0:0:0:
96,288,222207,1,0,0:0:0:0:
256,192,222577,1,0,0:0:0:0:
256,96,223457,2,2,P|352:128|352:160,1,125
352,128,224059,1,0,0:0:0:0:
448,192,224430,1,0,0:0:0:0:
128,320,224800,1,0,0:0:0:0:
448,192,225171,1,0,0:0:0:0:
64,192,225541,1,0,0:0:0:0:
256,192,225680,1,0,0:0:0:0:
160,192,225912,1,0,0:0:0:0:
64,192,226560,6,2,L|288:224,1,218.75
280,223,227116,1,0,0:0:0:0:
320,288,227486,1,0,0:0:0:0:
256,288,227671,1,0,0:0:0:0:
192,288,227857,2,2,L|128:64,1,187.5
140,108,228320,1,0,0:0:0:0:
224,160,228505,2,2,L|128:256,1,125
256,160,228876,2,2,L|352:256,1,125
224,160,229246,2,0,L|256:320,3,125
128,128,229987,2,2,L|160:288,1,125
224,160,230358,1,0,0:0:0:0:
224,160,230543,1,0,0:0:0:0:
288,160,230728,2,2,L|320:288,2,125
288,160,231284,2,2,L|160:224,1,125
256,288,231840,69,14,0:0:0:0:
256,288,232025,53,14,0:0:0:0:
256,288,232210,5,14,0:0:0:0:
256,192,232488,12,0,234619,0:0:0:0:
256,192,234989,69,6,0:0:0:0:
256,192,235174,1,6,0:0:0:0:
