osu file format v5

[General]
AudioFilename: Rozen Maiden Overture - Utsusemi no Kage.mp3
AudioLeadIn: 0
PreviewTime: -1
Countdown: 1
SampleSet: Soft
StackLeniency: 0.5
Mode: 0
LetterboxInBreaks: 1
EditorBookmarks: 18372,32834,36081,40066,41394,64416

[Metadata]
Title:Utsusemi no Kage
Artist:kukui
Creator:potter_0016
Version:Hard
Source:
Tags:

[Difficulty]
HPDrainRate:8
CircleSize:5
OverallDifficulty:5
SliderMultiplier:2
SliderTickRate:2

[Events]
//Background and Video events
0,0,"suigintou1024mi4.png"
//Break Periods
2,32739,35176
2,108072,109626
2,158610,162824
//Storyboard Layer 0 (Background)
//Storyboard Layer 1 (Failing)
//Storyboard Layer 2 (Passing)
//Storyboard Layer 3 (Foreground)
//Storyboard Sound Samples
//Background Colour Transformations
3,100,163,162,255

[TimingPoints]
18356,295.493720758434,3,2,0,100,1

[Colours]
Combo1 : 191,0,67
Combo2 : 124,69,146
Combo3 : 0,0,0
Combo4 : 191,191,191

[HitObjects]
176,352,18353,2,4,B|66:324|71:183|192:32|320:32|480:192|416:352,1,600
336,352,20128,2,4,B|445:324|440:183|320:32|192:32|32:192|96:352,1,600
256,288,21310,5,2
192,256,21606,1,2
160,192,21901,1,0
192,192,22049,1,0
256,192,22345,1,0
320,192,22640,1,0
352,128,22788,2,0,B|288:32|160:64,2,200
352,256,23674,2,4,B|288:352|160:320,4,200
192,160,25743,6,0,B|192:288,1,100,0|0
256,256,26038,2,0,B|256:128,1,100,0|0
320,160,26334,1,0
320,256,26629,1,0
384,256,26777,1,0
192,160,27516,6,0,B|192:288,1,100
256,256,27811,2,0,B|256:128,1,100
320,160,28107,1,0
320,256,28402,1,0
384,256,28550,1,0
384,160,28846,1,0
320,160,28993,1,0
256,96,29289,1,0
256,32,29437,6,0,B|64:32|64:352|256:352|480:352|480:256|480:224|480:32|384:32|256:128,1,900
256,32,31653,2,0,B|64:32|64:288,2,300
32,80,36381,6,0,B|128:112,1,100
160,80,36676,2,0,B|64:112,1,100
48,160,36972,1,0
144,160,37267,1,0
128,208,37415,1,0
320,288,38154,6,0,B|224:256,1,100
192,288,38449,2,0,B|288:256,1,100
304,208,38745,1,0
208,208,39040,1,0
224,160,39188,1,0
304,96,39483,1,0
256,64,39631,1,0
160,48,39927,1,0
112,48,40074,2,0,B|432:48|464:48|464:80|464:336|464:368|432:368|48:352,1,900,0|4
384,272,42290,6,0,B|96:96,2,300
48,192,44654,6,0,B|304:192,1,200
352,192,45245,1,0
432,128,45541,1,0
352,64,45836,1,0
272,128,46132,1,0
192,192,46427,1,0
112,256,46723,6,0,B|112:80|112:64|112:48|128:48|144:48|448:48|464:48|480:48|480:64|480:80|480:224,1,600,0|4
192,32,48496,2,0,B|352:176,1,200
256,224,49087,1,0
176,288,49382,1,0
256,352,49678,2,0,B|323:193|48:0,1,400,0|4
80,128,50564,1,0
80,224,50860,1,0
80,320,51155,1,0
160,272,51451,1,0
224,208,51746,1,0
288,144,52042,1,0
352,224,53519,6,4,B|96:224,2,200
448,224,54406,2,4,B|368:160|352:160|336:160|80:160|64:160|32:160|32:288|32:352|480:352,1,800
320,288,55883,5,0
272,256,56031,1,0
192,192,56326,1,0
224,160,56474,1,0
288,80,56770,1,0
256,192,57361,5,4
336,128,57656,1,0
320,176,57804,1,0
272,272,58099,1,0
240,320,58247,1,0
176,256,58543,2,0,B|48:64,1,200
160,64,59134,1,4
256,64,59429,6,0,B|256:176,1,100
256,256,59872,2,0,B|256:368,1,100
352,352,60316,2,0,B|352:128,1,200
416,80,60907,1,0
416,176,61202,1,0
416,224,61350,2,0,B|416:352|16:352|32:64,1,500
32,32,62384,2,0,B|256:32,1,200
336,32,62975,1,0
384,48,63123,2,0,B|523:124|510:376|232:441|-34:376|16:256|16:48,1,900
64,192,66521,6,0,B|140:320|224:192,1,200
448,192,67407,2,0,B|372:320|288:192,1,200
256,16,68294,1,0
256,64,68442,1,0
256,112,68589,1,0
256,160,68737,1,0
256,208,68885,1,0
256,304,69180,1,0
256,352,69328,2,4,B|464:112,1,300,0|4
352,128,70067,5,0
320,160,70215,1,0
224,128,70510,1,0
192,160,70658,2,0,B|0:64,1,200
48,160,71249,1,0
80,256,71544,1,4
160,256,71840,5,0
192,224,71988,1,0
288,256,72283,1,0
320,224,72431,2,4,B|512:320,3,200
496,208,73613,5,0
448,208,73761,2,0,B|224:208,1,200
192,208,74204,2,0,B|16:80,4,200
240,208,75534,2,0,B|448:64,1,200
400,48,75977,1,0
304,48,76272,1,0
208,48,76568,1,0
96,48,76863,1,0
96,144,77159,2,0,B|208:144,1,100
352,144,77750,5,0
352,240,78045,1,0
288,320,78341,1,0
192,320,78636,2,0,C|16:192,1,200
32,144,79079,1,0
176,144,79523,2,4,C|464:144,2,200
176,240,80409,2,4,C|400:240,1,200,4|0
432,240,80852,1,0
432,96,81296,1,0
336,96,81591,5,0
240,96,81887,1,0
144,96,82182,2,0,C|384:288,1,300
272,288,82921,1,0
224,288,83069,1,0
128,288,83364,1,0
32,288,83660,1,0
32,192,83955,6,0,C|64:96|496:288,1,600
496,192,85137,1,0
448,160,85285,1,0
400,144,85433,1,0
304,144,85728,2,0,L|480:256|176:256|176:96,1,600,0|4
256,192,89274,12,4,99912
64,192,101980,1,0
112,208,102128,1,0
160,192,102276,1,0
208,176,102423,1,0
256,192,102571,2,0,C|400:192,1,100
352,144,102867,1,0
304,128,103014,2,0,C|192:128,1,100
160,128,103310,1,0
112,128,103458,2,0,C|32:192,3,100
144,288,104344,1,0
240,288,104640,1,0
336,288,104935,1,0
432,288,105231,1,0
432,192,105526,1,0
384,192,105674,1,0
400,336,106117,2,0,C|256:336,6,100,4|4|4|4|4|4|4
256,80,107890,5,4
464,192,110845,5,4
48,192,112323,1,0
144,192,112618,1,0
192,192,112766,1,0
336,192,113209,1,0
480,192,113652,1,0
336,192,114095,1,0
240,192,114391,1,0
144,192,114686,1,0
48,192,114982,1,0
96,96,115277,1,0
144,192,115573,1,0
208,272,115868,1,0
272,192,116164,2,0,C|352:272,3,100
368,224,116755,1,0
400,192,116903,1,0
432,160,117050,1,0
336,128,117346,1,0
256,64,117641,1,4
256,160,117937,1,4
112,192,121187,5,0
416,192,122074,1,0
128,128,122960,1,0
208,64,123256,1,0
304,64,123551,1,0
368,144,123847,2,0,C|256:320,3,200
256,192,125029,5,0
256,96,125324,1,0
160,144,125620,2,0,C|368:144,1,200
256,192,126211,1,0
256,288,126506,1,0
160,192,127984,6,2,C|416:192,3,200
400,288,129166,1,0
304,288,129461,1,0
208,288,129757,1,0
112,288,130052,1,4
112,192,130348,6,0,C|224:192,1,100
304,192,130791,2,0,C|416:192,1,100
464,112,131234,1,0
368,112,131530,1,0
272,112,131825,1,4
400,192,132121,6,0,C|288:192,1,100
208,192,132564,2,0,C|96:192,1,100
48,272,133007,1,0
144,272,133303,1,0
240,272,133598,1,4
336,272,133894,6,0,C|256:192,3,100
224,176,134485,1,0
160,96,134780,1,0
64,96,135076,1,0
16,192,135371,5,0
112,192,135667,1,0
160,192,135814,1,0
256,192,136110,1,0
304,192,136257,1,0
400,192,136553,1,0
480,240,136848,1,0
384,272,137144,6,0,C|224:112,1,200
192,144,137587,2,0,C|16:288,1,200
80,288,138030,1,0
176,288,138326,1,0
272,288,138621,1,0
368,288,138917,2,0,C|80:32,1,300
288,80,139803,1,0
384,80,140099,1,0
480,80,140394,1,0
432,160,140690,1,0
336,160,140985,6,0,C|256:224,1,100
224,256,141281,1,0
128,256,141576,1,0
48,192,141872,2,0,C|128:112,1,100
160,80,142167,1,0
256,80,142463,1,0
352,80,142758,2,0,C|240:192,3,100
320,192,143349,1,0
256,272,143645,2,0,C|256:160,1,100
48,320,144531,6,0,C|128:256,1,100
32,224,144975,2,0,C|128:160,1,100
192,112,145418,2,4,C|400:272,2,200
464,320,146304,6,0,C|384:256,1,100
480,224,146748,2,0,C|384:160,1,100
320,112,147191,1,0
224,112,147486,1,0
128,112,147782,1,0
176,192,148077,6,0,C|256:64,1,100
336,192,148520,2,0,C|256:64,1,100
256,16,148964,2,0,C|256:288,1,200
256,320,149555,2,0,C|256:112,1,200
256,64,149998,2,0,C|64:304,1,300
160,304,150737,1,0
256,304,151032,1,0
352,304,151328,1,0
448,304,151623,2,0,C|400:192,1,100
368,128,152066,2,0,C|224:128,1,100
176,112,152510,5,4
80,112,152805,1,4
128,192,153101,1,0
176,192,153248,1,0
224,192,153396,1,0
272,192,153544,1,0
368,192,153839,1,0
416,192,153987,1,0
416,288,154283,1,4
320,288,154578,1,4
256,208,154874,6,0,C|96:64,1,200
64,48,155317,1,0
208,48,155760,1,0
304,48,156056,1,0
400,48,156351,1,0
464,128,156647,1,0
400,208,156942,1,0
320,272,157238,1,0
240,320,157533,1,0
144,320,157829,2,0,C|144:208,1,100
144,176,158124,1,0
144,80,158420,1,0
256,192,164034,5,0
160,192,164329,1,0
256,192,164625,1,0
352,192,164920,1,0
256,192,165216,1,0
160,192,165511,1,0
256,192,165807,1,0
352,192,166102,2,0,C|144:192,1,200
160,96,166989,2,0,C|352:192,1,200
256,192,167284,12,0,170830
160,112,171421,5,0
256,112,171717,1,0
208,192,172012,1,0
304,192,172308,1,0
272,288,172603,1,0
256,192,173637,12,4,177922
